#VERSION:0.83;
#TITLE:XTREME;
#SUBTITLE:;
#ARTIST:USAO;
#TITLETRANSLIT:;
#SUBTITLETRANSLIT:;
#ARTISTTRANSLIT:;
#GENRE:SUPER ULTIMATE HYPER CORE;
#ORIGIN:;
#CREDIT:;
#BANNER:banner.png;
#BACKGROUND:background.png;
#PREVIEWVID:;
#JACKET:jacket.png;
#CDIMAGE:;
#DISCIMAGE:;
#LYRICSPATH:;
#CDTITLE:CDTITLE.png;
#MUSIC:XTREME.ogg;
#OFFSET:-0.111000;
#SAMPLESTART:91.428070;
#SAMPLELENGTH:18.731705;
#SELECTABLE:YES;
#BPMS:0.000=205.000;
#STOPS:;
#DELAYS:;
#WARPS:;
#TIMESIGNATURES:0.000=4=4;
#TICKCOUNTS:0.000=4;
#COMBOS:0.000=1;
#SPEEDS:0.000=1.000=0.000=0;
#SCROLLS:0.000=1.000;
#FAKES:;
#LABELS:0.000=Song Start;
#BGCHANGES:;
#KEYSOUNDS:;
#ATTACKS:
;

//---------------dance-single - ----------------
#NOTEDATA:;
#CHARTNAME:;
#STEPSTYPE:dance-single;
#DESCRIPTION:;
#CHARTSTYLE:;
#DIFFICULTY:Hard;
#METER:17;
#RADARVALUES:0.818040,1.377887,0.615045,0.247432,0.321662,810.000000,723.000000,87.000000,35.000000,0.000000,0.000000,0.000000,0.000000,0.000000,0.818040,1.377887,0.615045,0.247432,0.321662,810.000000,723.000000,87.000000,35.000000,0.000000,0.000000,0.000000,0.000000,0.000000;
#CREDIT:Pandemonium X;
#NOTES:
// measure 0
0000
0000
0000
0000
,  // measure 1
0000
0000
0000
0000
,  // measure 2
0000
0000
0000
0000
,  // measure 3
0000
0000
0000
0000
,  // measure 4
0000
0000
0000
0000
,  // measure 5
1000
0000
0001
0000
0010
0100
1000
0001
,  // measure 6
0010
0000
0001
0000
1000
0100
0010
0100
,  // measure 7
2000
0000
0000
0000
3010
0000
0100
0001
,  // measure 8
0011
0000
1010
0000
0001
1000
1001
0000
,  // measure 9
1000
0000
0001
0000
0010
0000
0000
0000
0100
0000
0000
0000
0010
0000
0001
1000
,  // measure 10
0001
0000
1000
0000
0010
0100
0010
0100
,  // measure 11
0001
0000
0000
0000
1000
0000
0000
0000
0100
0000
0000
0000
0010
0000
0100
1000
,  // measure 12
0100
0000
0000
0000
1000
0000
0000
0000
0010
0000
0100
0000
0001
1000
0001
0000
,  // measure 13
1000
0100
1000
0010
1000
0100
0001
0100
,  // measure 14
1000
0010
0100
0001
0010
1000
0010
0001
,  // measure 15
1000
0001
1000
0001
1000
0001
1000
0001
1000
0001
1000
0001
1000
0001
1000
0001
,  // measure 16
1000
0000
0000
0000
,  // measure 17
0001
0010
0001
1000
0010
1000
0001
0010
,  // measure 18
0100
0000
1000
0000
0100
0000
1000
0000
0001
0000
0100
0000
0001
0000
0010
0100
,  // measure 19
1000
0000
0100
0000
1000
0000
0001
0000
0100
0000
0010
1000
0000
0100
0010
0000
,  // measure 20
1001
0000
0000
0220
0000
0000
0000
0330
,  // measure 21
1000
0010
1000
0010
0100
0001
0100
0001
0010
0001
0010
0001
1000
0100
1000
0100
,  // measure 22
1000
0010
1000
0010
0100
0001
0100
0001
1000
0010
0100
0001
1000
0010
0100
0001
,  // measure 23
1000
0100
1000
0010
0100
0001
0010
0100
1000
0100
1000
0100
0010
0001
0010
0100
,  // measure 24
1000
0000
0000
0100
0000
0000
1000
0000
0001
1000
0001
0000
1100
0000
0000
0000
,  // measure 25
1000
0010
1000
0001
0010
0100
0010
0001
,  // measure 26
1000
0010
1000
0001
0010
0100
0010
0001
,  // measure 27
1000
0001
0010
0100
0010
0001
0100
0001
,  // measure 28
1001
0000
0110
0000
1001
1001
1001
0000
,  // measure 29
0001
0100
0010
1000
0001
1000
0100
0010
,  // measure 30
0100
0000
1000
0000
0001
0000
0100
0000
0010
0000
1000
0000
0100
0000
0010
0001
,  // measure 31
1000
0010
1000
0100
0010
0001
0010
0001
,  // measure 32
1000
0000
0001
0000
0100
0100
0100
0000
,  // measure 33
1001
1000
0001
0000
0010
0000
0001
0000
,  // measure 34
0100
0000
0000
0000
0010
0000
0000
0000
1000
0000
0000
0000
0001
0000
0010
0001
,  // measure 35
1000
0100
0010
0001
1000
0100
0010
0001
,  // measure 36
1001
0000
0000
0000
,  // measure 37
1100
1010
1100
0000
1001
0000
0101
0000
,  // measure 38
0011
0000
0000
0000
0110
0000
0000
0000
0011
0000
0000
0000
1001
0000
1000
0001
,  // measure 39
1000
0000
0011
0010
0011
0000
1100
0000
,  // measure 40
1100
0000
1000
0010
0100
0000
0000
0000
0001
0100
0010
1000
0100
0000
0000
0000
,  // measure 41
0110
0011
0110
0000
1100
0000
1100
0000
,  // measure 42
0101
0000
0000
0000
0101
0000
0000
0000
1001
0000
0000
0000
1010
0000
0001
0100
,  // measure 43
0001
0010
0100
0010
0010
0100
0100
2200
,  // measure 44
0000
0000
0000
0000
0000
3300
0011
0000
,  // measure 45
1000
0001
0011
0000
1000
0001
0101
0000
,  // measure 46
0001
0100
0110
0000
0010
1000
1100
0000
,  // measure 47
1000
0001
0011
0000
0010
0100
1100
0000
,  // measure 48
1001
0000
0000
0000
0110
0000
0000
0000
1000
0001
1000
0000
1010
0000
1000
0000
,  // measure 49
1100
0000
0011
0000
0010
0010
0001
0001
,  // measure 50
1000
0100
0010
0100
1000
0001
0100
0001
,  // measure 51
0101
0000
0110
0000
1001
1001
0000
0000
,  // measure 52
0002
0000
0023
0000
0032
0000
0003
0002
,  // measure 53
1003
0010
0200
0300
,  // measure 54
0000
0010
2000
3000
,  // measure 55
0001
0000
1000
0100
0010
0000
0100
0000
,  // measure 56
1000
0010
0000
0200
0000
0002
0000
0303
,  // measure 57
0000
1000
0200
0300
,  // measure 58
0000
0010
0002
0003
,  // measure 59
1000
0000
0100
0010
0001
0000
0010
0100
,  // measure 60
1000
0000
0001
0000
0100
0000
0000
0000
0010
0100
0010
0000
0100
0000
0001
0000
,  // measure 61
1000
0000
0001
0000
0000
0100
0001
0000
,  // measure 62
0010
0000
0100
0000
0000
0010
0001
0000
,  // measure 63
1000
0000
0100
0010
0001
0000
0010
0000
,  // measure 64
0001
0100
0000
0020
0000
2000
0000
3030
,  // measure 65
0001
0000
1000
0000
0000
0100
1000
0000
,  // measure 66
0100
0000
0010
0000
0000
0001
0100
0000
,  // measure 67
0010
0000
0010
0100
0001
0000
0001
1000
,  // measure 68
1100
0000
0101
0000
1001
0000
0000
1001
,  // measure 69
2000
0001
3001
0000
0020
0000
0130
0000
,  // measure 70
0010
0100
1000
0001
,  // measure 71
2000
3010
0200
0301
,  // measure 72
1100
0000
0000
0022
0000
0000
0000
0033
,  // measure 73
0001
0010
0001
0010
0100
1000
0100
1000
0010
1000
0010
1000
0001
0100
0001
0100
,  // measure 74
0001
0000
0001
0000
1000
0100
0010
0001
1000
0000
1000
0010
0000
0010
1000
0000
,  // measure 75
1000
0000
0001
1000
0000
1000
0100
0010
0001
0100
0010
1000
0001
0010
0100
1000
,  // measure 76
0001
0000
0000
0000
,  // measure 77
1001
0000
0200
0300
,  // measure 78
1001
0001
0010
0100
0010
0001
0100
0010
,  // measure 79
1000
0000
0001
0000
0010
0000
0100
0000
0010
0000
0001
0010
0100
0000
0010
0000
,  // measure 80
0001
0000
1000
0000
0100
0000
1000
0000
0010
0000
0100
0000
0001
0000
0010
0100
,  // measure 81
1000
0010
0100
0001
0010
0100
1000
0001
,  // measure 82
1000
0010
0100
0001
0010
0100
0010
0001
,  // measure 83
1000
0000
0100
0000
0010
0000
0100
0000
1000
0000
0001
0000
0100
0000
0010
1000
,  // measure 84
0100
0010
0100
1000
0010
0100
0001
0010
,  // measure 85
0011
0000
0000
1100
0000
0000
1001
0000
0001
0100
1000
0000
0100
0000
0010
0000
,  // measure 86
2010
0000
0002
3003
,  // measure 87
1000
0100
0010
0000
0000
0000
0000
0000
0100
1000
0010
0000
0000
0000
0000
0000
,  // measure 88
0102
0000
0020
0033
,  // measure 89
0010
0100
1000
0000
0000
0000
0100
0010
0001
0000
1000
0001
0100
0000
0010
0000
,  // measure 90
1000
0000
0100
0000
0010
0000
0000
0000
1100
0000
0000
0100
0010
0000
0001
0000
,  // measure 91
1000
0000
0001
0000
0100
0000
0000
0000
0110
0000
0010
0100
0001
0000
1000
0000
,  // measure 92
0100
0010
0001
0010
0100
1000
0010
0100
,  // measure 93
0001
1000
0001
1000
0001
1000
0001
1000
0001
0000
0000
0000
0000
0000
0000
0000
,  // measure 94
0220
0000
0000
0000
,  // measure 95
0000
0000
0000
0330
,  // measure 96
0001
0000
0100
0000
0010
0000
1000
0000
0001
0000
0010
0000
0100
0000
0010
0001
,  // measure 97
1000
0001
0010
0001
0100
0010
1000
0100
,  // measure 98
0010
0000
0000
0000
0001
0000
0010
0000
0001
0000
0100
0000
0010
0000
1000
0001
,  // measure 99
1000
0001
0010
0100
0010
0001
0100
0010
,  // measure 100
1000
0000
0000
0000
0100
0010
0001
0000
0010
0000
0000
0000
0100
0000
1000
0000
,  // measure 101
1100
0101
1010
0110
,  // measure 102
1001
0001
0010
1000
0010
0001
0100
0010
,  // measure 103
1000
0000
0100
0000
0001
0000
0100
0000
1000
0000
0010
0000
0100
0000
0010
1000
,  // measure 104
0100
0010
0100
1000
0001
0100
0001
0010
,  // measure 105
0100
0000
0010
0000
0001
0000
1000
0000
0010
0000
0100
0001
1000
0000
0100
0000
,  // measure 106
0010
0000
0100
1000
0010
0100
0001
0010
,  // measure 107
0001
1000
0010
0100
0001
0010
0100
1000
,  // measure 108
1001
0000
0010
0000
1001
0000
0100
0001
,  // measure 109
0011
1010
0101
1010
,  // measure 110
1001
0110
0100
0010
,  // measure 111
1000
0000
0001
0000
0010
0000
0001
1000
,  // measure 112
0100
0010
0001
0100
,  // measure 113
1010
0000
1000
0200
0000
0301
0101
0000
,  // measure 114
1000
0001
0010
0001
,  // measure 115
0100
0100
0010
0000
1000
0000
0001
0000
,  // measure 116
1100
0000
0000
0011
0000
0000
0101
0000
0100
0010
1000
0000
0001
0000
0010
0000
,  // measure 117
0200
0000
2300
0000
3020
0000
0230
0300
,  // measure 118
1001
0010
0000
0000
0000
0000
0000
0000
;

//---------------dance-single - ----------------
#NOTEDATA:;
#CHARTNAME:;
#STEPSTYPE:dance-single;
#DESCRIPTION:;
#CHARTSTYLE:;
#DIFFICULTY:Medium;
#METER:14;
#RADARVALUES:0.680690,1.002100,0.650393,0.233293,0.056556,674.000000,582.000000,92.000000,33.000000,0.000000,0.000000,0.000000,0.000000,0.000000,0.680690,1.002100,0.650393,0.233293,0.056556,674.000000,582.000000,92.000000,33.000000,0.000000,0.000000,0.000000,0.000000,0.000000;
#CREDIT:Pandemonium X;
#NOTES:
// measure 0
0000
0000
0000
0000
,  // measure 1
0000
0000
0000
0000
,  // measure 2
0000
0000
0000
0000
,  // measure 3
0000
0000
0000
0000
,  // measure 4
0000
0000
0000
0000
,  // measure 5
1000
0000
0001
0000
0010
0100
1000
0000
,  // measure 6
0001
0000
1000
0000
0100
0010
0001
0000
,  // measure 7
0200
0000
0000
0000
0320
0000
1030
0100
,  // measure 8
0110
0000
0011
0000
0001
1000
1001
0000
,  // measure 9
1000
0010
0100
0000
0001
0000
0010
0100
,  // measure 10
1000
0000
0001
0000
1000
0100
1000
0100
,  // measure 11
0010
0000
0100
1000
0010
0000
0100
0001
,  // measure 12
0010
0000
0100
0000
0010
0001
0100
0010
,  // measure 13
0100
0001
0010
0000
0100
1000
0010
0000
,  // measure 14
1000
0001
0100
0000
0001
1000
0100
0000
,  // measure 15
1000
0100
0010
0001
0010
0100
1000
0010
,  // measure 16
0110
0000
0000
0000
,  // measure 17
1000
0100
1000
0010
,  // measure 18
0100
0000
0001
0000
0010
0000
0100
1000
,  // measure 19
0010
0100
0001
0010
,  // measure 20
2100
0000
0000
3020
0000
0000
0000
0000
,  // measure 21
0130
0001
0010
1000
0010
0001
0100
0010
,  // measure 22
1000
0001
0100
1000
0100
0010
1000
0001
,  // measure 23
0010
1000
0010
0001
0100
1000
0100
0010
,  // measure 24
1010
0000
0101
0000
0001
1000
1001
0000
,  // measure 25
1010
0000
0010
0100
0101
0000
0001
0000
,  // measure 26
0010
0000
0001
0000
1000
0000
0010
0100
,  // measure 27
0110
0000
0010
1000
1100
0000
0100
0010
,  // measure 28
0011
0000
0011
0000
1100
1100
1100
0000
,  // measure 29
1001
0000
1000
0001
0011
0000
0001
0100
,  // measure 30
0010
0000
1000
0000
0001
0000
0010
0100
,  // measure 31
1100
0000
1000
0010
0110
0000
0100
0001
,  // measure 32
1000
0000
1000
0000
1000
0001
0200
0000
,  // measure 33
0310
1000
0100
0000
0010
0000
0001
0000
,  // measure 34
1000
0001
0100
0000
0001
1000
0010
0000
,  // measure 35
0100
0000
0010
0000
1000
0100
0010
0001
,  // measure 36
1001
0000
0000
0000
,  // measure 37
0001
0001
1001
0000
0101
0000
1001
0000
,  // measure 38
1100
0000
1001
0000
0011
0000
1000
1000
,  // measure 39
1010
0000
0101
0001
0011
0000
0110
0000
,  // measure 40
1100
0100
0100
0000
0010
0000
1001
0000
,  // measure 41
0001
0001
0001
0100
0010
1000
0001
0100
,  // measure 42
0010
1000
0100
0010
0001
1000
0100
0010
,  // measure 43
0001
1000
0001
1000
0001
1000
0001
1000
,  // measure 44
0020
0000
0000
0000
0000
0030
1001
0000
,  // measure 45
1000
0001
0011
0000
0001
0100
0101
0000
,  // measure 46
0100
0010
1010
0000
1000
0100
1100
0000
,  // measure 47
1000
0001
0011
0000
0010
0100
0110
0000
,  // measure 48
1001
0000
0110
0000
1001
1001
1001
0000
,  // measure 49
0001
0000
0100
0000
0010
0010
1000
0001
,  // measure 50
0010
0100
0010
0001
1000
0100
0010
0100
,  // measure 51
1001
0000
1001
0000
0110
0110
0000
0000
,  // measure 52
1001
0000
0000
0000
,  // measure 53
0001
0100
0020
0030
,  // measure 54
0000
0100
0002
0003
,  // measure 55
1000
0000
0100
0010
0001
0000
0010
0000
,  // measure 56
0100
1000
0000
0002
0000
2000
0000
0000
,  // measure 57
3003
1000
0200
0300
,  // measure 58
0000
1000
0020
0030
,  // measure 59
0100
0000
0010
0100
0001
0000
1000
0100
,  // measure 60
0010
0010
0010
0000
0100
0000
0110
0000
,  // measure 61
1001
0000
1010
0000
0000
1000
0001
0000
,  // measure 62
0010
0000
1100
0000
0000
0010
0100
0000
,  // measure 63
0010
0000
0001
0100
0010
0000
1000
0000
,  // measure 64
0001
0100
0000
1010
0000
0202
0000
0303
,  // measure 65
0001
0000
0110
0000
0000
0100
0001
0000
,  // measure 66
0010
0000
1100
0000
0000
1000
0010
0000
,  // measure 67
0100
0000
0001
0010
0001
0000
0010
0100
,  // measure 68
1000
0000
0001
0000
0100
0000
0000
0100
,  // measure 69
0010
0010
0010
0000
1000
0000
0001
0000
,  // measure 70
0010
0000
0100
0000
0010
0000
0001
1000
,  // measure 71
0100
1000
0010
0100
,  // measure 72
0102
0000
0000
0023
0000
0000
0000
0000
,  // measure 73
0130
0010
0001
0100
0010
1000
0001
0010
,  // measure 74
0100
0000
1000
0000
0001
1000
0000
1000
0010
0000
0100
0000
0001
0010
0000
0100
,  // measure 75
0000
1000
0000
0010
0100
0000
0001
1000
0001
1000
0001
1000
0001
1000
0001
1000
,  // measure 76
0001
0000
1000
0000
0100
0000
0000
0100
,  // measure 77
2000
0000
0002
3003
,  // measure 78
1010
0000
0101
0000
0001
0010
0000
0100
,  // measure 79
0000
0010
0001
0000
1000
0100
0001
0100
,  // measure 80
1000
0000
0010
1000
0001
0010
0100
1000
,  // measure 81
0100
0000
0010
0001
0100
1000
0100
0001
,  // measure 82
1000
0000
0001
0000
0010
0001
0000
0100
,  // measure 83
0000
0010
1000
0000
0001
0010
1000
0010
,  // measure 84
0100
0000
0010
0001
0100
0000
0010
1000
,  // measure 85
0100
0000
0000
0010
0000
0000
0001
0000
1000
0001
1000
0000
0001
0000
0100
0000
,  // measure 86
0010
0010
0010
0000
1010
0000
0101
0000
,  // measure 87
0001
0020
0100
0030
0100
2000
0001
3000
,  // measure 88
0101
0010
1001
0100
,  // measure 89
0010
0002
0100
0003
0100
0010
1000
0001
,  // measure 90
0010
0000
0010
0000
0010
0000
0000
0000
0100
0000
0000
0100
1000
0000
0001
0000
,  // measure 91
1000
0000
0001
0000
0100
0010
1000
0100
,  // measure 92
0010
0000
0100
1000
0010
0100
0001
0010
,  // measure 93
0100
1000
0100
0010
0001
0000
0000
0000
,  // measure 94
0220
0000
0000
0000
,  // measure 95
0000
0000
0000
0330
,  // measure 96
0011
0000
0010
0001
0100
0000
0110
0000
,  // measure 97
0100
0001
0000
2000
0000
0002
0000
3003
,  // measure 98
1000
0001
0101
0000
1010
0000
1000
0100
,  // measure 99
0010
0000
0110
0000
1100
0000
1000
0001
,  // measure 100
0100
0000
0010
1000
0001
0000
0010
0100
,  // measure 101
1100
0000
0101
0000
1100
0000
1001
0001
,  // measure 102
0100
0100
0110
0000
1010
0000
1000
0001
,  // measure 103
0010
0000
1100
0000
0011
0000
0010
0001
,  // measure 104
0100
0000
0010
1000
0001
0000
0010
0000
,  // measure 105
0100
1000
0000
0020
0000
0200
0000
0330
,  // measure 106
0010
1000
0001
0000
1001
0000
1000
0100
,  // measure 107
0010
0011
1100
0100
,  // measure 108
2000
3010
0002
0103
,  // measure 109
0110
1010
0101
0011
,  // measure 110
0110
1000
0001
0100
,  // measure 111
0001
0000
1000
0000
0100
0000
1000
0010
,  // measure 112
0100
0001
0010
0100
,  // measure 113
1000
0000
0001
0100
0000
0100
0110
0000
,  // measure 114
1001
0001
0010
0001
,  // measure 115
0100
0010
1000
0000
1000
0000
0100
0000
,  // measure 116
0010
0000
0000
0001
0000
0000
0100
0000
0010
1000
0010
0000
0100
0000
0001
0000
,  // measure 117
2000
0000
3200
0000
0320
0000
0030
0020
,  // measure 118
0130
1001
0000
0000
0000
0000
0000
0000
;

//---------------dance-single - ----------------
#NOTEDATA:;
#CHARTNAME:;
#STEPSTYPE:dance-single;
#DESCRIPTION:;
#CHARTSTYLE:;
#DIFFICULTY:Easy;
#METER:11;
#RADARVALUES:0.558489,0.709821,0.579698,0.127251,0.003535,553.000000,471.000000,82.000000,18.000000,0.000000,0.000000,0.000000,0.000000,0.000000,0.558489,0.709821,0.579698,0.127251,0.003535,553.000000,471.000000,82.000000,18.000000,0.000000,0.000000,0.000000,0.000000,0.000000;
#CREDIT:Pandemonium X;
#NOTES:
// measure 0
0000
0000
0000
0000
,  // measure 1
0000
0000
0000
0000
,  // measure 2
0000
0000
0000
0000
,  // measure 3
0000
0000
0000
0000
,  // measure 4
0000
0000
0000
0000
,  // measure 5
1000
0001
0100
0100
,  // measure 6
0010
1000
0100
0010
,  // measure 7
0002
0000
0000
0000
0203
0000
0310
1000
,  // measure 8
0001
0000
1000
0000
0001
1000
0001
0000
,  // measure 9
0100
0110
1010
1000
,  // measure 10
0001
0011
0110
0010
,  // measure 11
0001
0000
1000
0001
1000
0000
0010
0000
,  // measure 12
1000
0100
0010
0001
,  // measure 13
1000
1001
0101
0001
,  // measure 14
1000
1100
0011
0001
,  // measure 15
0110
1010
0101
1001
,  // measure 16
0110
0000
0000
0000
,  // measure 17
1000
0100
1000
0010
,  // measure 18
0100
0001
0010
0100
,  // measure 19
0010
0001
0100
0010
,  // measure 20
2000
0000
0000
0002
0000
0000
3003
0000
,  // measure 21
1000
0100
0010
0001
1000
0100
0010
0001
,  // measure 22
1000
0100
0010
0001
1000
0100
0010
0001
,  // measure 23
1000
0100
0010
0001
1000
0100
0010
0001
,  // measure 24
1000
0000
0001
0000
0100
0010
1000
0000
,  // measure 25
1001
0001
0011
0001
,  // measure 26
0100
0001
1000
0100
,  // measure 27
0110
0100
1100
0100
,  // measure 28
1000
0000
0001
0000
0100
0010
0100
0000
,  // measure 29
1010
1000
1001
0001
,  // measure 30
0010
0100
0010
0001
,  // measure 31
0011
0010
0110
0100
,  // measure 32
1000
0001
0100
0010
,  // measure 33
1001
0000
1010
0000
,  // measure 34
0001
0100
0000
0000
0100
1000
0000
0000
,  // measure 35
1100
0000
0101
0000
,  // measure 36
1001
0000
0000
0000
,  // measure 37
1000
1000
1000
0000
0001
0000
0100
0000
,  // measure 38
0001
0000
0010
0000
0100
0000
0010
0001
,  // measure 39
0100
0000
0010
0010
0010
0000
0100
0000
,  // measure 40
0010
0100
0001
0000
1000
0000
0010
0000
,  // measure 41
1001
0110
1001
0110
,  // measure 42
1001
0110
1001
0110
,  // measure 43
1000
0001
1000
0001
1000
0001
1000
0001
,  // measure 44
0020
0000
0000
0130
,  // measure 45
0000
0011
0000
1100
,  // measure 46
0000
1010
0000
0101
,  // measure 47
0000
1001
0000
1010
,  // measure 48
1001
0000
1010
0000
1000
0100
0010
0000
,  // measure 49
0001
0000
1000
0000
0010
0100
0001
0010
,  // measure 50
0100
1000
0000
0100
0000
0010
0000
0100
,  // measure 51
1000
0000
1000
0000
1000
1000
0000
1000
,  // measure 52
0001
0000
0000
0000
,  // measure 53
0110
0100
0001
0000
,  // measure 54
0000
0010
0100
0000
,  // measure 55
0010
0001
0100
0010
,  // measure 56
1000
0001
0000
1000
0000
0020
0000
0030
,  // measure 57
0000
1000
0100
0000
,  // measure 58
0000
1000
0001
0000
,  // measure 59
0100
0010
1000
0001
,  // measure 60
0010
0100
1000
0000
0100
0000
0010
0000
,  // measure 61
0001
0000
0100
0000
0000
0010
1000
0000
,  // measure 62
0100
0000
0010
0000
0000
0100
1000
0000
,  // measure 63
0001
0000
0100
0000
0000
0001
0100
0000
,  // measure 64
0010
0000
1000
0100
0000
0100
0010
0000
,  // measure 65
0010
0000
0001
0000
0000
0010
0001
0000
,  // measure 66
0100
0000
0010
0000
0000
1000
0001
0000
,  // measure 67
1000
0010
0100
0001
,  // measure 68
1001
0000
0110
0000
1000
0000
0000
0001
,  // measure 69
1000
1000
1000
0000
0010
0000
0100
0000
,  // measure 70
0001
0010
0100
0010
,  // measure 71
0001
1000
0001
0010
,  // measure 72
0200
0000
0000
2300
0000
0000
0000
0000
,  // measure 73
3010
0100
0001
1000
0010
0100
0001
1000
,  // measure 74
0010
0100
0001
0000
1000
0100
0010
0000
,  // measure 75
0100
0010
0001
1000
0100
1000
0010
0100
,  // measure 76
0001
0000
0000
0000
,  // measure 77
0200
0000
0300
0000
0020
0000
0000
0030
,  // measure 78
1001
1000
0100
1000
,  // measure 79
0010
0000
0100
0000
0001
0010
0001
0000
,  // measure 80
0010
0000
0100
0000
1000
0000
0100
1000
,  // measure 81
0010
0000
0100
0000
0001
0100
0001
1000
,  // measure 82
0001
1000
0010
1000
,  // measure 83
0001
0000
0010
0000
0100
0000
0010
0001
,  // measure 84
0100
0010
1000
0001
,  // measure 85
1000
0000
0000
0001
0000
0000
1000
0000
0010
0000
0100
0000
0001
0000
0010
0000
,  // measure 86
0100
1000
1100
1000
,  // measure 87
0010
0100
0001
0000
0010
0100
1000
0000
,  // measure 88
1100
1000
1010
0100
,  // measure 89
0001
0010
0100
0000
0010
0001
0100
0010
,  // measure 90
1010
0000
0101
0000
1010
0000
1000
0001
,  // measure 91
0010
0100
0010
0001
,  // measure 92
0011
1100
0011
0001
,  // measure 93
0100
0000
0010
1000
0001
1000
0001
0000
,  // measure 94
0220
0000
0000
0000
,  // measure 95
0000
0000
0000
0330
,  // measure 96
0101
0000
0001
0010
0100
0000
0010
0000
,  // measure 97
0001
1000
0000
0020
0000
0200
0000
0330
,  // measure 98
0000
1010
0101
0000
,  // measure 99
0000
0011
1100
0000
,  // measure 100
1000
0000
0001
0100
0010
0000
0100
0001
,  // measure 101
1000
0000
0001
0000
0100
0100
0100
0000
,  // measure 102
0010
1000
0100
0000
0110
0000
0010
0000
,  // measure 103
0001
0000
0101
0000
1010
0000
1000
0001
,  // measure 104
0100
0000
0010
1000
0100
0000
0010
0000
,  // measure 105
0100
1000
0000
0002
0000
2000
0000
3003
,  // measure 106
0001
0000
1010
0000
1100
0000
0100
0010
,  // measure 107
0001
0011
1100
0100
,  // measure 108
1100
1000
1010
0100
,  // measure 109
0101
0011
1100
1001
,  // measure 110
0000
0100
0010
1000
,  // measure 111
0001
0010
0001
1000
,  // measure 112
0100
1000
0010
0100
,  // measure 113
0001
0000
1000
0010
0000
0100
0101
0000
,  // measure 114
0001
0010
0001
1000
,  // measure 115
0100
0010
0001
0000
0010
0000
0001
0000
,  // measure 116
0201
0300
1020
0030
,  // measure 117
1001
0110
1001
0110
,  // measure 118
0010
1001
0000
0000
0000
0000
0000
0000
;

//---------------dance-single - ----------------
#NOTEDATA:;
#CHARTNAME:;
#STEPSTYPE:dance-single;
#DESCRIPTION:;
#CHARTSTYLE:;
#DIFFICULTY:Beginner;
#METER:7;
#RADARVALUES:0.213095,0.458810,0.183807,0.000000,0.000000,211.000000,185.000000,26.000000,0.000000,0.000000,0.000000,0.000000,0.000000,0.000000,0.213095,0.458810,0.183807,0.000000,0.000000,211.000000,185.000000,26.000000,0.000000,0.000000,0.000000,0.000000,0.000000,0.000000;
#CREDIT:Pandemonium X;
#NOTES:
// measure 0
0000
0000
0000
0000
,  // measure 1
0000
0000
0000
0000
,  // measure 2
0000
0000
0000
0000
,  // measure 3
0000
0000
0000
0000
,  // measure 4
0000
0000
0000
0000
,  // measure 5
0010
0000
0000
0000
,  // measure 6
1000
0000
0000
0000
,  // measure 7
0001
0000
1000
0000
,  // measure 8
0010
0010
0100
0100
,  // measure 9
1001
0000
0000
0000
,  // measure 10
1000
0000
0000
0000
,  // measure 11
0001
0000
1000
0000
,  // measure 12
0010
0000
0000
0000
,  // measure 13
0100
0000
0000
0000
,  // measure 14
0010
0000
0000
0000
,  // measure 15
1000
1000
1000
1000
,  // measure 16
1001
0000
0000
0000
,  // measure 17
0010
0000
0000
0000
,  // measure 18
1000
0000
0000
0000
,  // measure 19
0100
0000
0100
0000
,  // measure 20
0010
0000
0000
0000
,  // measure 21
1001
0000
0000
0000
,  // measure 22
1001
0000
0000
0000
,  // measure 23
1001
0000
0000
0000
,  // measure 24
0010
0000
0100
0000
,  // measure 25
0001
0000
1000
0000
,  // measure 26
0000
0000
0000
0000
,  // measure 27
0010
0000
1000
0000
,  // measure 28
0100
0100
0100
0000
,  // measure 29
1000
0000
0010
0000
,  // measure 30
0000
0000
0000
0000
,  // measure 31
0100
0000
0001
0000
,  // measure 32
1000
0000
0000
0000
,  // measure 33
0001
0000
0000
0000
,  // measure 34
1000
0000
0000
0000
,  // measure 35
0010
0000
0000
0000
,  // measure 36
0110
0000
0000
0000
,  // measure 37
1000
0000
1000
0000
,  // measure 38
0001
0000
0001
0000
,  // measure 39
0100
0000
0100
0000
,  // measure 40
0010
0000
0100
0110
,  // measure 41
1001
0000
0000
1000
,  // measure 42
1000
0000
0000
0001
,  // measure 43
0001
0000
0000
0000
,  // measure 44
0110
0000
0000
1000
,  // measure 45
0000
0001
0000
0001
,  // measure 46
0000
0001
0000
0001
,  // measure 47
0000
0001
0000
0001
,  // measure 48
1000
0001
0100
0010
,  // measure 49
1000
0100
0000
0100
,  // measure 50
0000
0100
0000
0100
,  // measure 51
0010
0000
0001
0000
,  // measure 52
1000
0000
0000
0000
,  // measure 53
0110
0000
0000
0000
,  // measure 54
0010
0000
0000
0000
,  // measure 55
1000
0000
0001
0000
,  // measure 56
1000
0000
0000
0000
,  // measure 57
0010
0000
0000
0000
,  // measure 58
1000
0000
0000
0000
,  // measure 59
0100
0000
1000
0000
,  // measure 60
0010
0000
0000
0000
,  // measure 61
0100
0000
0000
0000
,  // measure 62
0010
0000
0000
0000
,  // measure 63
1000
0000
0001
0000
,  // measure 64
1000
0000
0000
0000
,  // measure 65
0100
0000
0000
0000
,  // measure 66
1000
0000
0000
0000
,  // measure 67
0010
0000
0010
0000
,  // measure 68
0100
0000
0000
0000
,  // measure 69
0001
0000
1001
0000
,  // measure 70
0000
0000
0000
0000
,  // measure 71
1000
0000
1001
0000
,  // measure 72
0110
0000
0000
0000
,  // measure 73
1001
0000
0000
0000
,  // measure 74
0010
0000
0100
0000
,  // measure 75
0001
0000
1000
0000
,  // measure 76
1001
0000
0000
0000
,  // measure 77
0010
0000
0010
0000
,  // measure 78
1000
0000
0001
0000
,  // measure 79
1000
0000
0001
1000
,  // measure 80
0001
0000
0100
0000
,  // measure 81
0010
0000
1000
0010
,  // measure 82
1000
0000
0010
0000
,  // measure 83
0100
0000
0001
0100
,  // measure 84
0001
0000
0010
0000
,  // measure 85
0001
0000
1000
0000
,  // measure 86
1001
0000
0110
0000
,  // measure 87
1000
0000
0001
0000
,  // measure 88
0110
0000
1001
0000
,  // measure 89
1000
0000
0010
0010
,  // measure 90
0100
0100
0100
0000
,  // measure 91
0000
0000
0010
0000
,  // measure 92
0100
0100
0100
0000
,  // measure 93
0010
0000
0000
0000
,  // measure 94
1001
0000
0000
0000
,  // measure 95
0000
0000
0000
0000
,  // measure 96
1000
0000
0001
0000
,  // measure 97
0010
0010
0010
0000
,  // measure 98
0001
0000
0000
0000
,  // measure 99
1000
0000
0000
0000
,  // measure 100
0100
0000
0000
0000
,  // measure 101
1001
0110
1001
0110
,  // measure 102
1001
0000
0000
0000
,  // measure 103
1000
0000
0000
0000
,  // measure 104
0001
0000
0000
0000
,  // measure 105
0100
0000
0010
0000
,  // measure 106
0100
0000
0000
0000
,  // measure 107
0001
0000
0000
0000
,  // measure 108
1000
0000
0001
0000
,  // measure 109
0100
0000
0000
0000
,  // measure 110
0000
0010
0000
0000
,  // measure 111
0000
0100
0100
0000
,  // measure 112
0010
0000
0000
0000
,  // measure 113
1000
0000
0000
0001
,  // measure 114
1000
0000
0000
0000
,  // measure 115
0001
0000
0000
0000
,  // measure 116
0100
0000
0100
0000
,  // measure 117
0010
0000
0100
0000
,  // measure 118
1001
0000
0000
0000
;

//---------------dance-single - ----------------
#NOTEDATA:;
#CHARTNAME:;
#STEPSTYPE:dance-single;
#DESCRIPTION:;
#CHARTSTYLE:;
#DIFFICULTY:Challenge;
#METER:18;
#RADARVALUES:0.955391,1.377887,0.763504,0.247432,0.526677,946.000000,838.000000,108.000000,35.000000,0.000000,0.000000,2.000000,0.000000,0.000000,0.955391,1.377887,0.763504,0.247432,0.526677,946.000000,838.000000,108.000000,35.000000,0.000000,0.000000,2.000000,0.000000,0.000000;
#CREDIT:Pandemonium X;
#NOTES:
// measure 0
0000
0000
0000
0000
,  // measure 1
0000
0000
0000
0000
,  // measure 2
0000
0000
0000
0000
,  // measure 3
0000
0000
0000
0000
,  // measure 4
0000
0000
0000
0000
,  // measure 5
1000
0000
0001
0000
1000
0100
0001
0100
,  // measure 6
1000
0000
0000
1000
0000
0000
1000
0000
,  // measure 7
0102
0000
0000
0000
0023
0000
0130
0010
,  // measure 8
0011
0000
1010
0000
0001
1000
0110
0000
,  // measure 9
1000
0000
1000
0000
0001
0000
0000
0000
1000
0000
0000
0000
0010
0000
0100
0010
,  // measure 10
0100
0000
0010
0000
0100
0100
0001
0001
,  // measure 11
1000
0000
0000
0000
0001
0000
0000
0000
0010
0000
0000
0000
0100
0000
1000
0001
,  // measure 12
1000
0000
0000
0000
1000
0000
0000
0000
0010
0000
0010
0000
0100
0010
0100
0000
,  // measure 13
0001
0001
0010
1000
0010
0010
0100
1000
,  // measure 14
0010
0010
0001
0010
0100
0100
0010
1000
,  // measure 15
0001
1000
0001
1000
0010
0100
0010
0100
0001
0100
0001
0100
0010
1000
0010
0100
,  // measure 16
0001
0000
1000
0200
0002
0000
0303
0000
,  // measure 17
1100
0100
1000
0010
0001
0010
0100
0001
,  // measure 18
0010
0000
1000
0000
0010
0000
0100
0000
0010
0000
0001
0000
0100
0000
0010
1000
,  // measure 19
0001
0010
1000
0010
0100
0010
0001
1000
,  // measure 20
1010
0000
0000
0202
0000
0000
0000
0303
,  // measure 21
0001
0100
0010
1000
0001
0010
0100
1000
0100
1000
0010
0100
0001
0010
0100
0010
,  // measure 22
0001
0100
0010
1000
0010
0100
0001
0010
0100
1000
0100
0010
0100
1000
0001
0100
,  // measure 23
0001
0010
0100
1000
0100
0010
0001
0100
0010
1000
0001
0010
0100
0010
0001
1000
,  // measure 24
0010
0000
0000
0000
0000
0000
0000
0000
0000
1010
0000
0000
0000
0000
0000
0000
0000
0000
0011
0000
0000
0000
0000
0000
0010
0000
0100
0000
0010
0000
0100
0000
0000
0000
0000
0000
1100
0000
0000
0000
0000
0000
0000
0000
0000
0000
0000
0000
,  // measure 25
0001
1000
0001
0000
0010
0000
0001
0000
0100
0010
1000
0000
0001
0000
1000
0000
,  // measure 26
0100
0001
0100
0010
0001
0100
0010
1000
,  // measure 27
0001
0010
0001
0000
0010
0000
0100
0000
1000
0100
0010
0000
0100
0000
1000
0000
,  // measure 28
1100
0000
0011
0000
0011
1100
0011
0000
,  // measure 29
0001
0100
0001
0000
0100
0000
0010
0000
1000
0001
0010
0000
0100
0000
0010
0000
,  // measure 30
0001
0100
1000
0100
0010
1000
0001
0010
,  // measure 31
0100
0010
0100
0000
0010
0000
0001
0000
1000
0001
0100
0000
0001
0000
0010
0000
,  // measure 32
0100
0000
0100
0000
0100
0100
0100
0000
,  // measure 33
1001
0001
0001
0000
1000
0000
0010
0000
,  // measure 34
0100
0010
0100
0000
0000
0000
0000
0000
0010
1000
0010
0000
0000
0000
0000
1000
,  // measure 35
0100
0010
0001
0100
0010
1000
0001
0010
,  // measure 36
1001
0000
1000
0200
0002
0000
0303
0000
,  // measure 37
1100
0011
1100
0000
1010
0000
0101
0000
,  // measure 38
1001
0000
0000
0000
0000
0000
0110
0000
0000
0000
0000
0000
1001
0000
0000
0000
0000
0000
1010
0000
0000
0001
0100
0001
,  // measure 39
0100
0000
0110
1010
1100
0000
0110
0000
,  // measure 40
0011
0000
0001
1000
1001
0000
0000
0000
0010
0000
0100
0000
1001
0000
0000
0000
,  // measure 41
1001
0001
1001
1000
1001
0001
1001
1000
,  // measure 42
0110
0010
0110
0100
0110
0010
0110
0100
,  // measure 43
0101
0100
0110
0010
1010
1000
1100
0100
,  // measure 44
0010
0100
0010
0100
0010
0100
0010
0100
0010
0100
0010
0100
1000
0000
0000
0000
,  // measure 45
0001
0000
1000
0001
0010
0000
0100
0000
0010
0000
0001
0100
0010
0000
1000
0000
,  // measure 46
0100
0000
0010
0100
1000
0000
0100
0000
1000
0000
0001
0100
0010
0000
1000
0000
,  // measure 47
0001
0000
0010
0100
1000
0000
0100
0000
1000
0000
0010
1000
0001
0000
0010
0000
,  // measure 48
0110
0000
0000
0000
0000
0000
0011
0000
0000
0000
0000
0000
1100
0000
0000
0010
0001
0010
0001
0000
0000
0100
0000
0000
,  // measure 49
0110
0000
1001
0000
1000
0100
0001
0100
,  // measure 50
0010
0001
0100
0010
1000
0001
0010
0100
,  // measure 51
1001
0000
1001
0000
1001
1001
0000
0110
,  // measure 52
2001
3000
0020
0030
0200
0300
0000
0200
,  // measure 53
0310
2000
0200
3300
,  // measure 54
0000
0200
0020
0330
,  // measure 55
0100
0000
1000
0010
0001
0000
0010
0000
,  // measure 56
0100
0001
0000
2000
0000
0002
0000
3003
,  // measure 57
0000
0002
0020
0033
,  // measure 58
0000
0200
2000
3300
,  // measure 59
0100
0000
1000
0100
0010
0000
0100
1000
,  // measure 60
0010
0000
0100
0000
1000
0000
0000
0000
0100
0001
0010
0100
1000
0001
0100
0010
,  // measure 61
0100
0001
0010
0100
1000
0001
1001
0000
,  // measure 62
1000
0100
0010
0001
0100
0010
0110
0000
,  // measure 63
0100
0001
0010
0001
1000
0100
0110
0000
,  // measure 64
0100
1000
0010
0100
0001
1000
1001
0000
,  // measure 65
1000
0100
0001
0100
0010
0001
0101
0000
,  // measure 66
0001
0010
1000
0010
0100
1000
1100
0000
,  // measure 67
1000
0010
0001
0010
0100
0001
0010
0000
,  // measure 68
0110
0000
1100
0000
1001
0000
0000
1001
,  // measure 69
0001
0100
0010
0000
0100
0000
0001
0000
1000
0100
0010
0000
0100
0000
0000
0000
,  // measure 70
1000
0000
0000
0000
0010
0000
0000
0000
0100
0000
0000
0000
0001
0000
0010
0100
,  // measure 71
1000
0100
0010
0000
0100
0000
1000
0000
0001
0100
0010
0000
0100
0000
0001
0000
,  // measure 72
1001
0000
0000
0220
0000
0000
0000
0330
,  // measure 73
0001
0100
0010
1000
0001
0010
0100
0010
0001
0100
0010
1000
0100
0010
0001
0010
,  // measure 74
0100
1000
0000
0100
0001
0100
1000
0100
0001
0100
0010
0001
0100
1000
0100
0010
,  // measure 75
1000
0010
0100
0001
0010
0100
0010
0001
0100
0010
1000
0100
0001
0100
0010
0001
,  // measure 76
1000
0000
0100
0000
0020
0000
0030
0020
,  // measure 77
0130
0000
0000
0000
0000
0000
0000
0000
2002
0000
0000
3000
1003
0100
0010
0001
,  // measure 78
1000
0010
1000
0001
0010
0100
0010
0001
,  // measure 79
1000
0000
0000
0010
0000
0000
0001
0000
0000
0010
0000
0000
0100
0000
0000
0001
1000
0001
1000
0000
0000
0100
0000
0000
,  // measure 80
0110
0000
0000
0000
0010
0000
0001
0000
0101
0000
0001
0000
0010
0000
0100
1000
,  // measure 81
1100
0000
0000
0000
0000
0000
0100
0000
0000
0010
0000
0000
0001
0000
0000
1000
0001
1000
0001
0000
0000
0100
0000
0000
,  // measure 82
0101
0000
0011
0000
0010
0001
1000
0010
,  // measure 83
0001
0000
0000
0010
0000
0000
0100
0000
0000
0001
0000
0000
0010
0000
0000
0100
1000
0100
1000
0000
0000
0001
0000
0000
,  // measure 84
1010
0000
0100
0001
0101
0001
0010
0100
,  // measure 85
1100
0000
0000
0000
0000
0000
0000
0000
0000
0011
0000
0000
0000
0000
0000
0000
0000
0000
0101
0000
0000
0000
0000
0000
0010
0000
0100
0000
0010
0000
0100
0000
0000
0000
0000
0000
0010
0000
0000
0000
0000
0000
1000
0000
0000
0000
0000
0000
,  // measure 86
0001
1000
0100
0000
0010
0000
0100
0000
1000
0010
0100
0000
0001
0000
0010
0000
,  // measure 87
1000
0100
0001
0000
0100
0000
1000
0000
0010
0001
0010
0000
0100
0000
1000
0000
,  // measure 88
0100
0010
1000
0000
0001
0000
0010
0000
1000
0100
0010
0000
0100
0000
1000
0000
,  // measure 89
0001
0000
0000
0100
0000
0000
1000
0000
0000
0000
0000
0000
0100
0000
0000
0000
0000
0000
0010
0000
0000
1000
0000
0000
0100
0000
0000
0000
0000
0000
0010
0000
0001
0000
0010
0000
0001
0000
0000
0000
0000
0000
1000
0000
0000
0000
0000
0000
,  // measure 90
0001
0000
0100
0000
1000
0000
0000
0000
1100
0000
0000
1000
0100
0000
0010
0000
,  // measure 91
1001
0000
0000
0000
0110
0000
0000
1000
0010
0000
0001
0000
0010
0000
0100
1000
,  // measure 92
0001
0010
0100
0010
0001
1000
0001
0010
,  // measure 93
0100
0010
0001
1000
0100
0010
0001
1000
0100
0000
1000
0000
0010
0000
0100
0000
,  // measure 94
4004
0000
0000
0000
,  // measure 95
0000
0000
0000
3003
,  // measure 96
0101
0000
0000
0100
0001
0000
0010
0000
0100
0000
0000
0010
0001
0000
1000
0000
,  // measure 97
1001
1020
0000
0230
0000
0002
0000
0303
,  // measure 98
1000
0000
0100
0010
0001
0000
0010
0000
0001
0000
0000
0000
1000
0000
0001
0000
,  // measure 99
0100
0000
0010
1000
0100
0000
0010
0000
0100
0000
0000
0000
1000
0000
0000
0000
,  // measure 100
0001
0000
0000
0000
0000
0000
1000
0001
1000
0001
0000
0000
0110
0000
0000
0000
0000
0000
0001
1000
0001
1000
0000
0000
,  // measure 101
0110
0000
1001
0000
0110
1001
0110
0001
,  // measure 102
1000
0000
0000
0100
0010
0000
0100
0000
1000
0000
0010
0000
0100
0000
0001
0010
,  // measure 103
0100
0000
0000
0010
0001
0000
0010
0000
0001
0000
0100
0000
0001
0000
1000
0001
,  // measure 104
0010
0100
0010
0001
0100
0000
0010
0000
,  // measure 105
1000
0000
0000
0020
0000
0000
0000
0000
0000
0230
0000
0000
0000
0000
0000
0301
0100
0001
0100
0000
0000
0010
0000
0000
,  // measure 106
1000
0000
0000
0100
0010
0000
0001
0000
1000
0000
0010
0000
0100
0000
0010
1000
,  // measure 107
0100
0000
0000
0010
0100
0000
0010
0000
0001
0000
1000
0000
0010
0000
0100
0000
,  // measure 108
0101
0000
0010
1000
1001
0000
0001
0010
,  // measure 109
0110
0011
1100
0101
,  // measure 110
0010
0000
0001
1000
0100
0000
1000
0000
,  // measure 111
0010
0000
0100
0010
1000
0000
0001
0000
,  // measure 112
1000
0000
0001
0100
1000
0000
0010
0000
,  // measure 113
0001
0000
0100
0020
0000
1030
1001
0000
,  // measure 114
0001
0100
0010
1000
,  // measure 115
0011
0011
0011
0000
1100
0000
0001
0000
,  // measure 116
1010
0000
0000
0000
0000
0000
0000
0000
0000
0102
0000
0000
0003
0000
0000
0000
0000
0000
0011
0000
0000
0000
0000
0000
0010
0000
0100
0000
0010
0000
0100
0000
0000
0000
0000
0000
1000
0000
0000
0000
0000
0000
0001
0000
0000
0000
0000
0000
,  // measure 117
0100
0010
1000
0001
,  // measure 118
1001
0110
0000
0000
0000
0000
0000
0000
;
