#TITLE:Wicked Laboratory;
#SUBTITLE:;
#ARTIST:BBBB;
#TITLETRANSLIT:;
#SUBTITLETRANSLIT:;
#ARTISTTRANSLIT:;
#GENRE:;
#CREDIT:;
#BANNER:banner.png;
#BACKGROUND:background.png;
#LYRICSPATH:;
#CDTITLE:;
#MUSIC:Wicked Laboratory.ogg;
#OFFSET:0.013000;
#SAMPLESTART:25.625500;
#SAMPLELENGTH:24.000000;
#SELECTABLE:YES;
#BPMS:0.000000=40.000000
,9.000000=160.000000
,189.000000=80.000000
,195.000000=40.000000
,200.000000=160.000000
,248.000000=80.000000
,256.000000=160.000000
,284.000000=80.000000
,287.500000=160.000000
;
#STOPS:
;
#BGCHANGES:;
#KEYSOUNDS:;
#ATTACKS:;

//---------------dance-single - ----------------
#NOTES:
     dance-single:
     :
     Hard:
     14:
     0.608261,0.709103,0.438640,0.045377,0.332761,563.000000,505.000000,58.000000,6.000000,0.000000,0.000000,0.608261,0.709103,0.438640,0.045377,0.332761,563.000000,505.000000,58.000000,6.000000,0.000000,0.000000:
0000
0000
0000
0000
,
1000
0100
0010
0000
0001
0010
0100
0000
1000
0100
0010
0000
0001
0010
0100
0010
,
0002
0000
1003
0011
0000
0000
0011
0000
,
0101
0000
0010
1010
0000
0000
1100
0000
,
1001
0000
0001
1010
0000
0000
1010
0000
,
1100
0000
0001
0110
0000
0000
0101
0000
,
1001
0000
0000
0000
0000
0000
0001
0010
0001
0000
0001
0010
0001
0000
1000
0000
,
0100
0000
0010
0000
0000
0000
0100
1000
0100
0000
0100
1000
0100
0000
1000
0000
,
0001
0000
1000
0000
0000
0000
0010
1000
0010
0000
0010
1000
0010
0000
0100
0000
,
0001
0000
0010
0000
0000
0000
0100
1000
0100
0000
0100
1000
0100
0000
0010
0000
,
0001
0000
1000
0000
0000
0000
0100
1000
0010
0000
0100
0000
1001
0000
0000
0000
,
0000
0000
0000
0000
0000
0000
0001
0010
0100
0000
0010
0000
0001
0000
0000
0000
,
0000
0000
0000
0000
0000
0000
1000
0001
0100
0000
0010
0000
1000
0000
0000
0000
,
0000
0000
0100
0010
0001
1000
0100
0010
,
0001
0000
1000
0000
1001
0000
0010
0100
0010
0000
1000
0000
0000
0000
0010
1000
,
0010
0000
0010
1000
0100
0000
0100
1000
0001
0000
0100
0000
0010
0000
0010
0000
,
0010
0000
0100
0001
0010
1000
0010
0000
,
0100
0000
0100
0100
1000
1000
0010
0010
,
1000
0000
1000
0000
1001
0000
0001
1000
0001
0000
0010
0000
0001
0000
0100
0000
,
0001
0000
1000
0000
0000
0000
1000
0100
1000
0000
1000
0000
0001
0000
0100
0000
,
0001
0010
0100
0000
0010
0000
0100
0000
,
0010
0000
0000
0000
0001
0000
0000
0000
1000
0000
0000
0000
0010
0100
0010
0100
,
0010
0100
0010
0100
0010
0000
1000
0000
0100
0000
0001
0000
0100
0000
0010
0000
,
0100
1000
0001
0010
1000
0010
0100
1000
,
0100
0010
0001
0010
0100
1000
0001
0010
,
0100
0010
0011
0000
1010
0000
1001
0000
,
0000
0000
0000
0001
0000
0000
1000
0010
0100
0001
0000
0010
,
0100
0000
0100
1000
0000
0000
0100
0000
0000
0011
0000
0000
,
0000
0000
0100
1000
0100
0001
0100
1000
,
0010
0100
0001
0010
1000
0010
0001
0010
,
0100
0000
0000
0010
0000
0000
0001
0000
1000
0000
0001
0000
0010
0000
0001
0000
1000
0000
0010
0000
1000
0000
0001
0000
,
0010
0001
1000
0010
1000
0001
0010
0100
0010
0001
1000
0100
,
0010
0001
0010
0100
0000
0000
1001
0000
0000
0010
0000
0000
,
1001
0100
1001
0010
,
1001
0000
0110
0100
0001
0010
0000
0100
,
0010
0001
1000
0010
1000
0100
0010
0000
,
0100
0000
1000
0100
0010
0100
0000
0010
,
0001
0100
0010
1000
0100
1000
0001
0001
,
0010
0000
0010
0000
0110
0000
0000
0100
0010
0000
0001
0000
0000
0000
1000
0010
,
0100
0001
1001
0000
0011
0000
1001
0000
,
0000
0000
0000
0000
1010
0000
0000
1000
0010
0000
0100
0000
0000
0000
0001
0010
,
0100
0000
0010
0000
0001
0000
0100
0001
0010
0000
0100
0000
1100
0000
0000
0000
,
0100
0011
1000
1001
,
0010
0000
0101
0000
0100
0000
1001
1000
,
0001
0010
0100
0010
0001
1000
0200
0000
,
0000
0300
0000
0010
,
0100
0010
0001
1000
1001
0000
0000
0000
0000
0000
0000
0000
0020
0000
0000
0000
,
0000
0200
0000
0000
,
0000
0000
0330
0000
0000
0000
0000
0000
0000
0000
0000
0000
1000
0100
0010
0000
,
0001
0010
0100
0000
1000
0100
0010
0000
0001
0010
0200
0000
0000
0000
0000
0000
,
0310
0000
0001
1000
0100
0000
1000
0000
0001
0000
0100
0000
0001
0000
1000
0000
,
0010
0000
0100
0001
0010
0000
0100
0000
0110
0000
0000
0000
0100
0000
1000
0000
,
1001
1010
0001
1100
,
0110
0000
0000
0000
0011
0000
0000
0000
0100
1000
0001
1000
0001
1000
0001
1000
,
0001
0000
0100
0001
0010
0000
0001
0000
1000
0000
0100
0000
0001
0000
0100
0000
,
0010
0100
1000
0010
0100
0001
0010
0100
,
1000
0100
0001
0100
1000
0100
0001
0100
,
0011
0000
1010
1000
1001
0000
0002
0000
,
0013
0010
0100
0000
1000
0000
0001
0000
,
0100
0010
1000
0100
0010
0100
1000
0001
,
1000
0000
1000
0000
0001
0000
0000
0000
0100
0010
0100
0000
0010
0000
0010
0000
,
1000
0100
0010
0100
1000
0001
0010
0100
,
0010
0001
0100
0010
1001
0000
0000
0000
0100
0010
1000
0100
0011
0000
0000
0000
,
0001
0010
0100
1000
1100
0000
0000
0000
0001
0100
0010
1000
0101
0000
0000
0000
,
1000
1000
1001
0000
0001
0001
0101
0100
,
0001
0001
0011
0010
0100
0100
1100
0100
,
0010
0000
0010
0001
0100
0000
0010
0000
0100
0000
0100
0010
1000
0000
0001
0000
,
1000
0000
1000
0001
0010
0000
0100
0000
1000
0000
1000
0100
0010
0000
0001
0000
,
1000
0000
1000
0001
0100
0000
0010
0000
0110
0000
0000
0000
1001
0000
0000
0000
,
0110
1001
0110
1001
,
0001
0100
0001
0010
0001
1000
0100
1000
0001
1000
0100
0010
0001
1000
0100
0010
,
0100
0000
0000
0000
0000
0000
0000
0000
0000
0000
0000
0000
0000
0000
1000
0100
,
0010
0001
1000
0000
0000
0000
0000
0000
0000
0000
0000
0000
0000
0000
0000
0000
;

//---------------dance-single - ----------------
#NOTES:
     dance-single:
     :
     Medium:
     10:
     0.399745,0.545463,0.484016,0.037814,0.052939,370.000000,306.000000,64.000000,5.000000,0.000000,0.000000,0.399745,0.545463,0.484016,0.037814,0.052939,370.000000,306.000000,64.000000,5.000000,0.000000,0.000000:
0000
0000
0000
0000
,
0001
1000
0001
0000
0100
0010
0100
0000
0001
0010
0001
0000
0100
1000
0100
0010
,
0001
0000
0000
1001
0000
0000
1010
0000
,
1001
0000
0000
1001
0000
0000
0011
0000
,
1001
0000
0000
1001
0000
0000
1100
0000
,
1001
0000
0000
1001
0000
0000
0101
0000
,
1001
0000
0001
0100
,
1000
0000
1000
0100
,
0001
0000
0001
0010
,
1000
0000
1000
0010
,
0001
0000
0000
1000
0100
0010
0001
0000
,
0000
0000
0000
0010
0001
0100
0010
0000
,
0000
0000
0000
0100
0010
1000
0001
0000
,
0000
1000
0100
0010
,
0001
1001
0001
0100
,
0001
0000
0010
0000
0100
0000
1000
1000
,
1000
0000
0001
1000
0010
1000
0001
0000
,
1000
0000
0001
0100
0010
1000
0001
0100
,
0010
1000
1001
0000
1000
0000
0010
0000
,
1000
0001
0010
0100
,
0010
0011
0001
0101
,
0100
0000
0110
0000
0010
0000
1000
0001
,
1000
0001
1000
0000
0001
0000
0010
0000
,
0001
0100
0010
1000
,
0100
0010
0100
1000
,
0010
0101
1100
0101
,
0000
0001
1000
0100
,
0001
0101
1100
1001
,
0000
0010
0000
1000
,
0000
0100
0000
0010
,
0000
0000
0000
0001
0000
0100
0000
0010
0000
1000
0000
0001
,
0000
0100
0000
0010
0000
1000
0000
0001
0000
0010
0000
0000
,
1100
0001
1010
0001
,
0110
1000
0101
0001
,
1100
1001
1000
0100
,
0001
0100
0010
0001
,
0100
0010
1000
0001
,
0010
0100
0010
0001
,
0100
0101
0001
1000
,
0100
0110
1001
0110
,
0000
0100
0001
1000
,
0100
0010
0100
1100
,
1100
0011
0011
0101
,
0101
1010
1010
1001
,
1001
0110
0120
0000
,
0000
0000
0000
1030
,
0001
0100
1000
0000
0000
0000
0102
0000
,
0000
0023
0000
0000
,
0000
0000
0000
0000
0030
0000
0000
0000
0000
0000
0000
0000
0100
0010
0100
0000
,
0001
1000
0001
0000
0100
0010
0100
0000
2002
0000
0000
0000
0000
0000
3003
0000
,
0110
1000
0001
0010
,
0001
0100
0001
1000
,
1000
0101
0001
0110
,
1000
0000
0011
0000
1000
0010
1000
0010
,
1000
0100
0001
0100
,
1000
0010
0001
0010
,
0100
0001
0010
0100
0010
0001
1000
0100
,
0010
1001
0110
0000
,
0001
0100
0001
0000
0100
0010
0100
0000
,
0010
1000
0001
0010
,
0100
1000
0100
0000
0010
0100
0010
0000
,
0100
1000
0001
1000
,
0001
1100
1000
0101
,
0010
1001
0100
0011
,
0100
1000
0100
0000
1000
0010
1000
0000
,
0010
0100
0010
0000
0100
0001
0100
0000
,
0000
0001
1000
0100
0000
0010
0100
1000
,
0000
0100
1000
0010
0000
0100
0001
0010
,
0000
0100
1000
0001
1001
0000
0101
0000
,
1001
1100
0011
0110
,
1000
0100
0010
0100
1000
0001
0010
0100
,
1000
0000
0000
0000
0000
0000
0000
0010
,
0000
1001
0000
0000
0000
0000
0000
0000
;

//---------------dance-single - ----------------
#NOTES:
     dance-single:
     :
     Easy:
     7:
     0.288465,0.409098,0.234445,0.083190,0.000000,267.000000,236.000000,31.000000,11.000000,0.000000,0.000000,0.288465,0.409098,0.234445,0.083190,0.000000,267.000000,236.000000,31.000000,11.000000,0.000000,0.000000:
// measure 0
0000
0000
0000
0000
,  // measure 1
1000
0010
1000
0010
,  // measure 2
0000
0000
0000
1000
0000
0000
0001
0000
,  // measure 3
0100
0000
0000
0010
0000
0000
1000
0000
,  // measure 4
0100
0000
0000
0010
0000
0000
0100
0000
,  // measure 5
1000
0000
0000
0100
0000
0000
1000
0000
,  // measure 6
0001
0000
1000
0001
,  // measure 7
0100
0000
0001
0010
,  // measure 8
0100
0000
0010
0001
,  // measure 9
1000
0000
0100
1000
,  // measure 10
0010
0000
0100
1001
,  // measure 11
0000
0000
0010
1000
,  // measure 12
0000
0000
0010
0100
,  // measure 13
0000
0010
1000
0100
,  // measure 14
0010
0011
0001
0000
,  // measure 15
1000
0000
0001
0000
0100
0000
0010
1000
,  // measure 16
0010
1000
0001
0010
,  // measure 17
0001
1000
0001
0100
,  // measure 18
0010
1001
1000
0001
,  // measure 19
0010
0001
0100
0001
,  // measure 20
1000
0010
0100
0010
,  // measure 21
0100
0010
0100
0020
,  // measure 22
0000
0130
1001
1000
,  // measure 23
0001
0010
0001
1000
,  // measure 24
0100
0010
0100
1000
,  // measure 25
0001
1001
0110
1001
,  // measure 26
0000
0001
0000
0100
,  // measure 27
0000
1000
0100
0001
,  // measure 28
0000
0002
0000
0000
,  // measure 29
0000
2003
0000
0000
,  // measure 30
0000
3001
0000
0010
,  // measure 31
0000
1000
0000
0011
,  // measure 32
1000
0001
0110
1000
,  // measure 33
1001
1000
1010
0100
,  // measure 34
0101
0001
0010
0001
,  // measure 35
1000
0100
0010
0100
,  // measure 36
1000
0010
0100
0001
,  // measure 37
1000
0010
0100
0010
,  // measure 38
1000
1001
0000
0000
,  // measure 39
0000
0101
1100
0101
,  // measure 40
0000
1001
0000
0000
,  // measure 41
0000
0001
1000
0010
,  // measure 42
1000
0100
0001
0100
,  // measure 43
1000
0010
0100
0001
,  // measure 44
0010
0100
0010
0001
,  // measure 45
1000
0010
0000
0100
,  // measure 46
0010
1000
0001
0000
0000
0000
2002
0000
,  // measure 47
0000
0000
0000
0000
,  // measure 48
0000
3003
0000
0001
,  // measure 49
0100
0001
0010
0000
,  // measure 50
0100
0010
0001
1000
,  // measure 51
0010
1000
0001
0010
,  // measure 52
0100
0100
0010
0010
,  // measure 53
0001
0001
2000
0000
,  // measure 54
3010
1000
0100
1000
,  // measure 55
0010
0100
0001
0010
,  // measure 56
0100
0010
0001
1000
,  // measure 57
1001
0110
1001
0000
,  // measure 58
0001
1000
0010
1000
,  // measure 59
0001
0010
0100
0010
,  // measure 60
0001
1000
0010
1000
,  // measure 61
0001
0010
0100
1000
,  // measure 62
0002
0103
0020
1030
,  // measure 63
2000
3100
0020
0031
,  // measure 64
1000
1001
0001
0101
,  // measure 65
0100
0110
0010
1010
,  // measure 66
1000
0100
0001
0100
,  // measure 67
1000
0010
0001
0010
,  // measure 68
1000
0010
0011
0011
,  // measure 69
1100
1100
0110
0110
,  // measure 70
0001
0100
0010
1000
,  // measure 71
0001
0000
0000
0000
0000
0000
0000
0020
,  // measure 72
0000
0130
0000
0000
0000
0000
0000
0000
;

//---------------dance-single - ----------------
#NOTES:
     dance-single:
     :
     Beginner:
     5:
     0.159898,0.245459,0.083190,0.000000,0.000000,148.000000,137.000000,11.000000,0.000000,0.000000,0.000000,0.159898,0.245459,0.083190,0.000000,0.000000,148.000000,137.000000,11.000000,0.000000,0.000000,0.000000:
// measure 0
0000
0000
0000
0000
,  // measure 1
0010
0100
0001
1000
,  // measure 2
0000
0010
0000
0000
,  // measure 3
0000
0100
0000
0000
,  // measure 4
0000
0001
0000
0000
,  // measure 5
0000
1000
0000
0000
,  // measure 6
0000
0010
0000
0000
,  // measure 7
0000
1000
0000
0000
,  // measure 8
0000
0100
0000
0000
,  // measure 9
0000
1000
0000
0000
,  // measure 10
0000
0000
0010
1001
,  // measure 11
0000
0000
0100
0001
,  // measure 12
0000
0000
1000
0100
,  // measure 13
0000
1000
0000
0100
,  // measure 14
0000
0110
0000
0000
,  // measure 15
0000
0100
0000
0010
,  // measure 16
0000
0001
0000
0001
,  // measure 17
0000
1000
0001
1000
,  // measure 18
0001
1001
0000
0010
,  // measure 19
0000
1000
0000
0100
,  // measure 20
0000
1000
0000
0010
,  // measure 21
0000
0100
0000
0001
,  // measure 22
0001
1000
0000
0001
,  // measure 23
0000
0010
0000
0001
,  // measure 24
0000
0100
0000
0010
,  // measure 25
0000
1000
1000
1000
,  // measure 26
0000
0001
0000
1000
,  // measure 27
0000
0010
0010
0010
,  // measure 28
0000
0100
0000
0000
,  // measure 29
0000
0010
0000
0000
,  // measure 30
0000
1000
0000
0000
,  // measure 31
0000
0001
0000
0001
,  // measure 32
0000
1000
0001
0100
,  // measure 33
0010
0100
0001
1000
,  // measure 34
0001
1000
0000
0000
,  // measure 35
0000
0100
0000
1000
,  // measure 36
0000
0010
0000
0000
,  // measure 37
0000
0100
0000
0001
,  // measure 38
0000
1001
0000
0000
,  // measure 39
0000
0010
0100
0010
,  // measure 40
0000
1001
0000
0000
,  // measure 41
0000
0100
0000
0010
,  // measure 42
0000
0001
0000
1000
,  // measure 43
0000
0010
0000
1000
,  // measure 44
0000
0001
0000
0000
,  // measure 45
0000
0000
0000
0001
,  // measure 46
0000
1000
0000
0110
,  // measure 47
0000
0000
0000
0000
,  // measure 48
0000
0000
0000
1000
,  // measure 49
0100
0010
0001
0000
,  // measure 50
1000
0000
0001
0000
,  // measure 51
0100
0000
0010
0000
,  // measure 52
1000
0010
1000
0100
,  // measure 53
1000
0001
0000
0000
,  // measure 54
1000
0000
0001
0000
,  // measure 55
0100
0000
0010
0000
,  // measure 56
1000
0000
0100
0000
,  // measure 57
1000
0001
1000
0000
,  // measure 58
0001
0000
0001
0000
,  // measure 59
0001
0000
0000
0000
,  // measure 60
1000
0000
1000
0000
,  // measure 61
1000
0000
0000
0000
,  // measure 62
0000
0110
0000
1001
,  // measure 63
0000
0110
0000
1001
,  // measure 64
0010
0000
0010
0000
,  // measure 65
0100
0000
0100
0000
,  // measure 66
0001
0000
1000
0000
,  // measure 67
0010
0000
1000
0000
,  // measure 68
0100
0000
1000
0010
,  // measure 69
0100
0001
1000
0100
,  // measure 70
0010
0000
0000
0000
,  // measure 71
0000
0000
0000
0000
0000
0000
0000
1000
,  // measure 72
0000
1001
0000
0000
0000
0000
0000
0000
;
