#VERSION:0.83;
#TITLE:TRIUMPH;
#SUBTITLE:;
#ARTIST:AJURIKA;
#TITLETRANSLIT:;
#SUBTITLETRANSLIT:;
#ARTISTTRANSLIT:;
#GENRE:;
#ORIGIN:UK HARDCORE;
#CREDIT:;
#BANNER:banner.png;
#BACKGROUND:background.png;
#PREVIEWVID:;
#JACKET:jacket.png;
#CDIMAGE:;
#DISCIMAGE:;
#LYRICSPATH:;
#CDTITLE:CDTITLE.png;
#MUSIC:TRIUMPH.ogg;
#OFFSET:-1.063999;
#SAMPLESTART:84.994423;
#SAMPLELENGTH:20.983612;
#SELECTABLE:YES;
#BPMS:0.000=183.000;
#STOPS:;
#DELAYS:;
#WARPS:;
#TIMESIGNATURES:0.000=4=4;
#TICKCOUNTS:0.000=4;
#COMBOS:0.000=1;
#SPEEDS:0.000=1.000=0.000=0;
#SCROLLS:0.000=1.000;
#FAKES:;
#LABELS:0.000=Song Start;
#BGCHANGES:0.000=bga.avi=1.000=1=0=0=StretchNoLoop==CrossFade==,
99999=-nosongbg-=1.000=0=0=0 // don't automatically add -songbackground-
;
#KEYSOUNDS:;
#ATTACKS:
;

//---------------dance-single - ----------------
#NOTEDATA:;
#CHARTNAME:;
#STEPSTYPE:dance-single;
#DESCRIPTION:;
#CHARTSTYLE:;
#DIFFICULTY:Hard;
#METER:15;
#RADARVALUES:0.675618,0.856885,0.349417,0.641953,0.325039,582.000000,539.000000,43.000000,79.000000,0.000000,0.000000,0.000000,0.000000,0.000000,0.675618,0.856885,0.349417,0.641953,0.325039,582.000000,539.000000,43.000000,79.000000,0.000000,0.000000,0.000000,0.000000,0.000000;
#CREDIT:Pandemonium X;
#NOTES:
// measure 0
0000
0000
0000
0000
,  // measure 1
0000
0000
0000
0000
,  // measure 2
0000
0000
0000
0000
,  // measure 3
0000
0000
0000
0000
,  // measure 4
1000
0010
1000
0010
1000
0000
0000
0000
0001
0100
0001
0100
0001
0000
0000
0000
,  // measure 5
0010
0001
0010
0001
0010
0000
0000
0000
1000
0100
1000
0100
1000
0100
0010
0000
,  // measure 6
0001
0000
0000
0001
0000
0000
0020
0000
0000
0000
0130
0000
0010
0001
0100
0000
,  // measure 7
0010
0000
0000
2000
0000
0000
0002
0000
0000
0000
0000
0000
3003
0000
0000
0000
,  // measure 8
1010
0000
1000
0001
0010
0001
1000
0010
,  // measure 9
1000
0000
0001
0000
0010
0000
0001
1000
0001
0000
0000
0000
1001
0000
0000
0000
,  // measure 10
1100
0000
0001
1000
0100
1000
0001
0100
,  // measure 11
0001
0000
1000
0000
0100
0000
0010
0001
1000
0000
0000
0000
0110
0000
0000
0000
,  // measure 12
1001
0000
0001
0100
0010
0100
0001
0010
,  // measure 13
0100
0000
0010
0000
0001
0000
0100
0010
1000
0000
0000
0000
1001
0000
0000
0000
,  // measure 14
0011
0000
1000
0100
0010
0100
1000
0010
,  // measure 15
0100
0000
0010
0100
0010
1000
0100
1000
0100
0000
0000
0010
0000
0000
0100
0000
,  // measure 16
1000
0000
0001
1000
0000
1000
0000
1000
,  // measure 17
0000
0000
1000
0000
0001
0000
1000
0001
1000
0000
0000
0000
0010
0000
0000
0000
,  // measure 18
0100
0000
0100
0010
0000
0010
0000
0010
,  // measure 19
0000
0000
0010
0000
0100
0000
0010
0100
0010
0000
0000
0000
0100
0000
0000
0000
,  // measure 20
0020
0000
1030
0100
0000
0100
0000
0100
,  // measure 21
0000
0000
0100
0000
1000
0000
0100
1000
0100
0000
0000
0000
1000
0000
0000
0000
,  // measure 22
0002
0000
0013
0001
0000
0001
0000
0001
,  // measure 23
0000
0000
0001
0000
1000
0000
0100
1000
0100
0000
0000
0010
0000
0000
0001
0000
,  // measure 24
1000
0000
0010
0100
0010
0000
1000
0001
2000
0000
0000
0000
3200
0000
0000
0000
,  // measure 25
0310
0000
0000
0010
0000
0000
0010
0000
0100
1000
0100
1000
0100
0000
1000
0000
,  // measure 26
0010
0000
0100
0002
0000
2003
0000
3100
,  // measure 27
0010
0000
0200
0000
0000
0000
1300
0000
0100
0000
0010
0000
0001
1000
0001
1000
,  // measure 28
0001
0000
0010
0100
0010
0000
0100
1000
0200
0000
0000
0000
0320
0000
0000
0000
,  // measure 29
0031
0000
0000
0001
0000
0000
0001
0000
0100
0001
0100
0001
0100
0000
0001
0000
,  // measure 30
1000
0000
0100
2000
0000
3020
0000
0130
,  // measure 31
0001
0000
1001
0000
0000
1010
0000
0000
1001
0000
0000
0000
0000
0000
0000
0000
,  // measure 32
0001
0000
0010
0100
1000
0000
1000
0100
0020
0000
0000
0000
0032
0000
0000
0000
,  // measure 33
0103
0000
0000
0100
0000
0000
0100
0000
0010
1000
0010
1000
0010
0000
0100
0000
,  // measure 34
0001
0000
1000
0020
0000
2030
0000
3100
,  // measure 35
0010
0000
0002
0000
0000
0000
0013
0000
0100
0000
1000
0000
0010
0100
0010
0100
,  // measure 36
0010
0000
1000
0010
0100
0000
0100
0001
0020
0000
0000
0000
0230
0000
0000
0000
,  // measure 37
0310
0000
0000
0010
0000
0000
0010
0000
0100
1000
0100
1000
0100
0000
0010
0000
,  // measure 38
0001
0000
1000
0002
0000
0203
0000
0310
,  // measure 39
1000
0000
1100
0000
0000
0011
0000
0000
1001
0000
0000
0000
0000
0000
0000
0000
,  // measure 40
0002
0100
0023
0130
,  // measure 41
2100
0000
0000
0100
0000
0000
3100
0000
0020
0000
0000
0000
0031
0000
0000
0000
,  // measure 42
0002
0100
2003
3100
,  // measure 43
0010
0000
0000
0010
0000
0000
0010
0000
0200
0000
0000
0000
2300
0000
0000
0000
,  // measure 44
3020
0100
2030
3200
,  // measure 45
1300
0000
0000
1000
0000
0000
1000
0000
0002
0000
0000
0000
0023
0000
0000
0000
,  // measure 46
0230
0010
2300
3002
,  // measure 47
0103
0000
0001
0000
0000
0100
0000
0000
1001
0000
0000
0000
0000
0000
0000
0000
,  // measure 48
1000
0100
0001
0000
0100
0000
0010
0000
,  // measure 49
0001
0100
1000
0100
,  // measure 50
0001
0010
1000
0000
0010
0000
0100
0000
,  // measure 51
0010
0001
0100
2000
,  // measure 52
3100
0001
0010
0000
0100
0000
0010
0000
,  // measure 53
0001
0010
0100
0000
0010
0000
0100
0000
,  // measure 54
1000
0100
0010
0000
0100
0000
0020
0000
,  // measure 55
0130
1000
0010
0000
0100
0000
0001
0000
,  // measure 56
1000
1000
1000
0000
1001
0000
0011
0000
,  // measure 57
0001
0001
0001
0000
0011
0000
1100
0000
,  // measure 58
0010
0010
0010
0000
1010
0000
1100
0000
,  // measure 59
1000
1000
1000
0000
1100
0000
1001
0000
,  // measure 60
0001
0100
1000
0100
0001
0010
1000
0010
,  // measure 61
0100
0000
0001
0000
0100
0000
1000
0000
0010
0000
0001
0000
0010
0100
0001
1000
,  // measure 62
0100
0020
0000
0130
2000
0000
3001
0200
,  // measure 63
0000
2300
0000
3200
0000
0310
1000
1000
,  // measure 64
0001
0000
0021
0000
0000
0000
0000
0000
0230
0000
0000
0000
0310
0001
0100
0001
,  // measure 65
1000
0001
1000
0000
0000
0000
1200
0000
0000
0000
0310
0000
0001
0000
0001
0000
,  // measure 66
1000
0010
0001
0010
0000
0100
0000
0001
,  // measure 67
0010
0001
0000
2100
0000
3001
0100
1000
,  // measure 68
0000
0000
1200
0000
0000
0000
0000
0000
0310
0000
0000
0000
0100
0010
1000
0001
,  // measure 69
0010
0001
0010
0000
0000
0000
0120
0000
0000
0000
0130
0000
1000
0100
0010
0001
,  // measure 70
0100
1002
0000
0013
2001
0000
3010
1002
,  // measure 71
0000
0010
0000
0013
0000
0100
0100
0100
,  // measure 72
0010
0001
0100
0000
0120
0000
2030
0000
,  // measure 73
3100
0010
0001
0000
0021
0000
0230
0000
,  // measure 74
0310
0001
0100
0000
1020
0000
0130
0000
,  // measure 75
0010
2010
0000
3002
0000
0013
1000
0010
,  // measure 76
0100
0000
2100
0000
0000
0000
3000
0000
0002
0000
0000
0000
0103
0001
0010
0100
,  // measure 77
1000
0100
0020
0000
0000
0000
0230
0000
0000
0000
0310
0000
0001
0010
0100
0010
,  // measure 78
0001
2001
0000
3100
1002
0000
0013
2001
,  // measure 79
0000
0010
0000
3020
0000
0100
0100
0130
,  // measure 80
0001
0000
0100
0010
1000
0000
0001
0000
0010
0000
0100
1000
0010
0000
0100
0000
,  // measure 81
0001
0000
1000
0001
0010
0000
0001
0000
1000
0000
0100
1000
0001
0000
0100
0000
,  // measure 82
0001
0000
1000
0010
0100
0000
0001
0000
0010
0000
0100
0010
0001
0000
1000
0000
,  // measure 83
0100
0000
0010
0001
0100
0000
0010
0000
1000
0100
0010
0001
1000
0100
0010
0001
,  // measure 84
0020
0000
0000
0000
0130
1000
0100
0001
,  // measure 85
0100
1000
0010
0100
0001
0010
0100
1000
,  // measure 86
1002
0020
0033
2001
0020
3030
1002
0023
,  // measure 87
0000
0230
0000
2300
0000
3100
0010
1001
;

//---------------dance-single - ----------------
#NOTEDATA:;
#CHARTNAME:;
#STEPSTYPE:dance-single;
#DESCRIPTION:;
#CHARTSTYLE:;
#DIFFICULTY:Medium;
#METER:11;
#RADARVALUES:0.499168,0.571257,0.292535,0.333165,0.036567,430.000000,394.000000,36.000000,41.000000,0.000000,0.000000,0.000000,0.000000,0.000000,0.499168,0.571257,0.292535,0.333165,0.036567,430.000000,394.000000,36.000000,41.000000,0.000000,0.000000,0.000000,0.000000,0.000000;
#CREDIT:Pandemonium X;
#NOTES:
// measure 0
0000
0000
0000
0000
,  // measure 1
0000
0000
0000
0000
,  // measure 2
0000
0000
0000
0000
,  // measure 3
0000
0000
0000
0000
,  // measure 4
2000
3100
0200
0310
,  // measure 5
0020
0000
0031
0000
0002
0000
1003
0010
,  // measure 6
0100
0000
0000
0100
0000
0000
0020
0000
0000
0000
1030
0000
0010
0000
0100
0000
,  // measure 7
0001
0000
0000
1000
0000
0000
0020
0000
0000
0000
0000
0000
0030
0000
0000
0000
,  // measure 8
1001
0000
0001
0010
0000
1000
0000
0010
,  // measure 9
0000
0100
1000
0000
1100
0000
1100
0000
,  // measure 10
1001
0000
0001
0010
0000
0001
0000
0100
,  // measure 11
0000
0010
0100
0000
0101
0000
0011
0000
,  // measure 12
1001
0000
0001
1000
0000
0100
0000
0001
,  // measure 13
0000
0100
0010
0000
0011
0000
0011
0000
,  // measure 14
1001
0000
0001
0100
0000
0001
0000
0010
,  // measure 15
0000
0000
0100
0000
0010
0000
0001
0000
1000
0000
0000
0100
0000
0000
0010
0000
,  // measure 16
0100
0000
1000
0001
0000
0001
0000
0001
,  // measure 17
0000
0001
0000
0001
2000
0000
3001
0000
,  // measure 18
1000
0000
1000
0010
0000
0010
0000
0010
,  // measure 19
0000
0010
0100
0001
0020
0000
0130
0000
,  // measure 20
1000
0000
0001
2000
0000
0000
3000
0000
,  // measure 21
0000
0000
0000
0000
,  // measure 22
0100
0000
0010
0002
0000
0000
0000
0000
,  // measure 23
0003
0000
0010
0100
1000
0000
1001
0000
,  // measure 24
1000
0001
0100
0000
0001
0000
0011
0000
,  // measure 25
0001
0000
0000
0001
0000
0000
0001
0000
2000
0000
0000
0000
3010
0000
0000
0000
,  // measure 26
0100
0000
0010
1000
0000
0001
0000
0010
,  // measure 27
0100
1000
0000
0100
0010
0001
2000
0000
,  // measure 28
3100
1000
0010
0000
0100
0000
0101
0000
,  // measure 29
0010
0000
0000
0010
0000
0000
0010
0000
2000
0000
0000
0000
3100
0000
0000
0000
,  // measure 30
0010
0000
0001
0100
0000
0001
0000
1000
,  // measure 31
0100
0000
0010
0000
0000
0100
0000
0000
1100
0000
0000
0000
0000
0000
0000
0000
,  // measure 32
1000
0001
1000
0000
0002
0000
0013
0000
,  // measure 33
0100
0000
0000
0100
0000
0000
0100
0000
0020
0000
0000
0000
0031
0000
0000
0000
,  // measure 34
1000
0000
0001
0100
0000
0001
0000
0010
,  // measure 35
0100
1000
0000
0100
0010
0001
2000
0000
,  // measure 36
3001
0100
0010
0000
2000
0000
3100
0000
,  // measure 37
0010
0000
0000
0010
0000
0000
0010
0000
0002
0000
0000
0000
1003
0000
0000
0000
,  // measure 38
0001
0000
0100
0010
0000
1000
0000
0010
,  // measure 39
0100
0000
0010
0000
0000
1000
0000
0000
1001
0000
0000
0000
0000
0000
0000
0000
,  // measure 40
0002
0000
0000
0000
0200
0000
0000
0003
,  // measure 41
0020
0000
0000
0300
2000
0000
3030
0000
,  // measure 42
0002
0000
0000
0000
2000
0000
0000
0003
,  // measure 43
0200
0000
0000
3000
0020
0000
0000
0330
,  // measure 44
0200
0000
0000
0000
2000
0000
0000
0300
,  // measure 45
0020
0000
0000
3000
0200
0000
0000
0030
,  // measure 46
0301
0000
0100
0020
0000
2030
0000
3001
,  // measure 47
1000
0001
0110
0000
,  // measure 48
0001
1000
0001
0000
1000
0000
0010
0000
,  // measure 49
1000
0100
1000
0010
,  // measure 50
0100
0001
0010
0100
,  // measure 51
0010
0001
0100
0020
,  // measure 52
1030
0001
1000
0000
0001
0000
0100
0000
,  // measure 53
0001
0010
0100
0010
,  // measure 54
0001
1000
0010
0200
,  // measure 55
0320
1030
0001
0010
,  // measure 56
0001
0010
0001
0000
0010
0000
0011
0000
,  // measure 57
0001
0100
0001
0000
0100
0000
0101
0000
,  // measure 58
1000
0100
1000
0000
0100
0000
1100
0000
,  // measure 59
1000
0010
1000
0000
0010
0000
1010
0000
,  // measure 60
1000
0000
1000
0010
0000
0010
0001
0000
,  // measure 61
0001
0010
0000
0010
1000
0000
1000
0100
,  // measure 62
0010
0001
0000
0010
0100
0000
1000
0001
,  // measure 63
0000
0110
0000
1002
0000
0013
0100
1000
,  // measure 64
0001
0100
0000
0000
1010
0000
1000
0010
,  // measure 65
0100
0001
0000
0010
0000
0100
0010
0001
,  // measure 66
1000
0001
1000
0010
0000
1000
0000
0100
,  // measure 67
0010
0002
0000
2003
0000
3010
1000
0100
,  // measure 68
0000
0011
0000
0000
1100
0000
0100
1000
,  // measure 69
0010
0100
0000
0001
0000
0010
0100
0010
,  // measure 70
0001
0100
0000
0100
1000
0000
1000
0100
,  // measure 71
0000
0110
0000
1001
0000
0001
0010
0100
,  // measure 72
1000
0100
0010
0000
0001
0000
0011
0000
,  // measure 73
0001
0010
0100
0000
1000
0000
1001
0000
,  // measure 74
0001
0100
0010
0000
1000
0000
1010
0000
,  // measure 75
1000
0010
0100
0000
0001
0000
1001
0000
,  // measure 76
1000
0100
0000
0100
0001
0000
0100
0010
,  // measure 77
0001
0100
0000
1000
0000
0100
0010
1000
,  // measure 78
0001
0010
0000
0010
1000
0000
1000
0010
,  // measure 79
0000
0110
0000
2002
0000
0000
3003
0000
,  // measure 80
0001
0100
0010
0000
0100
0010
1000
0000
,  // measure 81
0001
1000
0100
0000
0010
0100
1000
0000
,  // measure 82
0010
0001
0100
0000
0010
1000
0001
0000
,  // measure 83
1000
0001
0100
0000
0001
0010
0100
1000
,  // measure 84
0020
0000
0000
0000
0130
0001
0100
0001
,  // measure 85
1000
0010
1000
0010
1000
0001
0010
0100
,  // measure 86
1000
0100
0000
0100
0001
0000
0001
0100
,  // measure 87
0000
0011
0000
1100
0000
0100
0010
1001
;

//---------------dance-single - ----------------
#NOTEDATA:;
#CHARTNAME:;
#STEPSTYPE:dance-single;
#DESCRIPTION:;
#CHARTSTYLE:;
#DIFFICULTY:Easy;
#METER:7;
#RADARVALUES:0.308787,0.428443,0.073134,0.162520,0.000000,266.000000,257.000000,9.000000,20.000000,0.000000,0.000000,0.000000,0.000000,0.000000,0.308787,0.428443,0.073134,0.162520,0.000000,266.000000,257.000000,9.000000,20.000000,0.000000,0.000000,0.000000,0.000000,0.000000;
#CREDIT:Pandemonium X;
#NOTES:
// measure 0
0000
0000
0000
0000
,  // measure 1
0000
0000
0000
0000
,  // measure 2
0000
0000
0000
0000
,  // measure 3
0000
0000
0000
0000
,  // measure 4
2000
3000
0200
0300
,  // measure 5
0020
0030
0002
0003
,  // measure 6
1000
0001
0100
0001
,  // measure 7
1000
1000
2000
0000
,  // measure 8
3001
0100
0010
1000
,  // measure 9
0100
0010
0011
1100
,  // measure 10
0100
1000
0010
0100
,  // measure 11
0001
1000
1001
0110
,  // measure 12
1000
0010
0100
0001
,  // measure 13
0010
0100
1100
0110
,  // measure 14
0100
1000
0010
0100
,  // measure 15
0001
0010
0100
0100
,  // measure 16
2000
0000
0000
0000
,  // measure 17
0000
0000
0000
3000
,  // measure 18
0002
0000
0000
0000
,  // measure 19
0000
0000
0000
0003
,  // measure 20
0200
0000
0000
0000
,  // measure 21
0000
0000
0000
0300
,  // measure 22
0020
0000
0000
0000
,  // measure 23
0000
0000
0030
0000
,  // measure 24
1000
0001
1000
0000
0001
0000
0000
0000
,  // measure 25
0100
0000
0001
0010
,  // measure 26
0100
0000
1000
0000
,  // measure 27
0100
1000
0010
0000
,  // measure 28
0100
0010
0100
0000
0010
0000
0000
0000
,  // measure 29
1000
0000
0001
0000
,  // measure 30
0010
0000
0001
0000
,  // measure 31
1000
0001
0110
0000
,  // measure 32
1000
0010
1000
0000
0010
0000
0000
0000
,  // measure 33
0100
0000
0001
0000
,  // measure 34
0010
0001
1000
0000
,  // measure 35
0100
0000
1000
0000
,  // measure 36
0010
0100
0010
0000
0100
0000
0000
0000
,  // measure 37
0001
0000
1000
0000
,  // measure 38
0100
0000
1000
0000
,  // measure 39
0010
0100
1001
0000
,  // measure 40
0002
0000
0100
0000
,  // measure 41
0010
0000
1003
0000
,  // measure 42
2000
0000
0100
0000
,  // measure 43
0010
0000
3001
0000
,  // measure 44
0002
0000
0010
0000
,  // measure 45
0100
0000
1003
0000
,  // measure 46
2000
0000
0100
0000
,  // measure 47
0010
0000
3001
0000
,  // measure 48
1001
0001
1000
0000
,  // measure 49
0001
0100
0001
0100
,  // measure 50
0010
0100
0010
0100
,  // measure 51
0010
1000
0010
2000
,  // measure 52
3100
1000
0100
1000
,  // measure 53
0100
0010
0100
0010
,  // measure 54
0001
0010
0001
0020
,  // measure 55
0032
1003
0001
1000
,  // measure 56
0001
0100
0001
0000
0100
0000
0000
0000
,  // measure 57
0100
0010
0100
0000
0010
0000
0000
0000
,  // measure 58
1000
0010
1000
0000
0010
0000
0000
0000
,  // measure 59
1000
0001
1000
0000
0001
0000
0000
0000
,  // measure 60
1000
0100
0010
0001
,  // measure 61
0010
0100
1000
0001
,  // measure 62
1000
0000
0000
0001
0000
0000
0100
0000
,  // measure 63
0000
0010
0000
2000
0000
0000
3000
0000
,  // measure 64
0001
0000
1000
0100
,  // measure 65
1000
0010
0100
0001
,  // measure 66
0010
1000
0010
0001
,  // measure 67
0100
0001
1000
0001
,  // measure 68
1000
0100
1000
0010
,  // measure 69
0100
0001
0010
0100
,  // measure 70
0010
0000
0000
0001
0000
0000
1000
0000
,  // measure 71
0000
0010
0000
0200
0000
0000
0300
0000
,  // measure 72
0001
0010
0001
0100
,  // measure 73
0010
1000
0100
0010
,  // measure 74
0100
1000
0010
0100
,  // measure 75
0001
1000
0000
0100
0000
0010
0100
1000
,  // measure 76
0000
0100
0000
0000
1000
0000
0010
0000
,  // measure 77
0100
0001
0010
0100
,  // measure 78
0010
0000
0000
0001
0000
0000
1000
0000
,  // measure 79
0000
0001
0000
0020
0000
0000
0030
0000
,  // measure 80
0100
1000
0010
0100
,  // measure 81
0001
0010
0100
0010
,  // measure 82
0001
1000
0010
0100
,  // measure 83
0001
1000
0100
0010
,  // measure 84
0002
0000
0013
0100
,  // measure 85
1000
0100
0010
0100
,  // measure 86
1000
0000
0000
0001
0000
0000
0100
0000
,  // measure 87
0000
0010
0000
1000
0000
0001
0100
0010
;

//---------------dance-single - ----------------
#NOTEDATA:;
#CHARTNAME:;
#STEPSTYPE:dance-single;
#DESCRIPTION:;
#CHARTSTYLE:;
#DIFFICULTY:Beginner;
#METER:4;
#RADARVALUES:0.128855,0.213917,0.032504,0.000000,0.000000,111.000000,107.000000,4.000000,0.000000,0.000000,0.000000,0.000000,0.000000,0.000000,0.128855,0.213917,0.032504,0.000000,0.000000,111.000000,107.000000,4.000000,0.000000,0.000000,0.000000,0.000000,0.000000,0.000000;
#CREDIT:Pandemonium X;
#NOTES:
// measure 0
0000
0000
0000
0000
,  // measure 1
0000
0000
0000
0000
,  // measure 2
0000
0000
0000
0000
,  // measure 3
0000
0000
0000
0000
,  // measure 4
0010
0000
0010
0000
,  // measure 5
0010
0000
0010
0000
,  // measure 6
0100
0000
0000
0000
,  // measure 7
0001
0000
0000
0000
,  // measure 8
1000
0000
0000
0000
,  // measure 9
0000
0000
0001
0001
,  // measure 10
1000
0000
0000
0000
,  // measure 11
0000
0000
0010
0100
,  // measure 12
0010
0000
0000
0000
,  // measure 13
0000
0000
0100
0100
,  // measure 14
0001
0000
0000
0000
,  // measure 15
1000
0000
0001
0000
,  // measure 16
0100
0000
0000
0000
,  // measure 17
0000
0000
0000
0000
,  // measure 18
0010
0000
0000
0000
,  // measure 19
0000
0000
0000
0000
,  // measure 20
1000
0000
0000
0000
,  // measure 21
0000
0000
0000
0000
,  // measure 22
1000
0000
0000
0000
,  // measure 23
0000
0000
0000
0000
,  // measure 24
0001
0000
1000
0000
,  // measure 25
0001
0000
0000
0000
,  // measure 26
0100
0000
0000
0000
,  // measure 27
0010
0000
0000
0000
,  // measure 28
1000
0000
0010
0000
,  // measure 29
1000
0000
0000
0000
,  // measure 30
0001
0000
0000
0000
,  // measure 31
1001
0000
0000
0000
,  // measure 32
0001
0000
1000
0000
,  // measure 33
0010
0000
0000
0000
,  // measure 34
0100
0000
0000
0000
,  // measure 35
0001
0000
0000
0000
,  // measure 36
0010
0000
0001
0000
,  // measure 37
1000
0000
0000
0000
,  // measure 38
0001
0000
0000
0000
,  // measure 39
0110
0000
0000
0000
,  // measure 40
0010
0000
1000
0000
,  // measure 41
0100
0000
0000
0000
,  // measure 42
0010
0000
0001
0000
,  // measure 43
1000
0000
0000
0000
,  // measure 44
0001
0000
1000
0000
,  // measure 45
0010
0000
0000
0000
,  // measure 46
0100
0000
0001
0000
,  // measure 47
0010
0000
0000
0000
,  // measure 48
0100
0000
0000
0000
,  // measure 49
1000
0000
0000
0000
,  // measure 50
0001
0000
0000
0000
,  // measure 51
0100
0000
0000
0010
,  // measure 52
1000
0000
0000
0000
,  // measure 53
1000
0000
0000
0000
,  // measure 54
1000
0000
0000
0001
,  // measure 55
1000
0000
0000
0000
,  // measure 56
1000
0000
0001
0000
,  // measure 57
0100
0000
0010
0010
,  // measure 58
0100
0000
0010
0000
,  // measure 59
1000
0000
0001
0001
,  // measure 60
1000
0000
0000
0000
,  // measure 61
0001
0000
0000
0000
,  // measure 62
1000
0000
0000
0001
,  // measure 63
0000
0000
0000
0000
,  // measure 64
0100
0000
0000
0000
,  // measure 65
0010
0000
0000
0000
,  // measure 66
1000
0000
0001
0000
,  // measure 67
0010
0000
0000
0000
,  // measure 68
0100
0000
0000
0000
,  // measure 69
0010
0000
0000
0000
,  // measure 70
0001
0000
0000
0000
,  // measure 71
1000
0000
0000
0000
,  // measure 72
0010
0000
0000
0000
,  // measure 73
1000
0000
0000
0000
,  // measure 74
0100
0000
0000
0000
,  // measure 75
0010
0000
0000
0000
,  // measure 76
0001
0000
0000
0000
,  // measure 77
1000
0000
0000
0000
,  // measure 78
0010
0000
0000
0100
,  // measure 79
0000
0000
0000
0000
,  // measure 80
0010
0000
0000
0000
,  // measure 81
1000
0000
0000
0000
,  // measure 82
0001
0000
0000
0000
,  // measure 83
0100
0000
0001
0000
,  // measure 84
0010
0000
0001
0000
,  // measure 85
1000
0000
0001
0000
,  // measure 86
0110
0000
0000
1001
,  // measure 87
0000
0000
0000
0010
;

//---------------dance-single - ----------------
#NOTEDATA:;
#CHARTNAME:;
#STEPSTYPE:dance-single;
#DESCRIPTION:;
#CHARTSTYLE:;
#DIFFICULTY:Challenge;
#METER:16;
#RADARVALUES:0.723213,1.071106,0.446929,0.723213,0.422551,623.000000,568.000000,55.000000,89.000000,0.000000,0.000000,0.000000,0.000000,0.000000,0.723213,1.071106,0.446929,0.723213,0.422551,623.000000,568.000000,55.000000,89.000000,0.000000,0.000000,0.000000,0.000000,0.000000;
#CREDIT:Pandemonium X;
#NOTES:
// measure 0
0000
0000
0000
0000
,  // measure 1
0000
0000
0000
0000
,  // measure 2
0000
0000
0000
0000
,  // measure 3
0000
0000
0000
0000
,  // measure 4
1000
0000
0010
0100
0000
0100
0010
0000
0100
0000
0001
0100
0000
0100
0001
0000
,  // measure 5
0010
0000
0100
0010
0000
0010
0100
0000
1000
0000
0001
0000
1000
0001
1000
0001
,  // measure 6
0010
0000
0000
0200
0000
0000
0320
0000
0000
0000
0130
0000
0100
1000
0001
0000
,  // measure 7
1000
0000
0000
0002
0000
0000
0020
0000
0000
0000
0000
0000
0033
0000
0000
0000
,  // measure 8
1001
0000
0001
1000
0100
1000
0001
0010
,  // measure 9
0100
0000
0010
0000
0001
0000
0100
0010
1000
0000
0000
0000
1001
0000
0000
0000
,  // measure 10
1010
0000
0001
0100
0001
1000
0100
0010
,  // measure 11
0100
0000
1000
0000
0001
0000
0100
0010
1000
0000
0000
0000
0101
0000
0000
0000
,  // measure 12
1001
0000
0001
1000
0100
1000
0010
0100
,  // measure 13
0001
0000
0010
0000
0100
0000
1000
0100
0010
0000
0000
0000
1001
0000
0000
0000
,  // measure 14
0011
0000
1000
0100
1000
0001
0100
0010
,  // measure 15
1000
0000
0001
0000
0010
0100
0010
0001
2000
0000
0000
3200
0000
0000
0310
0000
,  // measure 16
0001
0000
0001
0001
0000
0001
0000
0001
,  // measure 17
0000
0000
0001
0000
0001
0000
0001
1000
0001
0000
0000
0000
0110
0000
0000
0000
,  // measure 18
1000
0000
1000
1000
0000
1000
0000
1000
,  // measure 19
0000
0000
1000
0000
1000
0000
1000
0001
1000
0000
0000
0000
1001
0000
0000
0000
,  // measure 20
2010
0000
3001
0010
0000
0010
0000
0010
,  // measure 21
0000
0000
0010
0000
0010
0000
0010
0100
0010
0000
0000
0000
0110
0000
0000
0000
,  // measure 22
2100
0000
3001
0020
0000
0130
0000
0100
,  // measure 23
0000
0000
0100
0000
0100
0010
0001
0010
0100
0000
1000
0100
0000
0010
0001
0000
,  // measure 24
1000
0000
0001
0100
0020
0000
1030
0001
0020
0000
0000
0000
0230
0000
0000
0000
,  // measure 25
1300
0000
0000
1000
0000
0000
1000
0000
0001
0100
0001
0100
0001
0000
0010
0000
,  // measure 26
0100
0000
0010
0002
0000
0203
0000
1300
,  // measure 27
0100
0000
0010
0000
0000
0000
0100
0000
0010
0000
1000
0000
0001
1000
0001
1000
,  // measure 28
0010
0000
0100
0001
0020
0000
0130
1000
0002
0000
0000
0000
2003
0000
0000
0000
,  // measure 29
3010
0000
0000
0010
0000
0000
0010
0000
1000
0001
1000
0001
0010
0000
0100
0000
,  // measure 30
1000
0000
0100
2000
0000
3020
0000
0130
,  // measure 31
0001
0000
0011
0000
0000
1010
0000
0000
1001
0000
0000
0000
0000
0000
0000
0000
,  // measure 32
0001
0000
0100
0010
2000
0000
3100
0010
0002
0000
0000
0000
0023
0000
0000
0000
,  // measure 33
0130
0000
0000
0100
0000
0000
0100
0000
1000
0010
1000
0010
1000
0000
0001
0000
,  // measure 34
0010
0000
0001
0200
0000
0320
0000
1030
,  // measure 35
0001
0000
0010
0000
0000
0000
0100
0000
0010
0000
0001
0000
1000
0010
0100
0010
,  // measure 36
1000
0000
0001
1000
0020
0000
1030
0001
0020
0000
0000
0000
0230
0000
0000
0000
,  // measure 37
1300
0000
0000
1000
0000
0000
1000
0000
0001
0010
0001
0010
0001
0000
0100
0000
,  // measure 38
0010
0000
1000
0002
0000
0023
0000
0130
,  // measure 39
1000
0000
1100
0000
0000
0101
0000
0000
1001
0000
0000
0000
0000
0000
0000
0000
,  // measure 40
2000
0000
3010
0100
0002
0000
0023
0000
,  // measure 41
0130
0000
0000
0010
0000
0000
0010
0000
0100
1000
0100
1000
0001
0000
1000
0000
,  // measure 42
0002
0010
2003
0010
,  // measure 43
3001
0000
0100
0000
0000
0000
0010
0000
1000
0000
0100
0000
0010
0001
0010
0001
,  // measure 44
0020
0000
0031
1000
0200
0000
0320
0000
,  // measure 45
0032
0000
0000
1000
0000
0000
1003
0000
0100
0010
0100
0010
0001
0000
0010
0000
,  // measure 46
0002
0000
0103
0020
0000
2030
0000
3100
,  // measure 47
0010
0000
0011
0000
0000
1100
0000
0000
1001
0000
0000
0000
0000
0000
0000
0000
,  // measure 48
1000
0010
0001
0000
0010
0000
1000
0000
,  // measure 49
0100
0010
0100
1000
,  // measure 50
0001
0100
0001
0010
,  // measure 51
0100
0010
0001
2000
,  // measure 52
3001
0010
1000
0000
0010
0000
0001
0000
,  // measure 53
0100
0001
1000
0100
,  // measure 54
1000
0100
1000
0020
,  // measure 55
0130
0001
1000
0002
0000
0000
0103
0000
,  // measure 56
0010
0010
0010
0000
1010
0000
0101
0000
,  // measure 57
0001
0001
0001
0000
0011
0000
0110
0000
,  // measure 58
0100
0100
0100
0000
1100
0000
1010
0000
,  // measure 59
0100
0100
0100
0000
0110
0000
1010
0000
,  // measure 60
0001
0010
1000
0010
0001
0100
1000
0100
,  // measure 61
0010
0000
1000
0000
0001
0000
0010
0000
1000
0000
0010
0000
0001
0100
0010
1000
,  // measure 62
0001
1020
0000
0130
0021
0000
0130
2100
,  // measure 63
0000
0010
0000
3002
0000
0103
0010
0010
,  // measure 64
1000
0000
1002
0000
0000
0000
0003
0000
0020
0000
0000
0000
0130
0010
0100
1000
,  // measure 65
0001
0100
0010
0000
0000
0000
0202
0000
0000
0303
0010
0000
1000
0000
0100
0000
,  // measure 66
0010
0001
0010
0100
0000
1000
0000
0010
,  // measure 67
1000
2002
3003
2020
3030
2000
3020
0200
,  // measure 68
0330
0000
2001
0000
0000
0000
0000
0000
3100
0000
0000
0000
0010
0100
1000
0100
,  // measure 69
0010
0001
0100
0000
0000
0000
0220
0000
0000
0000
0330
0000
0100
0010
1000
0001
,  // measure 70
0010
2200
3300
1000
0202
0303
0001
2002
,  // measure 71
3003
0020
0000
0230
0000
0001
0001
0301
,  // measure 72
1000
1000
1000
0000
0021
0000
0130
0000
,  // measure 73
0001
0001
0001
0000
0201
0000
0310
0000
,  // measure 74
0100
0100
0100
0000
0021
0000
0130
0000
,  // measure 75
1000
1000
1000
0000
2100
0000
3001
0000
,  // measure 76
0100
0000
0010
0000
0000
0000
0000
0000
1010
0000
0000
0000
1000
0100
0010
0001
,  // measure 77
0010
0100
1000
0000
0000
0000
0202
0000
0000
0000
0303
0000
0001
0010
0100
0010
,  // measure 78
0001
2020
3030
0100
0220
0330
1000
0201
,  // measure 79
0000
0010
0000
0302
0000
1000
1000
1003
,  // measure 80
0001
0000
1000
0000
0001
0010
0100
1000
0001
0000
1000
0000
0001
0010
0100
1000
,  // measure 81
0001
0000
1000
0000
0001
0010
0100
1000
0001
0000
1000
0000
0001
0010
0100
1000
,  // measure 82
0001
0000
1000
0000
0001
0010
0100
1000
0001
0000
1000
0000
0001
0010
0100
1000
,  // measure 83
0001
0000
1000
0000
0001
0010
0100
1000
0001
0100
0010
1000
0001
0100
0010
1000
,  // measure 84
0020
0000
0000
0000
0000
0000
0000
0000
0130
0001
0100
0001
0010
0001
1000
0010
,  // measure 85
1000
0010
0100
0001
0100
0001
0010
0100
1000
0100
0010
0100
1000
0010
0100
0001
,  // measure 86
0010
2200
3300
0010
0202
0303
0010
1002
,  // measure 87
0000
0010
0000
2003
0000
3010
0110
1001
;
