#TITLE:Styla;
#SUBTITLE:;
#ARTIST:Anamanaguchi;
#TITLETRANSLIT:;
#SUBTITLETRANSLIT:;
#ARTISTTRANSLIT:;
#GENRE:CHIPTRONICA;
#CREDIT:;
#BANNER:banner.png;
#BACKGROUND:background.png;
#LYRICSPATH:;
#CDTITLE:CDTITLE.png;
#MUSIC:Styla.ogg;
#OFFSET:-0.080000;
#SAMPLESTART:75.210442;
#SAMPLELENGTH:16.695648;
#SELECTABLE:YES;
#BPMS:0.000000=115.000000
;
#STOPS:
;
#BGCHANGES:;
#KEYSOUNDS:;
#ATTACKS:;

//---------------dance-single - ----------------
#NOTES:
     dance-single:
     :
     Hard:
     9:
     0.331136,0.380218,0.091619,0.164914,0.229047,253.000000,243.000000,10.000000,18.000000,0.000000,0.000000,0.331136,0.380218,0.091619,0.164914,0.229047,253.000000,243.000000,10.000000,18.000000,0.000000,0.000000:
// measure 0
0000
0000
0000
0000
,  // measure 1
0000
0000
0000
0000
,  // measure 2
0000
0000
0000
0000
,  // measure 3
0000
0000
0000
0000
,  // measure 4
0001
0010
0001
1000
0000
0100
1000
0000
,  // measure 5
1000
0001
1000
0000
0000
0000
0000
0000
,  // measure 6
0001
0000
0000
0010
0000
0000
0001
0000
0000
0000
0000
0000
1000
0000
0000
0000
,  // measure 7
0001
1000
0010
0000
0000
0000
0000
0000
,  // measure 8
1000
0010
1000
0100
0000
1000
0001
0000
,  // measure 9
0001
0000
1000
0000
0010
0000
0000
0000
0000
0000
0100
0000
0001
0000
0000
0001
,  // measure 10
0000
0000
0010
0000
0100
0000
0000
0100
0000
0000
1000
0000
0001
0000
1000
0000
,  // measure 11
0001
0010
0100
0000
0000
0000
0000
0000
,  // measure 12
1000
0100
1000
0010
,  // measure 13
0100
0000
0101
0000
0000
0101
0000
0000
0100
0000
0000
0001
0000
0000
1000
0000
,  // measure 14
0001
0000
0000
0000
0010
0000
0000
0000
0001
0000
0000
0000
1000
0000
0000
0100
,  // measure 15
0000
0000
0100
0000
0000
0110
0000
0000
0100
0000
0000
1000
0000
0000
0001
0000
,  // measure 16
0100
0001
0010
0001
,  // measure 17
1000
0000
1001
0000
0000
1001
0000
0000
1000
0000
0000
0100
0000
0000
0010
0000
,  // measure 18
0001
0000
0000
0000
0100
0000
0000
0000
0001
0000
0000
0000
1000
0000
0000
0100
,  // measure 19
0000
0000
0100
0000
0000
0000
0010
0000
0001
0000
1000
0001
0000
1000
0000
0000
,  // measure 20
0001
0000
0100
0010
1000
0100
0000
0010
,  // measure 21
0000
0100
0000
2000
0000
3001
0000
0000
,  // measure 22
1000
0000
0001
0100
0001
0010
0000
0100
,  // measure 23
0000
0010
0000
0002
0000
2003
0000
3010
,  // measure 24
0000
0000
0000
0100
0001
0010
0000
0100
,  // measure 25
0000
0010
0000
0002
0000
0103
0000
0000
,  // measure 26
0020
0000
0000
1030
0002
0000
0000
0013
,  // measure 27
0200
0000
0000
0000
0000
0000
1300
0000
0001
0000
0000
1000
0000
0000
0001
0000
,  // measure 28
0100
0000
0000
0010
0000
0000
1000
0000
0000
0001
0000
0000
0010
0000
0001
0000
,  // measure 29
1000
0000
1001
0000
0000
1001
0000
0000
0001
0000
0000
1000
0000
0000
0100
0000
,  // measure 30
0010
0000
0000
0100
0000
0000
1000
0000
0000
0001
0000
0000
0010
0000
0000
0100
,  // measure 31
0000
0000
0010
0000
0000
0011
0000
0000
0001
0000
0000
0010
0000
0000
0100
0000
,  // measure 32
0010
0000
0000
0001
0000
0000
1000
0000
0000
0010
0000
0000
1000
0000
0100
0000
,  // measure 33
0010
0000
0110
0000
0000
0110
0000
0000
0100
0000
0000
1000
0000
0000
0010
0000
,  // measure 34
0200
0000
0000
0000
0000
0000
0000
0000
0302
0000
0000
0000
0003
0000
0000
1000
,  // measure 35
0000
0000
0001
0000
0000
0100
0000
0000
0020
0000
0000
2030
0000
0000
3200
0000
,  // measure 36
0310
0100
1000
0000
0001
0000
1000
0000
,  // measure 37
0010
0000
1000
0000
0100
0000
0000
0000
1000
0000
0000
0010
0000
0000
0100
0000
,  // measure 38
0010
1000
0100
0000
0010
0100
1000
0000
,  // measure 39
0001
0000
1000
0000
0000
0000
0000
0000
0001
0000
0000
0010
0000
0000
0100
0000
,  // measure 40
1000
0000
0000
1000
0000
0000
1000
0000
0001
0000
0000
0000
0000
0000
0100
0000
,  // measure 41
0010
0000
0000
0010
0000
0000
0010
0000
0100
0000
0000
0100
0000
0000
0001
0000
,  // measure 42
2000
0000
0000
0000
0000
0000
0000
0000
3200
0000
0000
0000
0300
0000
0000
0010
,  // measure 43
0000
0000
0001
0000
0000
1000
0000
0000
0010
0000
0000
1000
0000
0000
0001
0000
,  // measure 44
2000
0000
0000
0000
3001
0000
0010
0000
0100
0000
0000
0010
0000
0000
0002
0000
,  // measure 45
0000
0000
0000
0000
0000
0000
0103
0000
0001
0000
0000
0010
0000
0000
0001
0000
,  // measure 46
2000
0000
0000
0000
3100
0000
0010
0000
0001
0000
0000
0010
0000
0000
0001
0000
,  // measure 47
0200
0000
0000
0000
0310
0000
1000
0000
0100
0000
0000
0010
0000
0000
0100
0000
,  // measure 48
1000
0000
0000
1000
0000
0000
1000
0000
0001
0000
0000
0001
0000
0000
0001
0000
,  // measure 49
0100
0000
0000
0100
0000
0000
0100
0000
0010
0000
0000
0010
0000
0000
0010
0000
,  // measure 50
1000
0000
0000
0010
0000
0000
0100
0000
0001
0000
0000
0010
0000
0000
0100
0000
,  // measure 51
0010
0000
0000
0001
0000
0000
1000
0000
0010
0000
0000
0100
0000
0000
0001
0000
;

//---------------dance-single - ----------------
#NOTES:
     dance-single:
     :
     Medium:
     7:
     0.272238,0.381134,0.082457,0.201561,0.041228,208.000000,199.000000,9.000000,22.000000,0.000000,0.000000,0.272238,0.381134,0.082457,0.201561,0.041228,208.000000,199.000000,9.000000,22.000000,0.000000,0.000000:
// measure 0
0000
0000
0000
0000
,  // measure 1
0000
0000
0000
0000
,  // measure 2
0000
0000
0000
0000
,  // measure 3
0000
0000
0000
0000
,  // measure 4
1000
0001
0010
0001
,  // measure 5
0100
0010
0100
0000
0000
0000
0000
0000
,  // measure 6
0010
1000
0100
0010
,  // measure 7
0001
1000
0001
0000
0000
0000
0000
0000
,  // measure 8
1000
0010
1000
0100
,  // measure 9
0010
0001
0010
0000
0000
0100
0010
0001
,  // measure 10
0000
0010
0100
1000
0000
0100
0010
0001
,  // measure 11
1000
0001
0100
0000
0000
0000
0000
0000
,  // measure 12
0020
1000
0100
1000
,  // measure 13
0130
0000
0001
0000
0000
1000
0000
0000
0001
0000
0000
0000
1001
0000
0000
0000
,  // measure 14
0020
0001
0100
0001
,  // measure 15
0130
0000
1000
0000
0000
0010
0000
0000
0100
0000
0000
0000
0101
0000
0000
0000
,  // measure 16
2000
0010
0100
0010
,  // measure 17
3100
0000
0010
0000
0000
0001
0000
0000
0100
0000
0000
0000
0110
0000
0000
0000
,  // measure 18
0002
0010
0100
0010
,  // measure 19
0103
0000
0010
0000
0000
0000
0100
0000
0010
0000
0000
1000
0000
1000
0000
0000
,  // measure 20
0001
0000
0000
1000
0100
0010
0000
0001
,  // measure 21
0000
0100
0000
0010
0000
1000
0000
0000
,  // measure 22
0000
0000
0000
0001
1000
0100
0000
0010
,  // measure 23
0000
0100
0000
1000
0000
0010
0000
0100
,  // measure 24
0000
0000
0000
0010
0100
0001
0000
1000
,  // measure 25
0000
0001
0000
0010
0000
0001
0000
0000
,  // measure 26
0100
0000
0000
0001
1000
0000
0000
0100
,  // measure 27
1000
0000
0000
0000
0000
0000
0100
0000
0010
0000
0000
0001
0000
0000
1000
0000
,  // measure 28
0001
1000
0010
0000
1000
0000
0001
0000
,  // measure 29
0010
0001
0100
0000
0010
0000
1000
0000
,  // measure 30
0100
0010
0001
0000
0010
0000
0001
0000
,  // measure 31
1000
0010
0100
0000
0010
0000
1000
0000
,  // measure 32
0001
1000
0100
0000
1000
0000
0010
0000
,  // measure 33
0100
0000
0001
0000
0010
0100
1000
0000
,  // measure 34
0002
0000
0000
0000
0003
0000
0000
0000
2000
0000
0000
0000
3000
0000
0000
0020
,  // measure 35
0000
0000
0000
0000
0030
0000
0000
0000
0100
0000
0000
0001
0000
0000
1000
0000
,  // measure 36
0001
1000
0010
0000
1000
0000
1001
0000
,  // measure 37
0001
0010
0100
0000
1000
0000
1100
0000
,  // measure 38
0100
1000
0010
0000
0100
0000
0110
0000
,  // measure 39
0010
1000
0001
0000
0010
0000
0011
0000
,  // measure 40
0001
1000
0001
1000
0001
0000
1001
0000
,  // measure 41
0010
0100
0010
0100
0010
0000
0110
0000
,  // measure 42
0002
0103
2000
3010
,  // measure 43
0002
1003
2000
3001
,  // measure 44
0100
0000
0000
0000
0010
0000
1000
0000
0100
0000
0000
0010
0000
0000
0200
0000
,  // measure 45
0000
0000
0000
1300
0100
0010
0001
1000
,  // measure 46
0002
0000
0000
0000
,  // measure 47
2003
0000
0000
0000
,  // measure 48
3020
0000
2030
0000
,  // measure 49
3200
0000
2300
0000
,  // measure 50
3002
0000
0203
0000
,  // measure 51
0320
0000
2030
0000
,  // measure 52
3000
0000
0000
0000
;

//---------------dance-single - ----------------
#NOTES:
     dance-single:
     :
     Easy:
     4:
     0.164914,0.238209,0.045809,0.201561,0.000000,126.000000,121.000000,5.000000,22.000000,0.000000,0.000000,0.164914,0.238209,0.045809,0.201561,0.000000,126.000000,121.000000,5.000000,22.000000,0.000000,0.000000:
// measure 0
0000
0000
0000
0000
,  // measure 1
0000
0000
0000
0000
,  // measure 2
0000
0000
0000
0000
,  // measure 3
0000
0000
0000
0000
,  // measure 4
1000
0010
1000
0100
,  // measure 5
0010
0000
0000
0000
,  // measure 6
0100
0010
0001
1000
,  // measure 7
0010
0000
0000
0000
,  // measure 8
1000
0001
0100
0001
,  // measure 9
0010
0000
0000
0100
,  // measure 10
1000
0100
1000
0100
,  // measure 11
0010
0001
0000
0000
,  // measure 12
2000
0000
0000
0000
,  // measure 13
3001
0000
0100
0000
,  // measure 14
0020
0000
0000
0000
,  // measure 15
0130
0000
0010
0000
,  // measure 16
2000
0000
0000
0000
,  // measure 17
3001
0000
0010
0000
,  // measure 18
0200
0000
0000
0000
,  // measure 19
0310
0000
1001
0000
,  // measure 20
0110
0000
0010
1000
,  // measure 21
0100
1000
0001
0100
,  // measure 22
0000
0000
0010
1000
,  // measure 23
0001
0010
0001
1000
,  // measure 24
0100
1000
0010
0100
,  // measure 25
0001
0010
0100
0010
,  // measure 26
0002
0003
2000
3000
,  // measure 27
0020
0030
0200
0300
,  // measure 28
1001
0001
1000
0010
,  // measure 29
1000
0100
0010
0001
,  // measure 30
2000
3000
0002
0003
,  // measure 31
0200
0000
0310
1000
,  // measure 32
0200
0000
1300
0000
,  // measure 33
0001
0000
0100
0001
,  // measure 34
0020
0000
0032
0000
,  // measure 35
2003
0000
3020
2030
,  // measure 36
3100
0010
0001
0100
,  // measure 37
0010
1000
0001
0001
,  // measure 38
1000
0010
1000
0100
,  // measure 39
1000
0001
0100
0010
,  // measure 40
1000
1000
1100
0000
,  // measure 41
0001
0001
0101
0000
,  // measure 42
0001
0000
1000
0000
,  // measure 43
0010
0000
0100
0010
,  // measure 44
2000
0000
0000
3000
,  // measure 45
0002
0000
0000
0003
,  // measure 46
0200
0000
0000
0300
,  // measure 47
0020
0000
0000
0030
,  // measure 48
1000
0000
0001
0000
,  // measure 49
0100
0000
0010
0000
,  // measure 50
1000
0000
0100
0000
,  // measure 51
0010
0000
0002
0000
,  // measure 52
0003
0000
0000
0000
;

//---------------dance-single - ----------------
#NOTES:
     dance-single:
     :
     Beginner:
     3:
     0.094236,0.166746,0.036647,0.000000,0.000000,72.000000,68.000000,4.000000,0.000000,0.000000,0.000000,0.094236,0.166746,0.036647,0.000000,0.000000,72.000000,68.000000,4.000000,0.000000,0.000000,0.000000:
// measure 0
0000
0000
0000
0000
,  // measure 1
0000
0000
0000
0000
,  // measure 2
0000
0000
0000
0000
,  // measure 3
0000
0000
0000
0000
,  // measure 4
0010
0000
0000
0000
,  // measure 5
1000
0000
0000
0000
,  // measure 6
0100
0000
0000
0000
,  // measure 7
1000
0000
0000
0000
,  // measure 8
0001
0000
0000
0000
,  // measure 9
1000
0000
0000
0010
,  // measure 10
0000
0010
0000
0010
,  // measure 11
0100
0000
0000
0000
,  // measure 12
0001
0000
0000
0000
,  // measure 13
1000
0000
0000
0000
,  // measure 14
0010
0000
0000
0000
,  // measure 15
1000
0000
0000
0000
,  // measure 16
0100
0000
0000
0000
,  // measure 17
1000
0000
0000
0000
,  // measure 18
0001
0000
0000
0000
,  // measure 19
1000
0000
0110
0000
,  // measure 20
0010
0000
1000
0000
,  // measure 21
0001
0000
0000
0000
,  // measure 22
0000
0000
1000
0000
,  // measure 23
0010
0000
0100
0000
,  // measure 24
0010
0000
1000
0000
,  // measure 25
0001
0000
1000
0000
,  // measure 26
0100
0000
0100
0000
,  // measure 27
0010
0000
0010
0000
,  // measure 28
1001
0000
0000
0000
,  // measure 29
0000
0000
1000
0000
,  // measure 30
0001
0000
0001
0000
,  // measure 31
0100
0000
0000
0000
,  // measure 32
0010
0000
0000
0000
,  // measure 33
0000
0000
1000
0000
,  // measure 34
0001
0000
1000
0000
,  // measure 35
0010
0000
0100
0100
,  // measure 36
1001
0000
0001
0000
,  // measure 37
1000
0000
0000
0000
,  // measure 38
0010
0000
1000
0000
,  // measure 39
0100
0000
0000
0000
,  // measure 40
0010
0000
0001
0000
,  // measure 41
0010
0000
0001
0000
,  // measure 42
1000
0000
0100
0000
,  // measure 43
0010
0000
0001
0000
,  // measure 44
1001
0000
0000
0000
,  // measure 45
0010
0000
0000
0000
,  // measure 46
0100
0000
0000
0000
,  // measure 47
0001
0000
0000
0000
,  // measure 48
1000
0000
0000
0000
,  // measure 49
0100
0000
0000
0000
,  // measure 50
1000
0000
0000
0000
,  // measure 51
0001
0000
0000
0000
,  // measure 52
1000
0000
0000
0000
;
