#TITLE:Someone;
#SUBTITLE:(Giuseppe Ottaviani Remix);
#ARTIST:ASCENSION;
#TITLETRANSLIT:;
#SUBTITLETRANSLIT:;
#ARTISTTRANSLIT:;
#GENRE:TRANCE;
#CREDIT:;
#BANNER:;
#BACKGROUND:background.png;
#LYRICSPATH:;
#CDTITLE:;
#MUSIC:Someone (Giuseppe Ottaviani Remix).ogg;
#OFFSET:0.000000;
#SAMPLESTART:55.652176;
#SAMPLELENGTH:20.869568;
#SELECTABLE:YES;
#BPMS:0.000000=138.000000
;
#STOPS:
;
#BGCHANGES:;
#KEYSOUNDS:;
#ATTACKS:;

//---------------dance-single - ----------------
#NOTES:
     dance-single:
     :
     Hard:
     13:
     0.463318,0.641959,0.220743,0.577328,0.500917,382.000000,356.000000,26.000000,68.000000,0.000000,0.000000,0.463318,0.641959,0.220743,0.577328,0.500917,382.000000,356.000000,26.000000,68.000000,0.000000,0.000000:
0000
0000
0000
0000
,
0000
0000
0000
0000
,
0000
0000
0000
0000
,
0000
0000
0000
0000
,
0000
0000
0000
0000
,
0000
0000
0000
0000
,
0000
0000
0000
0000
,
0000
0000
0000
0000
,
1000
0001
0010
0001
,
1000
0100
0010
0100
,
1000
0000
0001
0100
0000
0010
2000
0000
,
0100
0000
0100
0000
0010
0000
3010
0010
,
0100
0001
0100
0001
,
0010
0000
0100
0000
0010
0000
0100
2000
,
0100
0100
0001
3001
,
1000
0001
0010
0100
,
0010
0001
0100
0000
0010
0000
1000
0000
,
0001
1000
0100
0000
0010
0000
0100
0000
,
2000
0000
3100
0020
0000
0031
0200
0000
,
0010
0000
0010
0000
0001
0000
0301
0001
,
1000
0001
0010
0000
0001
0000
0100
0000
,
0010
1000
0100
0000
0010
0000
0100
0020
,
0001
0001
0100
0100
,
0031
0000
0000
0000
0100
0000
0000
0000
0010
0000
0000
0000
1000
0000
0001
1000
,
0002
0000
0000
1003
0000
0000
0000
0000
1020
0000
0000
0130
0000
0000
0000
0000
,
0102
0000
0000
0013
0000
0000
0000
0000
2100
0000
0000
3010
0000
0000
0000
0000
,
0102
0000
0000
0013
0000
0000
0000
0000
2100
0000
0000
3010
0000
0000
0000
0000
,
0102
0000
0000
0013
0000
0000
0000
0000
2100
0000
0000
3010
0000
0000
0000
0000
,
0012
0000
0000
0103
0000
0000
0001
0000
2010
0000
0000
3100
0000
0000
0010
0000
,
0012
0000
0000
0103
0000
0000
0010
0000
2010
0000
0000
3100
0000
0000
0010
0000
,
0012
0000
0000
0103
0000
0000
0010
0000
2010
0000
0000
3100
0000
0000
0010
0000
,
0001
0000
0000
0001
0000
0000
0001
0000
1001
0000
0000
0000
0010
0100
0010
0100
,
0020
0000
0000
1030
0000
0000
0100
0000
0020
0000
0000
0031
0000
0000
1000
0000
,
0002
0000
0000
0103
0000
0000
0001
0000
0020
0000
0000
0130
0000
0010
0100
1000
,
0002
0000
0000
1003
0000
0000
0100
0000
2000
0000
0000
3010
0000
0000
0100
0000
,
0002
0000
0000
0013
0000
0000
0100
0000
0020
0000
0000
0031
0000
0010
0001
1000
,
0200
0000
0000
1300
0000
0000
0010
0000
0200
0000
0000
0301
0000
0000
1000
0000
,
0002
0000
0000
0013
0000
0000
0001
0000
2000
0000
0000
3100
0000
0010
0100
1000
,
0200
0000
0000
1300
0000
0000
0010
0000
0002
0000
0000
0103
0000
0000
0010
0000
,
2000
0000
0000
3100
0000
0000
1000
0000
0002
0000
0000
0103
0000
0010
1000
0100
,
0020
0000
0000
0031
0000
0000
0010
0000
2000
0000
0000
3010
0000
0000
0100
0000
,
2000
0000
0000
3010
0000
0000
0001
0000
0020
0000
0000
0130
0000
0010
1000
0001
,
0020
0000
0000
0130
0000
0000
0010
0000
0002
0000
0000
1003
0000
0000
0100
0000
,
0020
0000
0000
1030
0000
0000
0100
0000
0002
0000
0000
0103
0000
0010
0100
1000
,
0002
0000
0000
0103
0000
0000
1000
0000
0200
0000
0000
0310
0000
0000
1000
0000
,
0200
0000
0000
0301
0000
0000
0100
0000
0020
0000
0000
0031
0000
0010
0001
1000
,
0020
0000
0000
0130
0000
0000
1000
0000
0200
0000
0000
0301
0000
0000
0010
0000
,
0200
0000
0000
0310
0000
0000
0100
0000
0020
0000
0000
0031
0000
1000
0001
0100
,
0001
0000
1000
0001
0000
1000
0001
0000
0100
0000
0010
1000
0000
0010
1000
0000
,
0001
0000
1000
0100
0000
1000
0100
0000
1001
0000
0000
0000
0110
0000
0000
0000
,
1001
0000
0001
0010
0000
0001
0010
0000
0100
0000
1000
0100
0000
1000
0100
0000
,
1000
0000
0001
0100
0000
0001
0100
0000
0010
0000
1000
0100
0000
1000
0100
0010
,
0001
0000
0001
0010
0000
0010
0100
0000
1000
0000
0100
1000
0000
1000
0010
0000
,
0100
0000
0010
1000
0000
1000
0001
0000
1001
0000
0000
0000
0110
0000
0000
0000
,
1001
0000
1000
0010
0000
0010
0100
0000
0010
0000
0100
0001
0000
0001
0010
0000
,
0100
0000
0010
0001
0000
0001
1000
0000
0001
0000
0100
0001
0000
0010
0100
1000
,
0001
0000
0000
0001
0000
0000
0002
0000
1000
0000
0000
1000
0000
0000
2003
0000
,
0010
0000
0000
0010
0000
0000
3020
0000
0100
0000
0000
0100
0000
0000
0130
0001
,
1000
0000
0000
1000
0000
0000
2000
0000
0100
0000
0000
0100
0000
0000
3200
0000
,
0010
0000
0000
0010
0000
0000
0320
0000
0001
0000
0000
0001
0000
0000
0031
0010
,
0200
0000
0000
1300
0000
0000
0000
0000
1020
0000
0000
0130
0000
0000
0000
0000
,
0021
0000
0000
0130
0000
0000
0000
0000
1002
0000
0000
0103
0000
0001
0010
0100
,
2000
0000
0000
3100
0000
0000
0000
0000
2010
0000
0000
3100
0000
0000
0000
0000
,
0012
0000
0000
0103
0000
0000
0000
0000
1020
0000
0000
0130
0000
0010
1000
0100
,
0020
0000
0000
0200
0000
0000
0000
0000
,
0000
0000
0000
0330
;

//---------------dance-single - ----------------
#NOTES:
     dance-single:
     :
     Medium:
     10:
     0.369927,0.489031,0.220743,0.000000,0.326870,305.000000,279.000000,26.000000,0.000000,0.000000,0.000000,0.369927,0.489031,0.220743,0.000000,0.326870,305.000000,279.000000,26.000000,0.000000,0.000000,0.000000:
0000
0000
0000
0000
,
0000
0000
0000
0000
,
0000
0000
0000
0000
,
0000
0000
0000
0000
,
0000
0000
0000
0000
,
0000
0000
0000
0000
,
0000
0000
0000
0000
,
0000
0000
0000
0000
,
1000
0001
0010
0001
,
0100
0001
1000
0100
,
0010
0100
1000
0010
,
0100
0000
0001
0000
1000
0000
0001
0010
,
0100
0010
0001
0010
,
0001
1000
0100
1000
,
0010
0100
0001
1000
,
0010
1000
0001
0010
,
0100
0010
0001
0010
,
0100
1000
0100
1000
,
0010
0100
0001
1000
,
0100
0000
1000
0000
0010
0000
0100
0001
,
0100
0001
0010
0100
,
0010
0001
1000
0010
,
0100
0001
0100
1000
,
0100
0010
1000
0001
,
1001
0000
0000
1000
0000
0000
0000
0000
0010
0000
0000
0010
0000
0000
0000
0000
,
0100
0000
0000
0100
0000
0000
0000
0000
0001
0000
0000
0001
0000
0000
0000
0000
,
0010
0000
0000
0010
0000
0000
0000
0000
0100
0000
0000
0100
0000
0000
0000
0000
,
1000
0000
0000
1000
0000
0000
0000
0000
0001
0000
0000
0001
0000
0000
0000
0000
,
1000
0000
0000
1000
0000
0000
0000
0000
0010
0000
0000
0010
0000
0000
0000
0000
,
0100
0000
0000
0100
0000
0000
0000
0000
0001
0000
0000
0001
0000
0000
0000
0000
,
1000
0000
0000
0001
0000
0000
0000
0000
0100
0000
0000
0010
0000
0000
0000
0000
,
1000
0000
0000
0001
0000
0000
0010
0000
0100
0000
0000
0000
0010
0000
0001
0000
,
1001
0000
0000
1000
0000
0000
0010
0000
1000
0000
0000
0100
0000
0000
1000
0000
,
0010
0000
0000
0100
0000
0000
0001
0000
0010
0000
0000
0100
0000
0000
0010
0000
,
0001
0000
0000
0010
0000
0000
0100
0000
1000
0000
0000
0100
0000
0000
1000
0000
,
0010
0000
0000
0100
0000
0000
0001
0000
1000
0000
0000
0010
0000
0000
1000
0000
,
0100
0000
0000
1000
0000
0000
0001
0000
1000
0000
0000
0010
0000
0000
1000
0000
,
0100
0000
0000
0010
0000
0000
0100
0000
1000
0000
0000
0001
0000
0000
0100
0000
,
0001
0000
0000
0010
0000
0000
0100
0000
0010
0000
0000
0001
0000
0000
0100
0000
,
0010
0000
0000
1000
0000
0000
0001
0000
0010
0000
0000
0001
0000
0000
1000
0000
,
0001
0000
0000
0101
0000
0000
0100
0000
0010
0000
0000
1010
0000
0000
1000
0000
,
0001
0000
0000
0011
0000
0000
0010
0000
0100
0000
0000
1100
0000
0000
0100
0000
,
0010
0000
0000
0011
0000
0000
0001
0000
0100
0000
0000
0110
0000
0000
0010
0000
,
1000
0000
0000
1100
0000
0000
0100
0000
0010
0000
0000
0011
0000
0000
0001
0000
,
1000
0000
0000
1010
0000
0000
1000
0000
0001
0000
0000
0011
0000
0000
0010
0000
,
0100
0000
0000
0110
0000
0000
0010
0000
0001
0000
0000
1100
0000
0000
0100
0000
,
0010
0000
0000
1100
0000
0000
1000
0000
0010
0000
0000
0101
0000
0000
0001
0000
,
1000
0000
0000
1001
0000
0000
0010
0000
0100
0000
0000
0110
0000
0000
0010
0000
,
1001
0000
0000
0001
0000
0000
0100
0000
1000
0000
0000
0100
0000
0000
0001
0000
,
0010
0000
0000
1000
0000
0000
0010
0000
0011
0000
0000
0000
1010
0000
0000
0000
,
0011
0000
0000
0010
0000
0000
0010
0000
0100
0000
0000
0100
0000
0000
0100
0000
,
1000
0000
0000
1000
0000
0000
1000
0000
0001
0000
0000
0001
0000
0000
0001
0000
,
1000
0000
0000
0010
0000
0000
0001
0000
0010
0000
0000
1000
0000
0000
0010
0000
,
0100
0000
0000
1000
0000
0000
0010
0000
1010
0000
0000
0000
0011
0000
0000
0000
,
1001
0000
0000
1000
0000
0000
0001
0000
0010
0000
0000
1000
0000
0000
0010
0000
,
0100
0000
0000
1000
0000
0000
0100
0000
0010
0000
0000
0100
0000
0000
1000
0000
,
0001
0000
0000
0100
0000
0000
0000
0000
0010
0000
0000
1000
0000
0000
0000
0000
,
0100
0000
0000
0010
0000
0000
0000
0000
0100
0000
0000
1000
0000
0000
0001
0000
,
1000
0000
0000
0001
0000
0000
0000
0000
0100
0000
0000
0001
0000
0000
0000
0000
,
0100
0000
0000
0010
0000
0000
0000
0000
1000
0000
0000
0100
0000
0000
0010
0000
,
0100
0000
0000
1000
0000
0000
0000
0000
0001
0000
0000
0100
0000
0000
0000
0000
,
0010
0000
0000
1000
0000
0000
0000
0000
0100
0000
0000
0010
0000
0000
0100
0000
,
1000
0000
0000
0001
0000
0000
0000
0000
1000
0000
0000
0010
0000
0000
0000
0000
,
1000
0000
0000
0001
0000
0000
0000
0000
0100
0000
0000
0010
0000
0000
1000
0000
,
1001
0000
0000
0000
;

//---------------dance-single - ----------------
#NOTES:
     dance-single:
     :
     Easy:
     5:
     0.190421,0.279113,0.203763,0.288664,0.000000,157.000000,133.000000,24.000000,34.000000,0.000000,0.000000,0.190421,0.279113,0.203763,0.288664,0.000000,157.000000,133.000000,24.000000,34.000000,0.000000,0.000000:
0000
0000
0000
0000
,
0000
0000
0000
0000
,
0000
0000
0000
0000
,
0000
0000
0000
0000
,
0000
0000
0000
0000
,
0000
0000
0000
0000
,
0000
0000
0000
0000
,
0000
0000
0000
0000
,
1000
0001
0100
0001
,
0010
0001
1000
0100
,
0010
0000
0000
0100
0000
0000
2000
0000
,
0000
0000
0000
3000
,
0001
1000
0010
1000
,
0100
1000
0010
0100
,
0002
0000
0000
0000
,
0000
0000
0003
0000
,
1000
0001
0010
0001
,
0100
0001
1000
0100
,
0010
0000
0000
0100
0000
0000
0020
0000
,
0000
0000
0000
0030
,
0000
0100
0010
0001
,
1000
0010
0100
0001
,
2000
0000
0000
0000
,
3000
0000
0001
1000
,
0110
0000
0110
0000
,
0110
0000
0110
0000
,
0110
0000
0110
0000
,
0110
0000
0110
0000
,
1001
0000
1001
0000
,
1001
0000
1001
0000
,
1001
0000
1001
0000
,
2002
0000
3003
0000
,
0010
1000
0010
0100
,
0001
0010
0100
0010
,
0002
0000
0000
2003
0000
0000
0020
0000
,
0000
0000
0000
3030
,
0000
1000
0010
1000
,
0001
0010
0100
0020
,
0002
0000
0000
0000
,
0000
0000
0033
0000
,
0100
1000
0010
0100
,
0001
1000
0010
1000
,
0200
0000
0000
2300
0000
0000
0002
0000
,
0000
0000
0000
3003
,
0000
0100
0010
1000
,
0010
0100
0002
2003
,
0200
0000
0000
0000
,
3300
0000
1000
0100
,
0010
0000
0001
0000
,
0100
0000
0110
1010
,
1100
0000
0100
0000
,
1001
0000
0001
0000
,
0101
0000
0001
0000
,
0010
0000
0110
0011
,
1100
0000
0100
0000
,
1001
0000
1000
0000
,
0002
0003
2000
3000
,
0020
0030
0200
0300
,
0002
0003
0020
0030
,
0200
0300
2000
3000
,
0002
0003
2000
3000
,
0020
0030
2000
3000
,
0002
0003
2000
3000
,
0002
0000
0000
1003
0000
0001
0000
0200
,
0000
0000
0000
0020
0000
0000
0000
0000
,
0000
0000
0000
0330
;

//---------------dance-single - ----------------
#NOTES:
     dance-single:
     :
     Beginner:
     3:
     0.107946,0.167468,0.025470,0.084901,0.000000,89.000000,86.000000,3.000000,10.000000,0.000000,0.000000,0.107946,0.167468,0.025470,0.084901,0.000000,89.000000,86.000000,3.000000,10.000000,0.000000,0.000000:
// measure 0
0000
0000
0000
0000
,  // measure 1
0000
0000
0000
0000
,  // measure 2
0000
0000
0000
0000
,  // measure 3
0000
0000
0000
0000
,  // measure 4
0000
0000
0000
0000
,  // measure 5
0000
0000
0000
0000
,  // measure 6
0000
0000
0000
0000
,  // measure 7
0000
0000
0000
0000
,  // measure 8
0010
0000
0000
0000
,  // measure 9
1000
0000
0000
0000
,  // measure 10
0200
0000
0000
0000
,  // measure 11
0000
0000
0000
0300
,  // measure 12
0010
0000
0000
0000
,  // measure 13
0001
0000
0000
0000
,  // measure 14
0200
0000
0000
0000
,  // measure 15
0000
0000
0300
0000
,  // measure 16
0010
0000
0000
0000
,  // measure 17
1000
0000
0000
0000
,  // measure 18
0001
0000
1000
0000
,  // measure 19
0020
0000
0000
0030
,  // measure 20
0100
0000
0000
0000
,  // measure 21
0001
0000
0010
0000
,  // measure 22
0200
0000
0000
0000
,  // measure 23
0300
0000
1000
0000
,  // measure 24
1001
0000
0001
0000
,  // measure 25
0001
0000
0001
0000
,  // measure 26
0001
0000
0001
0000
,  // measure 27
0001
0000
0001
0000
,  // measure 28
1000
0000
1000
0000
,  // measure 29
1000
0000
1000
0000
,  // measure 30
1000
0000
1000
0000
,  // measure 31
2000
0000
0000
3000
,  // measure 32
0010
0000
0100
0000
,  // measure 33
0010
0000
1000
0000
,  // measure 34
0001
0000
0010
0000
,  // measure 35
0001
0000
1000
0000
,  // measure 36
0100
0000
1000
0000
,  // measure 37
0010
0000
0100
0000
,  // measure 38
0001
0000
0010
0000
,  // measure 39
0001
0000
1000
0000
,  // measure 40
0001
0000
0100
0000
,  // measure 41
0001
0000
0010
0000
,  // measure 42
0100
0000
1000
0000
,  // measure 43
0100
0000
1000
0000
,  // measure 44
0010
0000
0100
0000
,  // measure 45
0001
0000
1000
0000
,  // measure 46
0100
0000
1000
0000
,  // measure 47
0010
0000
0000
0000
,  // measure 48
1001
0000
0000
0000
,  // measure 49
0000
0000
0001
1000
,  // measure 50
0010
0000
0000
0000
,  // measure 51
0100
0000
0001
0000
,  // measure 52
0010
0000
0000
0000
,  // measure 53
0000
0000
0100
0010
,  // measure 54
0001
0000
0000
0000
,  // measure 55
1000
0000
0010
0000
,  // measure 56
0200
0000
0000
0000
,  // measure 57
0000
0000
0310
1000
,  // measure 58
0002
0000
0000
0000
,  // measure 59
1000
0000
0000
0003
,  // measure 60
0200
0000
0000
0000
,  // measure 61
0000
0000
0310
1000
,  // measure 62
0100
0000
0000
0000
,  // measure 63
0010
0000
0001
0000
,  // measure 64
2002
0000
0000
0000
,  // measure 65
0000
0000
0000
3003
;
