#TITLE:Ruti'n;
#SUBTITLE:~GOTH Wild Electro Remix~;
#ARTIST:Bexter;
#TITLETRANSLIT:;
#SUBTITLETRANSLIT:;
#ARTISTTRANSLIT:;
#GENRE:ELECTROSTEP;
#CREDIT:;
#BANNER:banner.png;
#BACKGROUND:background.png;
#LYRICSPATH:;
#CDTITLE:CDTITLE.png;
#MUSIC:Ruti'n ~GOTH Wild Electro Remix~.ogg;
#OFFSET:-0.013000;
#SAMPLESTART:8.286572;
#SAMPLELENGTH:15.267857;
#SELECTABLE:YES;
#BPMS:0.000000=112.000000
;
#STOPS:
;
#BGCHANGES:0.000=bga.avi=1.000=1=0=0=StretchNoLoop==CrossFade==,
99999=-nosongbg-=1.000=0=0=0 // don't automatically add -songbackground-
;
#KEYSOUNDS:;
#ATTACKS:;

//---------------dance-single - ----------------
#NOTES:
     dance-single:
     :
     Hard:
     14:
     0.656601,0.687321,0.510690,0.528001,0.761707,531.000000,472.000000,59.000000,61.000000,0.000000,0.000000,0.656601,0.687321,0.510690,0.528001,0.761707,531.000000,472.000000,59.000000,61.000000,0.000000,0.000000:
// measure 0
0000
0000
0000
0000
,  // measure 1
0000
0000
0000
0000
,  // measure 2
0000
0000
0000
0000
,  // measure 3
0000
0000
0000
0000
0000
0000
0000
0010
,  // measure 4
1001
0000
0001
0000
0010
0000
0100
0010
0000
0001
0000
0100
0010
1000
0010
1000
,  // measure 5
0001
0000
0010
0000
1000
0000
0010
0100
0000
0010
0000
0001
0100
0010
0100
0010
,  // measure 6
0100
0000
1000
0000
0100
0000
0001
0100
0000
0001
0000
1000
0001
0010
0001
0010
,  // measure 7
0001
0000
1000
0000
0010
0000
0100
0110
0000
1001
0000
0001
1001
0000
1100
0000
,  // measure 8
0001
0000
0100
0000
0001
0000
0010
0100
0000
0010
0000
0001
1000
0010
1000
0010
,  // measure 9
0100
0000
0001
0000
0010
0000
0100
0010
0000
0100
0000
1000
0001
0100
0001
0100
,  // measure 10
0010
0000
1000
0000
0001
0000
1000
0100
0000
0010
0000
0100
1000
0010
1000
0010
,  // measure 11
0200
0000
1000
0000
0310
0000
0100
0002
0000
0013
0000
0100
2000
0000
0010
0000
,  // measure 12
3002
0000
0000
0000
0203
0000
0320
0000
0030
1000
0001
1000
0000
0001
1000
0001
,  // measure 13
0200
0000
0310
1000
0010
0000
1000
0010
0100
0001
0000
0010
0100
0000
1000
0000
,  // measure 14
0012
0000
0000
0000
0000
0103
1000
0010
0000
0100
0001
0010
0000
0100
0010
0001
,  // measure 15
2000
0000
3010
0100
0010
0000
0100
0010
1000
0000
0000
0100
0010
0000
1100
0000
,  // measure 16
0102
0000
0000
0000
0003
1000
0001
0100
0000
0100
0001
1000
0000
0001
0100
0010
,  // measure 17
2000
0000
0000
0000
3001
0000
0010
0000
0000
0000
0001
1000
0001
0000
1000
0000
0000
0000
0001
0000
0100
0000
0000
0000
0010
0000
0000
0000
1001
0000
0000
0000
,  // measure 18
0120
0000
0000
0000
0000
1030
0100
0010
0000
0010
0100
1000
0000
1000
0100
0010
,  // measure 19
0002
0000
0103
0010
2000
0000
3100
0010
0001
0001
1000
1000
0001
0000
0110
0000
,  // measure 20
1020
0000
0230
0000
0302
0000
0023
0000
0000
0130
0010
0001
0000
0010
0100
1000
,  // measure 21
0001
0000
0100
0001
1000
0100
0010
0100
0000
0020
0000
0000
0031
0000
0101
0000
,  // measure 22
2100
0000
0000
0000
3000
0010
0100
0001
0000
0010
0100
1000
0000
0100
0010
0001
,  // measure 23
0200
0000
0310
1000
0010
0000
0100
0001
0100
0000
0001
0010
0001
0000
1100
0000
,  // measure 24
1002
0000
0000
0000
0000
0013
0001
0100
0000
0010
1000
0001
0000
1000
0100
0010
,  // measure 25
0100
0000
0000
0000
1000
0000
0001
0000
0000
0000
0100
0010
0100
0000
0010
0000
1000
0000
0010
0000
0100
0000
0000
0000
0001
0000
0010
0000
0100
0000
0000
0000
,  // measure 26
1200
0000
0310
0000
0000
0100
1000
0010
0000
0100
0010
1000
0000
0001
0010
0100
,  // measure 27
0010
0000
0001
0100
1000
0000
1000
0100
0001
0001
0001
1000
1100
0000
0101
0000
,  // measure 28
1001
0000
1000
0010
0000
0100
0001
0000
0010
0000
0100
0010
0000
0001
0100
0001
,  // measure 29
0000
0000
0100
0000
0010
0000
1000
0001
0010
0000
0100
0010
0000
0100
1000
0100
,  // measure 30
0000
1000
0001
0010
0110
0110
0010
0002
,  // measure 31
0003
1000
0001
0010
0011
0011
1000
0100
,  // measure 32
1001
0000
0001
0100
0000
0010
1000
0000
0001
0000
0010
0100
0000
0010
0001
0000
,  // measure 33
0000
0000
1000
0000
0001
0000
0100
0010
1000
0000
0001
0010
0000
0001
0100
0000
,  // measure 34
0000
0010
1000
0001
0010
0100
1000
0010
,  // measure 35
0200
0000
0302
0000
0023
0000
0230
0300
,  // measure 36
0011
0000
1100
0000
0002
0000
2003
0000
3100
0010
0100
0010
0000
0100
0010
0100
,  // measure 37
1100
0000
0101
0000
2001
0000
3002
0000
0013
0100
1000
0010
0001
0000
0010
0000
,  // measure 38
0110
0000
1010
0000
2000
0000
3020
0000
0130
0001
0100
0001
0011
0000
1100
0000
,  // measure 39
1002
0013
2001
3010
1002
0103
2001
3100
,  // measure 40
0011
0000
0000
0000
0101
0000
0000
0000
0200
0000
0000
0000
0320
0000
0000
0000
1030
0000
0001
0000
1000
0000
0001
0000
0000
0000
1000
0001
1000
0000
0001
0000
,  // measure 41
0101
0000
0000
0000
1010
0000
0000
0000
2000
0000
0000
0000
3020
0000
0000
0000
0130
0000
0001
0000
0010
0000
0100
0000
0000
0000
0010
0100
0010
0000
0100
0000
,  // measure 42
0110
0000
0000
0000
1100
0000
0000
0000
0020
0000
0000
0000
0230
0000
0000
0000
0301
0000
0010
0000
0001
0000
0010
0000
0000
0000
0001
0010
0001
0000
1000
0000
,  // measure 43
1200
0000
0301
0000
0201
0000
1300
0000
1000
1000
0010
0001
0021
0000
1030
0000
,  // measure 44
1002
0000
0000
0000
0203
0000
0000
0310
0000
1000
0000
0100
0001
0000
0100
0000
,  // measure 45
2100
0000
0000
0000
3020
0000
0000
0130
0000
0001
0000
0010
0100
0010
0001
1000
,  // measure 46
0000
1001
0101
0001
1000
0100
0110
0000
,  // measure 47
1100
1000
0010
0001
0010
0100
0101
0000
,  // measure 48
1002
0000
0000
0000
0023
0000
0000
0130
0000
0010
0000
0100
1000
0000
0010
0000
,  // measure 49
0201
0000
0000
0000
0320
0000
0000
1030
0000
0001
0000
0010
0001
0000
1000
0000
,  // measure 50
1100
0110
0001
1000
0010
1000
1100
0100
,  // measure 51
0010
0000
0001
0100
0000
0010
0000
0100
0001
0000
1000
0000
0200
0000
0000
0000
,  // measure 52
2300
0000
0000
3000
2000
0000
0000
3020
0030
0020
0030
0020
0030
0100
0010
0010
;

//---------------dance-single - ----------------
#NOTES:
     dance-single:
     :
     Medium:
     12:
     0.531711,0.572768,0.242361,0.484723,0.588592,430.000000,402.000000,28.000000,56.000000,0.000000,0.000000,0.531711,0.572768,0.242361,0.484723,0.588592,430.000000,402.000000,28.000000,56.000000,0.000000,0.000000:
0000
0000
0000
0000
,
0000
0000
0000
0000
,
0000
0000
0000
0000
,
0000
0000
0000
0000
0000
0000
0000
0010
,
1001
0000
0001
0000
1000
0000
0010
1000
0000
0010
0000
0100
0001
0000
0010
0000
,
0100
0000
0010
0000
0001
0000
1000
0010
0000
1000
0000
0100
0010
0000
0100
0000
,
1000
0000
0001
0000
0010
0000
0100
0010
0000
0001
0000
0100
0010
0000
1000
0000
,
0001
0000
0100
0000
1000
0000
0100
0001
0000
0010
0000
1000
0010
0000
0001
0000
,
1001
0000
1000
0000
0001
0000
0010
0001
0000
1000
0000
0010
0100
0000
0001
0000
,
0010
0000
0001
0000
1000
0000
0010
0100
0000
0001
0000
0010
0001
0000
1000
0000
,
0010
0000
0100
0000
0001
0000
0010
0100
0000
1000
0000
0100
0010
0000
0100
0000
,
1000
0000
0010
0000
0001
0000
0010
1000
0000
0100
0000
0001
0100
0000
0010
0000
,
2001
0000
0000
0000
3010
0000
1000
0000
0000
0001
0100
0001
0000
0001
0100
0001
,
0010
0000
0100
0000
1000
0000
0100
0000
0001
0200
0000
0000
0310
0000
0001
0000
,
1001
0000
0000
0000
0000
0100
0010
0100
0000
0100
0010
0100
0000
0100
0010
0100
,
0002
0000
0013
0000
0020
0000
0130
0000
1000
0010
0000
0001
0010
0000
0100
0000
,
0201
0000
0000
0000
0000
0310
1000
0010
0000
0010
1000
0010
0000
0010
1000
0010
,
0200
0301
0020
0130
1000
0001
0100
0001
,
0012
0000
0000
0000
0000
1003
0100
1000
0000
1000
0100
1000
0000
1000
0100
1000
,
0010
0000
0110
0000
0100
0000
0110
0000
0010
1000
0000
0001
0100
0000
0110
0000
,
2000
0000
0000
0000
3200
0000
2300
0000
3000
0010
0100
0001
0000
0001
0100
0010
,
2000
0000
3100
0000
0002
0000
0103
0000
0010
2000
0000
0000
3001
0000
1000
0000
,
0120
0000
0000
0000
0030
1000
0001
0010
0000
0010
0001
1000
0000
1000
0001
0010
,
0200
0000
0310
0000
0002
0000
0103
0000
0010
1000
0000
0001
0010
0000
0100
0000
,
1200
0000
0000
0000
0000
0310
0001
0100
0000
0100
0001
0010
0000
0010
0001
0100
,
0020
0000
2030
0000
3100
0010
0001
0000
0010
0100
1000
0000
0100
0010
0001
0000
,
1002
0000
0000
0000
0000
0103
0010
1000
0000
1000
0010
0100
0000
0100
0010
1000
,
0100
0000
0110
0000
0010
0000
0110
0000
0001
0010
0000
0100
1000
0000
0110
0000
,
1001
0000
0000
0001
0000
0000
0001
0000
1000
0000
0000
1000
0000
0000
1000
0000
,
0000
0000
0010
0000
0100
0000
0001
0000
0010
0000
0100
0010
0000
0000
0000
0000
,
0000
0000
0100
0000
1000
0000
0010
1000
0000
0001
0000
0010
0001
0000
1000
0000
,
0000
0000
0001
0000
0010
0000
0100
0010
0000
0001
0000
1000
0010
0000
0100
0000
,
0001
0000
0000
0001
0000
0000
0001
0000
0100
0000
0000
0100
0000
0000
0100
0000
,
0000
0000
0010
0000
1000
0000
0001
0000
0010
0000
0100
1000
0000
0000
0000
0000
,
0000
0010
0100
0001
1000
0100
0001
0100
,
0020
0032
0203
0320
,
2030
0000
3002
0000
2003
0000
3200
0000
0310
0001
0010
0001
0000
0100
0001
1000
,
0002
0000
2003
0000
3020
0000
0000
0000
0000
0130
0001
0100
0000
0001
0100
0001
,
2000
0000
3200
0000
0320
0000
0032
0000
1003
0001
1000
0001
1000
0000
0001
0000
,
1100
0000
0001
0000
1010
0000
0001
0000
1000
0010
0000
0100
0001
0000
0010
0000
,
0200
0000
2300
0000
3020
0000
0230
0000
0301
0010
0001
0010
0000
0100
1000
0010
,
0200
0000
0302
0000
0023
0000
0032
0000
1003
0001
1000
0001
0000
0100
0010
1000
,
0200
0000
2300
0000
3002
0000
0203
0000
0000
0310
1000
0001
0000
0001
1000
0010
,
1000
0000
0011
0000
1000
0000
0101
0000
0001
1000
0000
0010
0100
0000
0001
0000
,
2001
0000
0000
0000
0010
0000
0000
3001
0000
0100
0000
0010
0000
0000
0000
0000
,
1002
0000
0000
0000
0013
0000
0000
0001
0000
0010
0000
0100
0000
0000
0000
0000
,
2100
3010
0102
0013
,
0001
0100
0010
0000
1000
0001
0010
0000
,
1002
0000
0000
0000
0010
0000
0000
1003
0000
0001
0000
0010
0000
0000
0000
0000
,
2001
0000
0000
0000
0010
0000
0000
3001
0000
0100
0000
0010
0000
0000
0000
0000
,
0120
1030
0210
0301
,
0001
0100
0010
1000
0100
0010
0001
0000
,
1000
0000
0000
0000
0001
0000
0000
0100
0000
0100
0000
0100
0000
0100
0010
1000
;

//---------------dance-single - ----------------
#NOTES:
     dance-single:
     :
     Easy:
     7:
     0.327682,0.344066,0.302952,0.259673,0.000000,265.000000,230.000000,35.000000,30.000000,0.000000,0.000000,0.327682,0.344066,0.302952,0.259673,0.000000,265.000000,230.000000,35.000000,30.000000,0.000000,0.000000:
0000
0000
0000
0000
,
0000
0000
0000
0000
,
0000
0000
0000
0000
,
0000
0000
0000
0000
,
1000
0000
0100
0000
0010
0000
0001
0100
,
0001
0000
0100
0000
0010
0000
1000
0001
,
1000
0000
0001
0000
0010
0000
0100
1000
,
0100
0101
0100
1100
,
1000
0000
0010
0000
0100
0000
0001
0100
,
0001
0000
0010
0000
0001
0000
1000
0010
,
1000
0000
0010
0000
0100
0000
0001
0100
,
0002
0000
0000
0000
,
2003
0000
3020
0000
0130
0010
0100
0000
,
0020
0000
2030
0000
3100
1000
0100
0000
,
2000
0000
3020
0000
0130
0001
0010
0000
,
0100
1001
0010
1001
,
0002
0000
0103
0000
0010
1000
0001
0000
,
0020
0000
0130
0000
1000
0100
0010
0000
,
0200
0000
1300
0000
0010
0100
0001
0000
,
1010
0101
1001
1100
,
1002
0000
2003
0000
3100
1000
0010
0000
,
0100
0000
0110
0000
0010
0100
0001
0000
,
0002
0000
0023
0000
0130
0010
0001
0000
,
0011
1100
0011
1001
,
0002
0000
0203
0000
0310
1000
0100
0000
,
0020
0130
2000
3010
,
0102
0000
0023
0000
0130
0010
0001
0000
,
0011
1100
0011
1100
,
0002
0103
2000
3100
,
1000
0000
0001
0000
0100
0010
0100
0000
,
0002
0013
2000
3010
,
0002
1003
2000
3001
,
0102
0013
2100
3010
,
0100
0000
0010
0000
1000
0001
1000
0000
,
0001
0010
0100
1000
,
0100
1000
0010
0100
,
0010
1000
0010
0100
0010
0000
1000
0000
,
0001
0010
0100
0010
0001
0000
1000
0000
,
0001
0100
0010
1000
0100
0000
0010
0000
,
0011
1100
0011
1100
,
0001
0100
0001
1000
0100
0000
0010
0000
,
0001
0010
0100
1000
0100
0000
1000
0000
,
0010
0100
0001
1000
0100
0000
1000
0000
,
0110
1001
0110
1001
,
0001
0000
1010
0000
0001
1000
0100
0000
,
1000
0000
0011
0000
0010
0100
1000
0000
,
0100
1000
0010
0001
,
0010
1000
0100
0010
,
0011
0000
1100
0000
0001
1000
0010
0000
,
1000
0000
0101
0000
0001
0010
0100
0000
,
0010
0001
0100
0000
0010
1000
0100
0000
,
0010
0001
0010
0100
1000
0010
0100
0000
,
2002
0000
0000
0000
,
3003
0000
0000
0000
;

//---------------dance-single - ----------------
#NOTES:
     dance-single:
     :
     Beginner:
     3:
     0.122417,0.181771,0.069246,0.000000,0.000000,99.000000,91.000000,8.000000,0.000000,0.000000,0.000000,0.122417,0.181771,0.069246,0.000000,0.000000,99.000000,91.000000,8.000000,0.000000,0.000000,0.000000:
0000
0000
0000
0000
,
0000
0000
0000
0000
,
0000
0000
0000
0000
,
0000
0000
0000
0000
,
1000
0000
0000
0000
,
0001
0000
0000
0000
,
1000
0000
0000
0000
,
0010
0000
0100
0000
,
0010
0000
0000
0000
,
1000
0000
0000
0000
,
0100
0000
0000
0000
,
1000
0000
0000
0000
,
1001
0000
0001
0000
,
0001
0000
1000
0000
,
1000
0000
0010
0000
,
0100
0000
0100
0000
,
0110
0000
0010
0000
,
1000
0000
0001
0000
,
1000
0000
0001
0000
,
0100
0100
0100
0100
,
0110
0000
0010
0000
,
1000
0000
0100
0100
,
1000
0000
0001
0000
,
1000
0000
0010
0010
,
0100
0000
0010
0000
,
1000
0000
0001
0001
,
1000
0000
0001
0000
,
0100
0100
0010
0010
,
1001
0000
1000
0000
,
0010
0000
0000
0000
,
0100
0000
0000
0000
,
0010
0000
0000
0000
,
1000
0000
0000
0000
,
0001
0000
0000
0000
,
0010
0000
0000
0000
,
0100
0000
0000
0000
,
1001
0000
1000
0000
,
0010
0000
1000
0000
,
0001
0000
0100
0000
,
0010
0010
0010
0010
,
0110
0000
0010
0000
,
1000
0000
0100
0000
,
1000
0000
0001
0000
,
0100
0100
0100
0100
,
0110
0000
0010
0000
,
0100
0000
0010
0000
,
1000
0000
0000
0000
,
0001
0000
0000
0000
,
0100
0000
0010
0000
,
1000
0000
0001
0000
,
0010
0000
0000
0000
,
0100
0000
0000
0000
,
1001
0000
0010
0000
;
