#TITLE:Princess♂;
#SUBTITLE:;
#ARTIST:tophamhat-kyo;
#TITLETRANSLIT:;
#SUBTITLETRANSLIT:;
#ARTISTTRANSLIT:;
#GENRE:ELECTRO SWING TRAP;
#CREDIT:;
#BANNER:banner.png;
#BACKGROUND:background.png;
#LYRICSPATH:;
#CDTITLE:CDTITLE.png;
#MUSIC:Princess.ogg;
#OFFSET:-1.280000;
#SAMPLESTART:12.915675;
#SAMPLELENGTH:15.567567;
#SELECTABLE:YES;
#BPMS:0.000000=185.000000
;
#STOPS:34.000000=0.324000,
261.000000=0.324000
;
#BGCHANGES:4.000=princess.avi=1.000=1=0=1===CrossFade==,
99999=-nosongbg-=1.000=0=0=0 // don't automatically add -songbackground-
;
#KEYSOUNDS:;
#ATTACKS:;

//---------------dance-single - ----------------
#NOTES:
     dance-single:
     :
     Hard:
     14:
     0.593243,0.783634,0.258501,0.291856,0.804690,498.000000,467.000000,31.000000,35.000000,0.000000,0.000000,0.593243,0.783634,0.258501,0.291856,0.804690,498.000000,467.000000,31.000000,35.000000,0.000000,0.000000:
// measure 0
0000
0000
0000
0000
,  // measure 1
0000
0000
0000
0000
,  // measure 2
0000
0000
0000
0000
,  // measure 3
0000
0000
0000
0000
,  // measure 4
0000
0000
0000
0000
,  // measure 5
2020
0000
0000
3030
,  // measure 6
0100
0000
0001
0000
0000
0010
0000
0000
0000
0000
0000
0000
,  // measure 7
0100
0010
0001
1000
,  // measure 8
0010
0000
1000
0000
0000
0000
0000
0000
0000
0001
0000
0000
,  // measure 9
0000
0000
1000
0000
0000
0010
0100
0000
0000
0010
0000
0000
,  // measure 10
0000
0000
0100
0000
0000
0001
1000
0000
0000
0010
0000
0000
,  // measure 11
0000
0000
1000
0000
0000
0100
0010
0000
0000
0001
0000
0000
,  // measure 12
0100
0000
0000
1000
0000
0100
0010
0000
1000
0001
0000
0000
,  // measure 13
0000
0000
0100
0000
0000
0001
0010
0000
0000
0100
0000
0000
,  // measure 14
0000
0000
0010
0000
0000
0100
1000
0000
0000
0010
0000
0000
,  // measure 15
0000
0000
0100
0000
0000
0010
1000
0000
0000
0001
0000
1000
,  // measure 16
0001
0000
0001
0100
0000
0100
0010
0000
0010
0100
0000
0000
,  // measure 17
0001
0000
0000
0010
0000
0100
1000
0000
1000
0001
0000
0000
,  // measure 18
1000
0000
0000
0010
0000
0100
0010
0000
0010
1000
0000
0000
,  // measure 19
0001
0000
0000
1000
0000
0100
0010
0000
0000
0100
0000
0100
,  // measure 20
0010
0000
0010
0001
0000
0001
1000
0000
1000
0010
0000
0100
,  // measure 21
0001
0000
0001
0010
0100
0010
0001
1000
0001
0100
0000
0000
,  // measure 22
0010
0000
0100
0000
0000
0001
0010
0000
0000
0200
0000
0300
,  // measure 23
0010
0000
0010
0001
0000
0001
0100
0000
0010
0100
0010
1000
,  // measure 24
0001
0000
0000
1000
0000
0100
0010
0000
0000
1001
0000
0000
,  // measure 25
0001
0000
0001
0100
0000
0100
1000
0000
1000
0100
0000
0100
,  // measure 26
0010
0000
0010
1000
0000
1000
0001
0000
0001
0010
0000
0000
,  // measure 27
0110
0000
0000
0010
0000
0000
1001
0000
0000
0100
0000
0100
,  // measure 28
0010
0000
0010
0100
0000
0100
0010
0000
0010
0100
0000
0000
,  // measure 29
0001
0000
1000
0010
0000
0000
0000
0000
0100
0001
0000
0000
,  // measure 30
0010
0000
0010
0001
0000
0000
0010
0000
0100
1000
0000
0000
,  // measure 31
0010
0000
0000
0100
0001
0010
0100
0000
0100
1000
0000
0000
,  // measure 32
0100
0000
0010
0001
0000
0100
0010
0000
0000
1000
0100
0010
,  // measure 33
0001
1000
0100
0010
0001
0010
0100
1000
0001
1001
0000
0000
,  // measure 34
1000
0000
0010
0200
0000
0000
1300
0000
0100
0002
0000
0000
,  // measure 35
0010
0000
0000
0103
0000
0000
0010
0000
1000
0200
0000
0000
,  // measure 36
0310
0000
0100
2000
0000
0000
3010
0000
0100
0002
0000
0000
,  // measure 37
1000
0000
0000
0100
0000
0000
1003
0000
0000
0001
0000
0001
,  // measure 38
0100
0000
0100
1000
0000
1000
0100
0000
0100
0001
0000
0000
,  // measure 39
2000
0000
0000
3020
0000
0000
0230
0000
0000
0310
0000
1000
,  // measure 40
0010
0000
0010
0001
0000
0001
0010
0000
0010
1000
0000
0000
,  // measure 41
0200
0020
0330
1001
,  // measure 42
0001
0000
0010
0001
0000
1000
0000
0000
0100
1000
0000
0100
,  // measure 43
0010
0000
0100
1000
0000
0010
0100
0000
0001
2000
0000
0000
,  // measure 44
0000
0000
0000
0000
,  // measure 45
3001
0200
0301
0010
,  // measure 46
0100
0000
0010
0001
0000
0100
0000
0000
0010
1000
0000
0001
,  // measure 47
0010
0000
0001
0100
0000
0010
0100
0000
0000
0020
0000
0000
,  // measure 48
0000
0000
0000
0000
0000
0000
0130
0000
0001
0000
0000
1100
,  // measure 49
0000
0000
1000
1001
0000
0000
1010
0000
0000
0202
0000
0000
,  // measure 50
0000
0000
0000
0000
,  // measure 51
0000
0000
0000
0303
0000
0000
0000
0000
0000
0001
0000
1000
,  // measure 52
0000
0000
0100
0000
0000
0010
0100
0000
0100
0000
0000
0010
,  // measure 53
0100
0000
0000
0000
0000
0000
0000
0000
0100
0000
0000
0000
1000
0000
0000
0000
0000
0000
0000
0000
0000
0001
0000
0000
0000
0000
0000
0000
0000
0000
0000
0000
0200
0000
0000
0000
0000
0000
0000
0000
0000
0000
0000
0000
0000
0000
0000
0000
,  // measure 54
0000
0000
0000
0000
0000
0000
0300
0000
0000
0020
0000
0030
,  // measure 55
0000
0000
0000
0000
0000
1000
0001
0000
0000
1000
0000
1000
,  // measure 56
0010
0000
0010
0100
0000
0100
0001
0000
0001
0010
0000
0010
,  // measure 57
0100
0000
0100
1000
0000
1000
0010
0000
0000
0101
0000
0000
,  // measure 58
0011
0000
0001
0010
0000
0100
1000
0100
1000
0010
0000
0100
,  // measure 59
0001
0000
0010
0100
0000
0010
0000
0000
0100
1000
0000
0100
,  // measure 60
0010
0000
0100
1000
0000
0100
0010
0100
1000
0001
0000
0101
,  // measure 61
0000
0000
0010
1000
0000
1001
0000
0000
0000
1000
0000
1000
,  // measure 62
0000
0000
0001
1000
0000
0001
0010
0000
0001
1000
0000
1000
,  // measure 63
0100
0000
0100
1000
0000
0010
0100
0000
0001
2000
0000
0000
,  // measure 64
0100
0000
0000
0100
0000
0000
0001
0000
0000
3001
0000
0100
,  // measure 65
0000
0000
1001
0000
0000
0000
0210
0000
0000
0301
0000
0000
,  // measure 66
0021
0000
0000
0130
0000
0000
1100
0000
0010
0001
0000
0001
,  // measure 67
0100
0010
2100
3010
,  // measure 68
0102
0000
0000
0013
0000
0000
0110
0000
0010
0001
0000
1000
,  // measure 69
0020
1030
1200
0310
,  // measure 70
0021
0000
0000
0130
0000
0000
1002
0000
0103
0001
0000
1000
,  // measure 71
0000
1100
1002
0013
,  // measure 72
2001
3010
0100
0100
,  // measure 73
0100
0000
0000
0100
0000
0000
0010
0000
1000
0010
0000
0100
,  // measure 74
0000
0000
0010
1000
0000
1000
0100
0000
0100
0010
0000
0100
,  // measure 75
0000
0000
0000
0010
0001
0100
0001
0000
1000
0001
0010
0100
,  // measure 76
0010
0000
0100
0010
0001
0100
0010
1000
0001
1000
0100
0010
,  // measure 77
0200
0000
0000
1300
0000
0000
1000
0000
0000
0001
0000
0100
,  // measure 78
0000
0000
0010
0000
1000
0000
0100
0000
0010
0000
0100
0000
,  // measure 79
1000
0000
0001
0000
0200
0000
0000
0000
0000
0310
0000
0000
,  // measure 80
1000
0100
0001
0100
,  // measure 81
0010
0000
0000
0001
0000
0000
1001
0000
0000
0001
0000
1000
,  // measure 82
0010
0000
0100
0001
0000
0010
0100
0000
0010
0001
0000
1000
,  // measure 83
0010
0000
0000
1001
0000
0000
0110
0000
0000
1000
0000
0100
,  // measure 84
1000
0000
0010
0100
0000
0001
0010
0000
0100
1000
0000
0100
,  // measure 85
0020
0000
0000
0130
0000
0000
1001
0000
0000
0100
0000
0010
,  // measure 86
1000
0000
0001
0100
0000
0001
0010
0000
0100
1000
0000
0100
,  // measure 87
1000
0000
0000
0010
0000
0000
0100
0000
0000
0010
0000
0100
,  // measure 88
0001
0000
0010
0100
0000
0000
0010
0000
0001
0100
0000
0010
,  // measure 89
2000
0000
3100
0000
;

//---------------dance-single - ----------------
#NOTES:
     dance-single:
     :
     Easy:
     7:
     0.315681,0.597055,0.225146,0.091726,0.000000,265.000000,238.000000,27.000000,11.000000,0.000000,0.000000,0.315681,0.597055,0.225146,0.091726,0.000000,265.000000,238.000000,27.000000,11.000000,0.000000,0.000000:
// measure 0
0000
0000
0000
0000
,  // measure 1
0000
0000
0000
0000
,  // measure 2
0000
0000
0000
0000
,  // measure 3
0000
0000
0000
0000
,  // measure 4
0000
0000
0000
0000
,  // measure 5
0000
0000
0000
0000
,  // measure 6
0000
0000
0000
0000
,  // measure 7
0000
0000
0000
0000
,  // measure 8
0000
0000
0000
1000
,  // measure 9
0000
0001
0010
0001
,  // measure 10
0000
1000
0100
1000
,  // measure 11
0000
0010
1000
0010
,  // measure 12
0010
0100
0100
0001
,  // measure 13
0000
1000
0001
1000
,  // measure 14
0000
0010
0100
0010
,  // measure 15
0000
0100
0001
0100
,  // measure 16
0001
0010
0100
0010
,  // measure 17
0000
0100
1000
0010
,  // measure 18
0000
0100
0001
0010
,  // measure 19
0000
0100
1000
0010
,  // measure 20
0100
0010
1000
0001
,  // measure 21
0001
1000
0001
1000
,  // measure 22
0000
0001
0010
0100
,  // measure 23
0010
0001
0000
0001
,  // measure 24
0100
0010
1000
1001
,  // measure 25
0001
0010
0001
1000
,  // measure 26
0100
1000
0010
0100
,  // measure 27
0010
1000
0001
0010
,  // measure 28
0010
0010
0100
0010
,  // measure 29
0000
0001
0000
1000
,  // measure 30
0000
0010
0000
0100
,  // measure 31
0000
0010
0000
1000
,  // measure 32
0001
0100
0000
0220
,  // measure 33
0000
0000
0330
1001
,  // measure 34
0001
1000
0010
0101
,  // measure 35
0101
0101
0001
0010
,  // measure 36
0001
1000
0100
0110
,  // measure 37
0110
0110
0000
1001
,  // measure 38
1001
1001
1001
1001
,  // measure 39
0000
0000
0000
1001
,  // measure 40
1001
1001
1001
1001
,  // measure 41
0000
0000
0000
0010
,  // measure 42
1000
0100
1000
0001
,  // measure 43
0100
0010
1000
0200
,  // measure 44
0000
0000
0000
0300
,  // measure 45
0010
0200
1300
0010
,  // measure 46
0001
0100
0001
1000
,  // measure 47
0100
0010
0100
2000
,  // measure 48
0000
0000
0000
3001
,  // measure 49
0000
0000
0000
0001
,  // measure 50
0000
1000
0000
0010
,  // measure 51
0000
1000
0000
0100
,  // measure 52
0000
1000
0000
0010
,  // measure 53
0000
0100
0000
0001
,  // measure 54
0000
0010
0000
0001
,  // measure 55
0000
1000
0000
0010
,  // measure 56
0000
1000
0000
0100
,  // measure 57
0000
1000
0000
0001
,  // measure 58
0000
1000
0000
0010
,  // measure 59
1000
0010
0000
0100
,  // measure 60
0000
0001
0000
0010
,  // measure 61
0001
0100
0000
0010
,  // measure 62
0000
0100
0000
0010
,  // measure 63
1000
0100
0000
0020
,  // measure 64
0000
0000
0000
0000
,  // measure 65
0000
0030
0100
0100
,  // measure 66
0010
0010
0001
1000
,  // measure 67
0010
0000
1000
1000
,  // measure 68
0001
0001
1000
0001
,  // measure 69
0200
0300
0001
0010
,  // measure 70
0100
0010
0001
1000
,  // measure 71
0000
0000
0100
1000
,  // measure 72
0010
0100
0001
1000
,  // measure 73
0001
0000
0001
0100
,  // measure 74
0110
0000
0010
1000
,  // measure 75
1100
0000
0100
1000
,  // measure 76
0010
0100
0001
0010
,  // measure 77
0200
0310
0100
0010
,  // measure 78
0001
1000
0010
1000
,  // measure 79
0001
0100
2002
0000
,  // measure 80
0000
0000
0000
0000
,  // measure 81
3003
0000
1001
0001
,  // measure 82
0100
0001
0010
0100
,  // measure 83
1100
1100
0000
0100
,  // measure 84
1000
0010
0100
0001
,  // measure 85
0011
0011
0000
0001
,  // measure 86
1000
0010
1000
0001
,  // measure 87
0010
0100
0010
0001
,  // measure 88
0100
0010
1000
0010
,  // measure 89
0200
0000
0301
0000
;

//---------------dance-single - ----------------
#NOTES:
     dance-single:
     :
     Medium:
     12:
     0.475309,0.671687,0.491986,0.083388,0.346058,399.000000,340.000000,59.000000,10.000000,0.000000,0.000000,0.475309,0.671687,0.491986,0.083388,0.346058,399.000000,340.000000,59.000000,10.000000,0.000000,0.000000:
// measure 0
0000
0000
0000
0000
,  // measure 1
0000
0000
0000
0000
,  // measure 2
0000
0000
0000
0000
,  // measure 3
0000
0000
0000
0000
,  // measure 4
0000
0000
0000
0000
,  // measure 5
0000
0000
0000
0000
,  // measure 6
0000
0000
0000
0000
,  // measure 7
0000
0000
0000
0000
,  // measure 8
0000
0000
0000
1000
,  // measure 9
0000
0000
0001
0000
0000
0010
0100
0000
0000
1000
0000
0000
,  // measure 10
0000
0000
0100
0000
0000
1000
0010
0000
0000
0100
0000
0000
,  // measure 11
0000
0000
0010
0000
0000
1000
0001
0000
0000
0010
0000
0000
,  // measure 12
0011
1000
1100
0010
,  // measure 13
0000
0000
0001
0000
0000
1000
0100
0000
0000
1000
0000
0000
,  // measure 14
0000
0000
0010
0000
0000
0100
0001
0000
0000
0010
0000
0000
,  // measure 15
0000
0000
0100
0000
0000
0010
0100
0000
0000
0001
0000
0000
,  // measure 16
1001
1000
1010
0110
,  // measure 17
0000
0000
0101
0000
0000
0001
0010
0000
0000
1100
0000
0000
,  // measure 18
0000
0000
1010
0000
0000
0010
0100
0000
0000
0101
0000
0000
,  // measure 19
0000
0000
0011
0000
0000
0010
0100
0000
0000
1100
0000
0000
,  // measure 20
1000
1010
0010
0110
,  // measure 21
0000
0000
0011
0000
0000
1000
0100
0000
0000
0011
0000
0000
,  // measure 22
0000
0000
0110
0000
0000
0100
1000
0000
0000
1010
0000
0000
,  // measure 23
0000
0000
0110
0000
0000
0100
0001
0000
0000
0011
0000
0000
,  // measure 24
0001
1001
1010
0100
,  // measure 25
0001
0010
1000
0010
,  // measure 26
0100
0010
0001
1000
,  // measure 27
1000
0000
0000
0001
0000
0000
0001
0000
0000
1000
0000
0001
,  // measure 28
0100
0000
0010
0100
0000
0010
1000
0000
0010
0100
0000
0000
,  // measure 29
0001
0000
0000
0011
0000
0000
0000
0000
1000
0100
0000
0000
,  // measure 30
1000
0000
1000
0010
0000
0000
0010
0000
0010
0100
0000
0000
,  // measure 31
0001
0010
0001
0100
,  // measure 32
1000
0000
0000
0100
0000
0000
0010
0000
0000
1000
0001
1000
,  // measure 33
0001
1000
0001
1000
0001
1000
0001
1000
0001
1000
0000
0000
,  // measure 34
0100
0010
0001
0011
,  // measure 35
1010
0011
0001
0100
,  // measure 36
1000
0100
0010
1010
,  // measure 37
0011
0000
0000
2001
0000
0000
3100
0000
0000
1000
0000
1000
,  // measure 38
0001
0000
0001
1000
0000
1000
0001
0000
0001
0100
0000
0000
,  // measure 39
0000
0000
0000
0000
0000
0000
0000
0000
0000
0001
0000
0001
,  // measure 40
1000
0000
1000
0001
0000
0001
1000
0000
1000
0010
0000
0000
,  // measure 41
0000
0000
0000
0100
,  // measure 42
0001
0010
1000
0010
,  // measure 43
0001
0100
0001
1200
,  // measure 44
0000
0000
0000
0300
,  // measure 45
0010
0021
0130
1001
,  // measure 46
1000
0001
0100
0001
,  // measure 47
0010
0100
1000
0021
,  // measure 48
0000
0000
0000
0000
0000
0000
0130
0000
1000
0000
0000
0001
,  // measure 49
0000
0000
0100
0010
0000
0000
1000
0000
0000
0202
0000
0000
,  // measure 50
0000
0000
0000
0000
,  // measure 51
0000
0000
0000
0303
0000
0000
0000
0000
0000
0100
0000
0010
,  // measure 52
0000
0000
1000
0000
0000
0001
1000
0000
0100
0000
0000
0010
,  // measure 53
0100
0000
0100
1000
0000
0001
0000
0000
0100
0000
0000
0000
,  // measure 54
0000
0000
0000
0010
,  // measure 55
0000
0000
0000
0100
,  // measure 56
0001
0100
1000
0100
,  // measure 57
0001
0010
0100
1100
,  // measure 58
0100
1000
0010
0100
,  // measure 59
0001
0010
0001
1000
,  // measure 60
0100
0001
0100
0010
,  // measure 61
0001
0100
1000
0100
,  // measure 62
0010
1000
0010
1000
,  // measure 63
0010
0100
0001
0010
,  // measure 64
0100
0000
0000
1000
0000
0000
0001
0000
0000
1000
0000
0001
,  // measure 65
0000
0000
0110
0000
0000
0000
0101
0000
0000
0001
0000
0000
,  // measure 66
0011
0000
0000
0010
0000
0000
0110
0000
0100
1000
0000
0010
,  // measure 67
0000
0100
0110
0010
,  // measure 68
1010
0000
0000
1000
0000
0000
1001
0000
0001
0010
0000
0100
,  // measure 69
2000
3010
0100
0101
,  // measure 70
0001
0000
0000
1001
0000
0000
1000
0000
0100
1000
0000
0001
,  // measure 71
0000
1000
0101
1000
,  // measure 72
0011
0000
0000
0100
0000
0000
1100
0000
0100
0010
0000
0001
,  // measure 73
0100
0000
0010
1000
0000
1000
0001
0000
0000
0100
0000
0000
,  // measure 74
1010
1000
0100
0010
,  // measure 75
1100
0100
1000
0110
,  // measure 76
0001
0000
0000
0110
0000
0000
0101
0000
0001
0010
0000
0010
,  // measure 77
0200
1300
0100
1000
,  // measure 78
0010
0000
0000
0100
0000
0000
0001
0000
0000
0010
0000
1000
,  // measure 79
0000
0000
0010
0001
0000
0001
0100
0000
0000
0010
0000
1000
,  // measure 80
0000
0001
0000
0010
0000
0100
0000
0010
0000
0000
0100
0000
,  // measure 81
1000
0000
0001
0000
0000
0000
1001
0000
0000
1000
0000
0000
,  // measure 82
0001
0010
0100
1000
,  // measure 83
0011
1100
1001
0001
,  // measure 84
0100
0001
0010
0100
,  // measure 85
1200
0310
1001
0001
,  // measure 86
0100
1000
0100
0010
,  // measure 87
1010
0101
0001
0010
,  // measure 88
0100
0000
0000
1000
0000
0000
0001
0000
1000
0010
0000
0100
,  // measure 89
0002
0000
0013
0000
;

//---------------dance-single - ----------------
#NOTES:
     dance-single:
     :
     Challenge:
     16:
     0.720707,0.905589,0.441954,0.316873,1.129901,605.000000,552.000000,53.000000,38.000000,0.000000,0.000000,0.720707,0.905589,0.441954,0.316873,1.129901,605.000000,552.000000,53.000000,38.000000,0.000000,0.000000:
// measure 0
0000
0000
0000
0000
,  // measure 1
0000
0000
0000
0000
,  // measure 2
0000
0000
0000
0000
,  // measure 3
0000
0000
0000
0000
,  // measure 4
0000
0000
0000
0000
,  // measure 5
0202
0000
0000
0303
,  // measure 6
0010
0000
1000
0000
0000
0100
0000
0000
0000
0000
0000
0000
,  // measure 7
0010
0001
0010
0001
1000
0100
1000
0010
1000
0001
0010
0100
0010
0001
1000
0010
,  // measure 8
0100
0000
0001
0000
0000
1100
0000
0000
0000
0001
0100
0001
,  // measure 9
0010
0100
0010
0001
1000
0001
0000
1000
0000
0001
0010
0100
,  // measure 10
1000
0000
0000
0000
0001
0000
0000
0000
0000
0000
0000
0000
2100
0000
0000
0000
0000
0000
0000
0000
0000
0000
0000
0000
3000
0000
0000
0000
0000
0000
0001
0000
0000
1000
0000
0000
0001
0000
0000
0000
0000
0000
0000
0000
0100
0000
0000
0000
,  // measure 11
0000
0000
0000
0000
0000
0000
0010
0000
0000
1000
0000
0000
0010
0000
0000
0000
0000
0000
0000
0000
0100
0000
0000
0000
0001
0000
0000
0000
0000
0000
0000
0000
0001
0000
0000
0000
0010
0000
0000
0000
0000
0000
0000
0000
0010
0000
0000
0000
,  // measure 12
0100
0000
0100
1000
0000
1000
0001
0000
0001
0100
0000
0010
,  // measure 13
1000
0000
0001
0010
0000
0100
0010
0000
0001
0000
0000
1000
,  // measure 14
0100
0000
0010
0001
0000
0010
0100
0000
0010
0000
0000
0100
,  // measure 15
0010
0010
0001
1000
0000
0001
0000
0000
0000
1000
0010
0100
,  // measure 16
0001
0010
1000
0010
0000
0001
0000
0000
0000
1001
0000
0000
,  // measure 17
1000
0000
0001
0100
0000
0010
0000
0000
0100
0001
0000
0010
,  // measure 18
0100
0000
0010
0001
1000
0010
1000
0000
0001
0100
0010
0000
,  // measure 19
0010
0000
1000
0001
1000
0001
0010
0000
0100
0010
0001
0010
,  // measure 20
0001
1000
0010
0100
0000
0010
1000
0000
0001
0020
0000
0130
,  // measure 21
0200
0000
1300
0100
0010
0001
0010
0100
1000
0010
0000
0000
,  // measure 22
0100
0001
1000
0100
0010
0100
1000
0000
0001
2002
0000
3003
,  // measure 23
0110
0000
1000
0010
0000
0000
0100
0001
0010
0001
0010
0100
,  // measure 24
1000
0000
0000
1000
0000
0100
0010
0000
0000
1001
0000
0000
,  // measure 25
1010
0000
0000
0101
0000
0001
0010
0000
0010
0100
0000
0010
,  // measure 26
0001
0000
1000
0001
0000
0100
0010
0000
1000
0100
0100
0010
,  // measure 27
0000
0001
1000
0010
0000
0100
0001
0000
1000
1001
0000
1000
,  // measure 28
1001
0000
1000
1001
0000
1000
0020
0000
0000
0030
0000
0100
,  // measure 29
0001
0000
0010
0200
0000
0000
0300
0000
0010
0002
0000
0000
,  // measure 30
1003
0000
0001
0020
0000
0000
0130
0000
1000
0020
0000
0000
,  // measure 31
0130
0000
0010
1000
0001
0010
0100
0000
0000
0010
0000
0001
,  // measure 32
0100
0000
0010
1000
0000
0000
0000
0000
0000
0001
0001
1000
,  // measure 33
0010
0010
1000
0100
0100
0010
0001
0001
0010
0100
0000
0000
,  // measure 34
1100
0000
1000
0010
0000
0000
0110
0000
0100
0002
0000
0000
,  // measure 35
0010
0000
0000
1003
0000
0000
1100
0000
0100
0010
0000
0000
,  // measure 36
0011
0000
0010
0100
0000
0000
1100
0000
0010
2000
0000
0000
,  // measure 37
0100
0000
0000
3020
0000
0000
0130
0000
0000
0001
0000
0001
,  // measure 38
0100
0000
0100
1000
0000
1000
0010
0000
0010
0001
0000
0000
,  // measure 39
1000
0000
0000
2002
0000
0000
3003
0000
0000
1000
0000
1000
,  // measure 40
0010
0000
0010
0001
0000
0001
0100
0000
0100
1000
0000
0000
,  // measure 41
0001
2002
3003
1010
,  // measure 42
0101
0000
0001
0010
0000
0100
0000
0000
0010
0001
0000
1000
,  // measure 43
0010
0000
0100
0001
0000
1000
0100
0000
0000
0022
0000
0000
,  // measure 44
0000
0000
0000
0033
,  // measure 45
0100
2010
3001
1010
,  // measure 46
1000
0000
0001
0010
0000
0100
0000
0000
0010
0001
0000
1000
,  // measure 47
0100
0000
1000
0010
0000
0100
0001
0000
1000
0020
0000
0000
,  // measure 48
0000
0000
0000
0000
0000
0000
0130
0000
0001
0000
0000
1010
,  // measure 49
0000
0000
0001
0011
0000
0000
1010
0000
0000
2002
0000
0000
,  // measure 50
0000
0000
0000
0000
,  // measure 51
0000
0000
0000
0000
3003
0000
0000
0000
0000
0000
0000
0000
0001
0000
0000
0001
,  // measure 52
0000
0000
0000
0000
0000
0000
0000
0000
0000
1100
0000
0000
0000
0000
0000
0000
0000
0000
0000
0000
0000
1000
0000
0000
0010
0000
1000
0000
0000
0000
0000
0000
0010
0000
0000
0000
0000
0000
0000
0000
0000
0000
0000
0000
0100
0000
0001
0000
,  // measure 53
0100
0000
0000
0000
0000
0000
0000
0000
0001
0000
0000
0000
0000
0000
0000
0010
0000
0000
0000
0000
0000
0000
0000
0000
0100
0000
0000
0000
0000
0000
0000
0000
0000
2000
0000
0000
0000
0000
0000
0000
0000
0000
0000
0000
0000
0000
0000
0000
,  // measure 54
0000
0000
0000
0000
0000
0000
0000
0000
0000
0000
0000
0000
0000
0000
0000
0000
3000
0000
0000
0000
0000
0000
0000
0000
0001
1000
0001
0000
0000
0000
0000
0000
,  // measure 55
0000
0000
0000
0000
0000
1000
0001
0000
0000
0100
0000
0010
,  // measure 56
1000
0000
0001
0010
0000
0100
0010
0000
0001
1000
0000
0010
,  // measure 57
1000
0000
0100
0010
0000
0100
1000
0000
0000
1001
0000
0000
,  // measure 58
0001
0000
1000
0100
0000
0010
0100
1000
0010
0100
0000
0010
,  // measure 59
0100
0000
0001
0010
0000
0100
0000
0000
0010
0001
0000
1000
,  // measure 60
0010
0000
0100
0001
0000
1000
0100
0010
0001
1000
0000
1001
,  // measure 61
0000
0000
0001
0100
0000
1010
0000
0000
0000
1100
0000
1100
,  // measure 62
0000
0000
0100
0010
0000
0100
1000
0000
0010
0100
0000
0001
,  // measure 63
1000
0000
0000
0000
0000
0000
0000
0000
0010
0000
0000
0000
0000
0000
0000
0000
0000
0000
0000
0000
0000
0100
0000
0000
0000
0000
0000
0000
0000
0000
0000
0000
0000
0000
0000
0000
0001
0000
0000
0100
0000
0000
0001
0000
0000
0100
0000
0000
,  // measure 64
0001
0000
0000
0100
0000
0000
0010
0000
0000
1000
0000
0000
0010
0000
0000
1000
0000
0000
0010
0000
0000
1000
0000
0000
0100
0000
0000
0010
0000
0000
0001
0000
0000
1000
0000
0000
0010
0000
0000
0000
0000
0000
0000
0000
0100
0000
0000
0000
,  // measure 65
0000
0000
1001
0000
0000
0000
1100
0000
0100
1000
0000
0010
,  // measure 66
0100
0000
0001
0010
0000
0100
0010
0000
0001
1000
0000
1001
,  // measure 67
0000
0000
1000
0001
0000
0010
0100
0000
0010
0001
0000
0100
,  // measure 68
0010
0000
1000
0001
0000
0000
0010
0000
0010
0001
0000
1000
,  // measure 69
0020
0000
0100
0130
0000
0000
0001
0000
0010
0000
0000
0010
,  // measure 70
0100
0000
0100
1000
0000
1000
0001
0000
1000
0010
0100
0001
,  // measure 71
0010
0000
0100
0000
0000
0010
0001
0000
0000
0101
0000
1010
,  // measure 72
0000
0000
0000
0000
0101
0000
0000
0000
0000
0000
0000
0000
0011
0000
0000
0000
0000
0000
0000
0000
0110
0000
0000
0000
0000
0000
0000
0000
0110
0000
0000
0000
0000
0000
0000
0000
1100
0000
0000
0000
0000
0000
0000
0000
0000
1001
0000
0000
,  // measure 73
0000
0000
0000
0000
0000
0000
0110
0000
1000
0010
0000
0110
,  // measure 74
0000
0000
0100
0001
0000
0000
0010
0000
0001
0100
0000
0110
,  // measure 75
0000
0000
0000
0000
0000
0000
0000
0000
0000
0000
0000
0000
0100
0000
0000
0000
0010
0000
0000
0000
1000
0000
0000
0000
0001
0000
0000
0000
0000
0000
0010
0000
0000
0001
0000
0000
0100
0000
0000
0000
0000
0000
0010
0000
0000
1000
0000
0000
,  // measure 76
0001
0000
0000
0000
0000
0000
1000
0000
0000
0000
0000
0000
0001
0000
0000
1000
0000
0000
0100
0000
0000
0000
0000
0000
0010
0000
0000
0000
0000
0000
0000
0000
0001
0000
0000
0000
0100
0000
0000
0000
0000
0000
0010
0000
0000
0000
0000
0000
,  // measure 77
1000
0000
0000
0100
0000
0000
0010
0000
0000
0000
0001
0000
0000
0000
0000
0000
0000
0000
1000
0000
0000
0000
0000
0000
0010
0000
0000
0000
0000
0000
0000
0000
0000
0000
0000
0000
0100
0000
0000
0000
0000
0000
0000
0000
0010
0000
0000
0000
,  // measure 78
0000
0000
0000
0000
1000
0000
0000
0000
0000
0000
0000
0000
0001
0000
0000
0000
0000
0000
0000
0000
0000
0010
0000
0000
0000
0000
0000
0000
0000
0000
0100
0000
0000
0000
0000
0000
0010
0000
0000
0000
0000
0000
0000
0000
0001
0000
0000
0000
,  // measure 79
0000
1000
0000
2001
0000
0000
0000
0000
3200
0000
0320
0000
,  // measure 80
0032
0000
0203
0000
0320
2030
3002
0000
0000
1003
0000
0100
,  // measure 81
0000
0010
0001
0100
0000
0000
1001
0000
0000
0001
0000
0001
,  // measure 82
0100
0000
0100
1000
0000
1000
0100
0000
0100
0001
0000
0001
,  // measure 83
0010
0000
0000
0110
0000
0000
1100
0000
0000
1000
0000
1000
,  // measure 84
0100
0000
0100
0001
0000
0001
0100
0000
0100
1000
0000
1000
,  // measure 85
0020
0000
0000
0130
0000
0000
1001
0000
0000
1000
0000
0010
,  // measure 86
0100
0000
0000
0000
0001
0000
0010
0000
0000
0000
0010
0000
0100
0000
0000
0010
0000
0000
0100
0000
0000
1000
0000
0000
,  // measure 87
0001
0000
1000
0010
0000
0100
0000
0000
0000
0010
0000
0000
,  // measure 88
0000
0000
1000
0000
0000
0000
0001
0000
0001
0100
0000
0100
,  // measure 89
0020
0000
0230
0000
,  // measure 90
0000
0000
0300
0000
;

//---------------dance-single - ----------------
#NOTES:
     dance-single:
     :
     Beginner:
     5:
     0.152480,0.298527,0.125081,0.000000,0.000000,128.000000,113.000000,15.000000,0.000000,0.000000,0.000000,0.152480,0.298527,0.125081,0.000000,0.000000,128.000000,113.000000,15.000000,0.000000,0.000000,0.000000:
// measure 0
0000
0000
0000
0000
,  // measure 1
0000
0000
0000
0000
,  // measure 2
0000
0000
0000
0000
,  // measure 3
0000
0000
0000
0000
,  // measure 4
0000
0000
0000
0000
,  // measure 5
1001
0000
0000
0000
,  // measure 6
0010
0000
0000
0000
,  // measure 7
0100
0000
0000
0000
,  // measure 8
0000
0000
0000
0010
,  // measure 9
0000
0000
0000
1000
,  // measure 10
0000
0000
0000
0100
,  // measure 11
0000
0000
0000
1000
,  // measure 12
0000
0001
0000
1000
,  // measure 13
0000
0000
0000
0010
,  // measure 14
0000
0000
0000
1000
,  // measure 15
0000
0000
0000
0100
,  // measure 16
0000
0100
0000
0110
,  // measure 17
0000
0000
0000
0010
,  // measure 18
0000
0000
0000
0001
,  // measure 19
0000
0000
0000
1000
,  // measure 20
0000
0001
0000
0100
,  // measure 21
0000
0000
0000
0010
,  // measure 22
0000
0000
0000
1001
,  // measure 23
0000
0000
0000
1000
,  // measure 24
0000
0001
0000
0100
,  // measure 25
0000
0000
0000
0010
,  // measure 26
0000
0000
0000
1000
,  // measure 27
0000
0000
0000
0001
,  // measure 28
0001
0001
0001
1000
,  // measure 29
0000
0000
0000
0010
,  // measure 30
0000
0100
0000
0010
,  // measure 31
0000
0000
0000
1000
,  // measure 32
0000
0000
0000
0010
,  // measure 33
0000
0000
0000
1001
,  // measure 34
0000
0010
0000
0100
,  // measure 35
0100
0100
0000
0010
,  // measure 36
0000
1000
0000
0001
,  // measure 37
0001
0001
0000
0100
,  // measure 38
0100
0100
0100
0100
,  // measure 39
0000
0000
0000
0100
,  // measure 40
0100
0100
0100
0100
,  // measure 41
0000
0000
0000
0010
,  // measure 42
0000
0000
0000
1000
,  // measure 43
0000
0001
0000
1000
,  // measure 44
0000
0000
0000
0000
,  // measure 45
0000
0110
0000
0010
,  // measure 46
0000
0000
0000
1000
,  // measure 47
0000
0001
0000
1000
,  // measure 48
0000
0000
0000
0000
,  // measure 49
0000
0000
0000
1001
,  // measure 50
0000
0000
0000
0000
,  // measure 51
0000
0000
0000
0010
,  // measure 52
0000
0000
0000
0000
,  // measure 53
0000
0000
0000
0100
,  // measure 54
0000
0000
0000
0001
,  // measure 55
0000
0000
0000
1000
,  // measure 56
0000
0000
0000
1000
,  // measure 57
0000
0000
0000
0010
,  // measure 58
0000
0000
0000
0100
,  // measure 59
0000
0000
0000
0010
,  // measure 60
0000
0000
0000
1000
,  // measure 61
0000
0000
0000
0001
,  // measure 62
0000
0000
0000
1000
,  // measure 63
0000
0000
0000
0010
,  // measure 64
0000
0000
0000
0000
,  // measure 65
0000
0000
1001
0000
,  // measure 66
1000
0000
0001
0000
,  // measure 67
0000
0000
0110
0000
,  // measure 68
0010
0000
1000
0000
,  // measure 69
0100
0000
1000
0000
,  // measure 70
1000
0000
0001
0000
,  // measure 71
0000
0000
1001
0000
,  // measure 72
0000
0000
0110
0000
,  // measure 73
0000
0000
0010
0000
,  // measure 74
0000
0000
1000
0000
,  // measure 75
0000
0000
0100
0000
,  // measure 76
0000
0000
1000
0000
,  // measure 77
0000
0000
0001
0000
,  // measure 78
0000
0000
0100
0000
,  // measure 79
0000
0010
0000
0000
,  // measure 80
0000
0000
0100
0000
,  // measure 81
0000
0000
1001
0000
,  // measure 82
1000
0000
0001
0000
,  // measure 83
0100
0000
1001
0000
,  // measure 84
1000
0000
0001
0000
,  // measure 85
0010
0000
1001
0000
,  // measure 86
0001
0000
0100
0000
,  // measure 87
0010
0000
0110
0000
,  // measure 88
0000
0000
0010
0000
,  // measure 89
0000
0000
1001
0000
;
