#TITLE:Phoenix;
#SUBTITLE:;
#ARTIST:Shirobon;
#TITLETRANSLIT:;
#SUBTITLETRANSLIT:;
#ARTISTTRANSLIT:;
#GENRE:SPACE SYNTH;
#CREDIT:;
#BANNER:banner.png;
#BACKGROUND:background.png;
#LYRICSPATH:;
#CDTITLE:CDTITLE.png;
#MUSIC:Phoenix.ogg;
#OFFSET:-0.326000;
#SAMPLESTART:49.965172;
#SAMPLELENGTH:22.068966;
#SELECTABLE:YES;
#BPMS:0.000000=87.000000
;
#STOPS:160.000000=2.069000
;
#BGCHANGES:;
#KEYSOUNDS:;
#ATTACKS:;

//---------------dance-single - ----------------
#NOTES:
     dance-single:
     :
     Hard:
     12:
     0.336849,0.498331,0.097934,0.565002,0.384201,313.000000,300.000000,13.000000,75.000000,0.000000,2.000000,0.336849,0.498331,0.097934,0.565002,0.384201,313.000000,300.000000,13.000000,75.000000,0.000000,2.000000:
// measure 0
0000
0000
0000
0000
,  // measure 1
0000
0000
0000
0000
,  // measure 2
0000
0000
0000
0000
,  // measure 3
0000
0000
0000
0000
,  // measure 4
0201
0000
0000
0000
0000
0320
0000
0230
,  // measure 5
0320
0200
0032
0000
0000
0000
0000
0000
0300
0000
2003
0000
0000
0000
3200
0000
,  // measure 6
0020
0000
0000
0000
0000
0000
0300
0000
0230
0000
0000
0000
0000
0000
2300
0002
,  // measure 7
3020
0000
0003
0230
2300
0002
0000
0000
,  // measure 8
3003
0000
0000
0000
,  // measure 9
0000
0000
0000
0000
0000
0000
0000
0000
0000
0000
0000
0000
1000
0001
0000
0001
,  // measure 10
1000
0010
0100
0000
0010
1000
0100
0000
,  // measure 11
0010
0100
1000
0000
0001
1000
0010
1000
,  // measure 12
1100
0100
0010
0000
0100
1000
0001
0000
,  // measure 13
0100
0000
0001
0000
0010
0000
0000
0000
0100
0000
0010
0011
0000
0000
1100
0000
,  // measure 14
2001
0000
0010
0000
3001
0000
0000
0010
0000
0100
1000
0000
0010
0000
0000
0100
,  // measure 15
0000
0010
1000
0000
0001
0000
0000
0010
0000
0100
0010
0000
0001
0000
1000
0000
,  // measure 16
1001
0000
1000
0000
0010
0000
0000
0100
0000
0001
0010
0100
0010
0000
0000
0010
,  // measure 17
0000
0001
1000
0000
0010
0000
0000
1000
0000
0100
0010
0001
0100
0000
0010
1000
,  // measure 18
1200
0000
0000
0000
0000
0000
0000
1300
0001
0000
0200
0000
0000
0000
0320
2030
,  // measure 19
0002
0000
0000
0000
0000
0000
3000
0013
0100
0000
0020
0000
0000
0000
0032
0000
,  // measure 20
2000
0000
0000
0000
0000
0000
0003
3010
0200
0000
0000
0000
0000
0000
0320
2030
,  // measure 21
0002
0000
0000
0000
0000
0000
0000
0000
3000
0000
0023
0000
0000
0000
0230
0300
,  // measure 22
2001
0000
0000
0000
0000
0000
0000
3001
0100
0000
0020
0000
0000
0000
2030
0000
,  // measure 23
3020
0230
0002
0000
0000
0000
0300
1003
0100
0000
0020
0000
0000
0000
0230
0000
,  // measure 24
2300
0000
0000
0000
0000
0000
0000
0000
3002
0000
0000
0000
0000
0000
0203
0302
,  // measure 25
0020
0000
0000
0000
0000
0003
0230
0000
2300
0000
0002
0000
3000
0000
0203
0000
,  // measure 26
0310
0000
0000
0010
0000
0100
0001
0000
0000
1000
0000
0000
0100
0000
1000
0000
,  // measure 27
0020
0000
0000
0000
0000
0000
0000
0000
0000
0000
0000
0000
0000
0000
0000
0000
0030
0000
0000
0000
0000
0000
1000
0001
1000
0000
0001
0000
0000
0000
1000
0000
,  // measure 28
1001
0000
1000
0100
0000
1000
0010
0000
0100
0001
0000
0010
0100
0000
0010
0000
,  // measure 29
0001
0000
1000
0001
0000
0100
0020
0000
0000
0000
0130
0001
0011
0000
0100
0000
,  // measure 30
1100
0000
1000
0001
0000
0010
0100
0000
0000
0020
0000
0031
0100
0000
0010
0000
,  // measure 31
1000
0000
0000
0000
0001
0000
0010
0000
0000
0000
0001
1000
0001
0000
1000
0000
0100
0000
1000
0000
0010
0000
0100
0000
0001
0000
0010
0000
0200
0000
0000
0000
,  // measure 32
2300
0000
0000
0000
0000
0000
0000
0000
0000
0000
3020
0000
0000
0000
0230
0302
,  // measure 33
0023
0000
0100
0000
0130
0000
1000
0000
0001
0000
0001
0000
0100
0000
0010
0000
1010
0000
0000
0000
1010
0000
0010
0000
0000
0000
1000
0001
1000
0000
0001
0000
,  // measure 34
0010
0100
0000
0100
0010
0000
0001
1000
0000
1000
0001
0000
0000
0000
0100
0010
,  // measure 35
1000
0000
0100
0000
1000
0000
0010
0000
0100
0000
0001
0000
0000
0000
0010
0000
0000
0000
0100
0000
0010
0000
0010
0000
0001
0000
0001
1000
0001
0000
1000
0000
,  // measure 36
0002
0000
0000
1000
0000
1000
0000
0103
0010
0000
2000
0100
0000
3100
0020
0000
,  // measure 37
0032
0000
0203
0000
0320
0000
1000
0000
0000
0000
1000
0000
0000
0000
1030
0001
1000
0000
0000
0000
0002
0000
0000
0000
0000
0000
0000
0000
2003
0000
3010
0000
,  // measure 38
1000
1000
0010
0100
0001
0001
0000
0010
0200
0000
1300
0100
0000
0000
0020
0032
,  // measure 39
2000
0000
0003
3001
0100
0020
0000
0200
,  // measure 40
0330
0000
0000
0000
1000
0000
0100
0010
0100
0000
0010
0000
0001
0000
0100
0010
,  // measure 41
0100
0000
0010
0000
1000
0000
0100
0010
0100
0000
0010
0000
0001
0000
0100
0010
,  // measure 42
0100
0000
0010
0000
1000
0000
0001
0100
0001
0000
1000
0000
0001
0000
0010
0001
,  // measure 43
0010
0000
0001
0000
1000
0000
0010
1000
0010
0000
1000
0000
0001
0000
0010
0001
,  // measure 44
0010
0001
0200
0000
0000
0000
0320
0000
,  // measure 45
0000
2030
0002
0000
0000
0000
0000
0000
,  // measure 46
0000
0000
0000
0000
,  // measure 47
0000
3003
0000
0000
;

//---------------dance-single - ----------------
#NOTES:
     dance-single:
     :
     Medium:
     8:
     0.247524,0.427141,0.045200,0.301334,0.173267,230.000000,224.000000,6.000000,40.000000,0.000000,0.000000,0.247524,0.427141,0.045200,0.301334,0.173267,230.000000,224.000000,6.000000,40.000000,0.000000,0.000000:
// measure 0
0000
0000
0000
0000
,  // measure 1
0000
0000
0000
0000
,  // measure 2
0000
0000
0000
0000
,  // measure 3
0000
0000
0000
0000
,  // measure 4
1200
0000
0000
0000
0000
0310
0000
0100
,  // measure 5
1000
0010
0200
0000
0000
0000
0000
0000
0000
0000
0320
0000
0000
0000
1030
0000
,  // measure 6
0002
0000
0000
0000
0000
0000
0000
0000
2003
0000
0000
0000
0000
0000
3001
0100
,  // measure 7
0020
0000
0000
0130
0002
0020
0000
0000
,  // measure 8
0033
0000
0000
0000
,  // measure 9
0000
0000
0000
0000
0000
0000
0000
0000
0000
0000
0000
0000
1000
0001
0000
0001
,  // measure 10
1000
0010
0100
0000
0010
1000
0001
0000
,  // measure 11
0010
0001
0100
0000
0010
1000
0001
1000
,  // measure 12
0110
0100
0001
0000
0010
0100
1000
0000
,  // measure 13
0100
1000
0010
0000
0100
0010
1001
0110
,  // measure 14
2000
0000
3001
0000
0010
0000
0000
0100
0000
0000
1000
0000
0010
0000
0000
0100
,  // measure 15
0000
0000
0010
0000
1000
0000
0000
0001
0000
0000
0010
0000
0100
0000
1000
0000
,  // measure 16
0001
0000
0100
0000
0001
0000
0000
0010
0000
0000
0001
0000
1000
0000
0000
0100
,  // measure 17
0000
0000
1000
0000
0010
0000
0000
0100
0000
0000
0010
0000
0100
0000
0001
0000
,  // measure 18
2000
0000
0000
0000
0000
0000
0000
0000
0000
0000
3010
0000
0000
0000
0100
0010
,  // measure 19
2000
0000
0000
0000
0000
3200
0000
0310
,  // measure 20
0002
0000
0000
0000
0000
0000
0000
0000
0203
0000
0000
0000
0000
0000
0310
1000
,  // measure 21
0002
0000
0000
0000
0000
0023
0000
0130
,  // measure 22
2000
0000
0000
0000
0000
3020
0000
0130
,  // measure 23
0001
1000
0020
0000
0000
0000
0000
0000
0000
0000
0230
0000
0000
0000
0301
0000
,  // measure 24
2000
0000
0000
0000
0000
0000
0000
0000
3200
0000
0000
0000
0000
0000
0310
0100
,  // measure 25
2000
0000
0000
3020
0230
0020
0000
0000
,  // measure 26
0330
0000
0000
0000
,  // measure 27
0000
0000
0000
0000
0000
0000
0000
0000
0000
0000
1000
0100
0010
0000
0000
0000
,  // measure 28
0100
0000
0000
1000
0000
0000
0010
0000
0000
0100
0000
0000
0001
0000
0010
0000
,  // measure 29
0100
0000
0000
0010
0000
0000
0001
0000
0000
0000
1000
0010
0100
0000
0001
0000
,  // measure 30
1001
0000
0000
0001
0000
0000
0010
0000
0000
0100
0000
0000
0010
0000
0001
0000
,  // measure 31
1000
0000
0000
0010
0000
0000
0100
0000
0000
0000
0000
0000
0000
0000
0010
0000
,  // measure 32
2000
0000
0000
0000
0000
0000
0000
0000
0000
0000
3002
0000
0000
0000
0013
0100
,  // measure 33
1000
1000
0100
0010
0010
0001
1000
1000
1001
0000
1000
0001
0000
0000
0001
0000
,  // measure 34
0010
0100
0000
0100
1000
0000
0010
0100
0000
0010
1000
0000
0000
0000
0001
1000
,  // measure 35
0200
0000
0000
0000
0000
0320
0000
0230
,  // measure 36
1300
0000
0000
0001
0000
0001
0000
0001
1000
0000
0020
0000
0000
0000
0130
0000
,  // measure 37
0001
1000
0100
0010
0000
0010
0000
0010
0100
0000
0000
1000
0100
0010
0001
1000
,  // measure 38
0010
0100
0000
0001
1000
0000
0010
0000
2000
0000
0000
0000
0000
0000
3100
0010
,  // measure 39
0002
0000
0000
0103
0010
2000
0000
0002
,  // measure 40
3003
0000
0100
0010
1000
0100
0010
0001
,  // measure 41
0010
0001
0100
0010
1000
0001
0010
0100
,  // measure 42
1000
0100
1000
0010
0100
0001
0010
0100
,  // measure 43
0010
0001
1000
0010
0100
0001
0010
0100
,  // measure 44
1000
0001
0020
0000
0000
0000
0230
0000
,  // measure 45
0000
2300
0002
0000
0000
0000
0000
0000
,  // measure 46
0000
0000
0000
0000
,  // measure 47
0000
3003
0000
0000
;

//---------------dance-single - ----------------
#NOTES:
     dance-single:
     :
     Easy:
     4:
     0.152819,0.284761,0.045200,0.143134,0.000000,142.000000,136.000000,6.000000,19.000000,0.000000,0.000000,0.152819,0.284761,0.045200,0.143134,0.000000,142.000000,136.000000,6.000000,19.000000,0.000000,0.000000:
// measure 0
0000
0000
0000
0000
,  // measure 1
0000
0000
0000
0000
,  // measure 2
0000
0000
0000
0000
,  // measure 3
0000
0000
0000
0000
,  // measure 4
0020
0000
0000
0000
,  // measure 5
2030
0000
0000
0000
,  // measure 6
3002
0000
0100
0000
,  // measure 7
0023
0000
0230
0000
,  // measure 8
0300
0000
0000
0000
,  // measure 9
0000
0000
0000
1000
,  // measure 10
1001
0000
0001
0000
0010
0001
0010
0000
,  // measure 11
0001
0000
1000
0000
0010
1000
0010
0000
,  // measure 12
0110
0000
0010
0000
0100
0100
0001
0000
,  // measure 13
0010
0000
0100
0000
1000
1000
0010
0100
,  // measure 14
0001
0010
0100
0000
0010
0001
1000
0000
,  // measure 15
0100
1000
0010
0000
0100
0010
1000
0000
,  // measure 16
0001
1000
0100
0000
1000
0010
0100
0000
,  // measure 17
0010
0100
0001
0000
0010
0100
1000
0100
,  // measure 18
0020
0000
0001
0000
,  // measure 19
0230
0000
0010
0000
,  // measure 20
2300
0000
0010
0000
,  // measure 21
3002
0000
0100
0010
,  // measure 22
2003
0000
0010
0000
,  // measure 23
3200
0000
1000
0000
,  // measure 24
0320
0000
0100
0000
,  // measure 25
0032
0000
0000
1003
0001
0200
0000
0000
,  // measure 26
0300
0000
0000
0000
,  // measure 27
0000
0000
0000
0000
,  // measure 28
0010
1000
0001
0010
,  // measure 29
0100
0000
0010
0000
0001
0000
1000
0001
,  // measure 30
0110
0010
1000
0100
,  // measure 31
1000
0000
0010
0000
0100
0001
0010
0000
,  // measure 32
0200
0000
0000
0000
,  // measure 33
1300
0100
0010
0001
0011
0011
0000
0001
,  // measure 34
0101
0000
0001
0000
1000
0000
0010
1000
,  // measure 35
0100
0000
1000
0000
0010
0100
0000
0100
,  // measure 36
0010
0000
1000
0000
0001
0010
0000
0100
,  // measure 37
0010
0001
0000
0000
1000
0001
0000
0100
,  // measure 38
0010
0000
0000
0000
1000
0000
0000
0001
,  // measure 39
0200
0000
0000
0310
2000
0002
0000
0000
,  // measure 40
3003
0100
0000
0010
,  // measure 41
0000
1000
0000
0001
,  // measure 42
0000
0010
0000
0100
,  // measure 43
0000
1000
0000
0010
,  // measure 44
0000
0100
0000
0010
,  // measure 45
0000
2000
0000
0000
,  // measure 46
0000
0000
0000
0000
,  // measure 47
0000
3000
0000
0000
;

//---------------dance-single - ----------------
#NOTES:
     dance-single:
     :
     Beginner:
     2:
     0.069953,0.102265,0.030133,0.000000,0.000000,65.000000,61.000000,4.000000,0.000000,0.000000,0.000000,0.069953,0.102265,0.030133,0.000000,0.000000,65.000000,61.000000,4.000000,0.000000,0.000000,0.000000:
// measure 0
0000
0000
0000
0000
,  // measure 1
0000
0000
0000
0000
,  // measure 2
0000
0000
0000
0000
,  // measure 3
0000
0000
0000
0000
,  // measure 4
0010
0000
0000
0000
,  // measure 5
1000
0000
0000
0000
,  // measure 6
0001
0000
1000
0000
,  // measure 7
0010
0000
0100
0000
,  // measure 8
0000
0000
0000
0000
,  // measure 9
0000
0000
0000
0000
,  // measure 10
1000
0000
0001
0000
,  // measure 11
0100
0000
0010
0000
,  // measure 12
1001
0000
1000
0000
,  // measure 13
0001
0000
0100
0000
,  // measure 14
0010
0000
1000
0000
,  // measure 15
0100
0000
0010
0000
,  // measure 16
0001
0000
1000
0000
,  // measure 17
0010
0000
0100
0000
,  // measure 18
1001
0000
0000
0000
,  // measure 19
1000
0000
0000
0000
,  // measure 20
0001
0000
0100
0000
,  // measure 21
0001
0000
0000
0000
,  // measure 22
1001
0000
0000
0000
,  // measure 23
0010
0000
0000
0000
,  // measure 24
1000
0000
0001
0000
,  // measure 25
0100
0000
0010
0000
,  // measure 26
1000
0000
0000
0000
,  // measure 27
0000
0000
0000
0000
,  // measure 28
1001
0000
0000
0000
,  // measure 29
0010
0000
1000
0000
,  // measure 30
0100
0000
0000
0000
,  // measure 31
1000
0000
0001
0000
,  // measure 32
0010
0000
0000
0000
,  // measure 33
0100
0000
1000
0000
,  // measure 34
0001
0000
0100
0000
,  // measure 35
0010
0000
0000
1000
,  // measure 36
0001
0000
0010
0000
,  // measure 37
0100
0000
0000
0010
,  // measure 38
0001
0000
1000
0000
,  // measure 39
0010
0000
0100
0000
,  // measure 40
0000
0010
0000
0000
,  // measure 41
0000
0100
0000
0000
,  // measure 42
0000
0001
0000
0000
,  // measure 43
0000
1000
0000
0000
,  // measure 44
0000
0010
0000
0000
,  // measure 45
0000
1000
0000
0000
;
