#TITLE:Part of the Masterpiece;
#SUBTITLE:;
#ARTIST:Odyssey Eurobeat;
#TITLETRANSLIT:;
#SUBTITLETRANSLIT:;
#ARTISTTRANSLIT:;
#GENRE:EUROBEAT;
#CREDIT:;
#BANNER:banner.png;
#BACKGROUND:background.png;
#LYRICSPATH:;
#CDTITLE:CDTITLE.png;
#MUSIC:Part Of The Masterpiece.ogg;
#OFFSET:-0.158000;
#SAMPLESTART:48.118000;
#SAMPLELENGTH:12.000000;
#SELECTABLE:YES;
#BPMS:0.000000=160.009995
;
#STOPS:28.000000=0.750000
;
#BGCHANGES:;
#KEYSOUNDS:;
#ATTACKS:;

//---------------dance-single - ----------------
#NOTES:
     dance-single:
     :
     Hard:
     13:
     0.592884,0.604939,0.365146,0.151402,0.267180,466.000000,425.000000,41.000000,17.000000,0.000000,0.000000,0.592884,0.604939,0.365146,0.151402,0.267180,466.000000,425.000000,41.000000,17.000000,0.000000,0.000000:
// measure 0
0000
0000
0000
0000
,  // measure 1
0000
0000
0000
0000
,  // measure 2
0000
0000
0000
0000
,  // measure 3
0000
0000
0000
0000
,  // measure 4
1000
0001
0010
0001
,  // measure 5
1000
0100
0020
0230
,  // measure 6
1300
0001
0100
0010
,  // measure 7
2002
0000
0003
0000
3000
0000
0000
0000
0001
0000
0010
0000
0100
0010
0000
0100
,  // measure 8
0000
0010
0001
1000
0010
0100
0001
0010
,  // measure 9
0100
0000
0010
0100
0000
1000
0010
0000
0100
0000
0001
0000
1000
0100
0000
1000
,  // measure 10
0000
0001
0100
1000
0100
0010
1000
0001
,  // measure 11
0010
0000
0100
1000
0000
0001
0010
0000
0100
0000
0010
0000
0001
0100
0000
0010
,  // measure 12
0000
0100
0001
0010
0100
0010
0001
1000
,  // measure 13
0010
0000
1000
0100
0000
1000
0000
0001
0100
0000
0001
0000
0010
0100
0000
0010
,  // measure 14
0000
0100
0010
0001
0100
0010
1000
0001
,  // measure 15
0010
0000
0100
0000
1000
0001
1000
0001
1000
0000
0000
0000
0001
0000
0000
0000
,  // measure 16
0100
0001
0010
0100
0010
0001
0000
1100
,  // measure 17
0000
0000
0100
1000
0020
0000
0000
0000
,  // measure 18
0130
0001
1000
0001
0020
0000
0032
0000
,  // measure 19
0203
0000
0310
1001
0000
0000
0001
0000
,  // measure 20
1000
0001
0010
0001
1000
0100
0000
0010
,  // measure 21
0000
0100
1000
0010
0100
0000
0001
0000
,  // measure 22
0010
0001
1000
0000
0100
1000
0010
0000
,  // measure 23
0100
0001
0000
0000
1001
0000
0000
1000
,  // measure 24
0010
0001
1000
0000
1001
0000
0000
0001
,  // measure 25
0010
1000
0010
0000
0100
0001
0100
0010
,  // measure 26
1000
0000
0001
0000
1001
0000
0000
0010
,  // measure 27
1001
0000
0000
0000
0110
0000
0000
0001
,  // measure 28
0100
1000
0100
0000
0110
0000
0000
1000
,  // measure 29
0010
0001
0010
0000
0100
0001
0010
0100
,  // measure 30
0010
0001
1000
0000
0001
0001
1000
1000
,  // measure 31
0002
0003
1010
0011
,  // measure 32
0001
0010
0100
1100
0000
0101
0000
1001
,  // measure 33
0000
0000
0001
0010
0100
0100
0010
0001
,  // measure 34
1000
0001
0000
0201
0000
0310
1000
0001
,  // measure 35
0010
0100
0000
0000
0110
0000
1100
0000
,  // measure 36
0100
1000
0010
1010
0000
0011
0000
1001
,  // measure 37
0000
0000
0001
0010
0001
1000
0100
0010
,  // measure 38
0100
1000
0000
0002
0000
0203
0000
0320
,  // measure 39
0000
2030
0000
0002
0000
0000
0000
0000
,  // measure 40
0000
0000
0000
3000
0003
0000
0000
0000
,  // measure 41
0110
0000
0000
0000
1001
0000
0000
0000
1000
0000
0100
0000
0010
0100
0000
1000
,  // measure 42
0000
0001
0100
0010
1000
0100
0010
0100
,  // measure 43
1000
0000
0001
0100
0000
0010
1000
0000
0100
0000
0010
0000
0100
1000
0000
0001
,  // measure 44
0000
1000
0001
0010
0100
0010
0001
0100
,  // measure 45
0010
0000
1000
0010
0000
0010
0100
0000
0001
0000
0010
0000
0100
0010
0000
0001
,  // measure 46
0000
1000
0001
0010
0100
0010
0001
0100
,  // measure 47
0010
0000
1000
0000
0001
0100
0001
0100
0001
0000
0000
0000
0000
0000
0000
0000
,  // measure 48
0000
0000
1000
0001
0000
0010
0001
0000
0000
0000
0010
0100
0000
0010
0001
0000
,  // measure 49
2000
0000
3000
0000
0000
0010
0010
0100
,  // measure 50
0010
0000
0000
0000
1001
0000
0000
0000
1000
0000
0001
0100
0000
0100
1000
0000
,  // measure 51
0100
0000
0000
0000
0000
0000
0000
0000
0100
0000
0001
0000
0000
1000
0001
0000
,  // measure 52
0010
0100
0010
0100
0010
0000
0100
0000
0000
0000
0010
0001
0000
0010
0100
0000
,  // measure 53
1000
0000
0000
0000
0000
0001
1000
0100
,  // measure 54
1000
0000
0001
0000
0100
0000
0001
0000
0010
0000
0100
0010
0000
0100
1000
0000
,  // measure 55
1001
0110
1001
1010
,  // measure 56
1000
0100
0010
0011
0000
1010
0000
1001
,  // measure 57
0000
0000
1000
0100
0001
0100
0010
0100
,  // measure 58
1000
0001
0000
1020
0000
0130
0001
0010
,  // measure 59
0100
0010
0000
0000
0011
0000
1100
0000
,  // measure 60
0001
1000
0001
0011
0000
1010
0000
1001
,  // measure 61
0000
0000
0001
0010
1000
0010
0100
0010
,  // measure 62
0100
1000
0000
1001
0000
0110
0000
1010
,  // measure 63
0000
0000
0101
0000
0000
0000
0011
0000
0001
0000
0100
0000
0001
1000
0000
0100
,  // measure 64
0000
0010
0100
1000
0010
0100
0001
1000
,  // measure 65
0100
0000
1000
0100
0000
0010
0001
0000
1000
0000
0001
0000
0010
0001
0000
1000
,  // measure 66
0000
0001
0100
0010
1000
0100
1000
0001
,  // measure 67
0100
0000
0010
1000
0000
0010
0000
0100
0001
0000
0010
0000
0100
0010
0000
0001
,  // measure 68
0000
0010
0001
0100
0001
1000
0100
1000
,  // measure 69
0010
0000
1000
0010
0000
0100
0000
0001
0010
0000
0100
0000
0010
0001
0000
1000
,  // measure 70
0000
0001
0010
0100
0010
0001
0100
0010
,  // measure 71
1000
0000
0001
0000
1000
0100
0010
0001
1000
0000
0000
0000
0000
0000
0000
0000
;

//---------------dance-single - ----------------
#NOTES:
     dance-single:
     :
     Medium:
     11:
     0.480923,0.541261,0.213744,0.097966,0.080154,378.000000,354.000000,24.000000,11.000000,0.000000,0.000000,0.480923,0.541261,0.213744,0.097966,0.080154,378.000000,354.000000,24.000000,11.000000,0.000000,0.000000:
// measure 0
0000
0000
0000
0000
,  // measure 1
0000
0000
0000
0000
,  // measure 2
0000
0000
0000
0000
,  // measure 3
0000
0000
0000
0000
,  // measure 4
1000
0001
0010
0001
,  // measure 5
0100
0010
1000
0100
,  // measure 6
0001
0100
0010
0100
,  // measure 7
2002
3000
0003
0000
1000
0010
0100
0001
,  // measure 8
0010
0100
0010
0001
1000
0000
0100
0000
,  // measure 9
0010
0000
0100
0000
1000
0100
0001
0100
,  // measure 10
0010
0000
0001
0000
0100
0000
0010
0000
1000
0000
0100
0000
0000
1000
0000
0000
,  // measure 11
0010
0000
0000
0100
0000
0000
0001
0000
1000
0000
0001
0000
0010
0000
0001
0000
,  // measure 12
1000
0100
0010
0001
1000
0000
0001
0000
,  // measure 13
0100
0000
0001
0000
0010
0001
1000
0100
,  // measure 14
0010
0000
0100
0000
1000
0000
0001
0000
0100
0000
0010
0000
0000
1000
0000
0000
,  // measure 15
0001
0000
0000
0010
0200
0000
0000
0000
1300
0000
0000
0000
0100
0000
0000
0000
,  // measure 16
1000
0010
0100
0001
1000
0100
0000
0010
,  // measure 17
0000
0000
0100
1000
0020
0000
0000
0000
,  // measure 18
0130
0010
0100
0010
0110
0000
1001
0000
,  // measure 19
0110
0000
0001
1001
0000
0000
0001
0000
,  // measure 20
0010
0100
1000
0100
0010
0100
0000
0010
,  // measure 21
0000
0001
0100
0010
0100
0000
0010
0000
,  // measure 22
0100
0010
1000
0000
0001
0010
1000
0000
,  // measure 23
0010
0001
0000
0000
1100
0000
0000
1000
,  // measure 24
0100
0010
0001
0000
0011
0000
0000
0001
,  // measure 25
0010
0100
1000
0000
0001
1000
0001
1000
,  // measure 26
0001
0000
1000
0000
0101
0000
0000
0001
,  // measure 27
0101
0000
0000
0000
0110
0000
0000
0010
,  // measure 28
0100
0001
1000
0000
0110
0000
0000
0100
,  // measure 29
0010
0001
1000
0000
0100
1000
0010
0100
,  // measure 30
0001
0010
0100
0000
1000
0100
0010
0001
,  // measure 31
2000
3000
0001
1000
,  // measure 32
0010
1000
0010
0100
0000
0010
0000
1000
,  // measure 33
0000
0000
0100
1000
0010
0100
0001
0010
,  // measure 34
0100
1000
0000
0100
0000
1000
0100
0010
,  // measure 35
0001
0010
0000
0000
0001
0000
0100
0000
,  // measure 36
0001
1000
0010
1000
0000
0010
0000
0100
,  // measure 37
0000
0000
0010
0100
0001
1000
0100
0010
,  // measure 38
0001
0010
0000
0011
0000
1100
0000
0101
,  // measure 39
0000
1010
0000
2002
0000
0000
0000
0000
,  // measure 40
0000
0000
3003
0000
,  // measure 41
0110
0000
1001
0000
0001
1000
0010
1000
,  // measure 42
0100
0000
0010
0000
0001
0000
0010
0000
0100
0000
0010
0000
0000
0001
0000
0000
,  // measure 43
0100
0000
0000
0010
0000
0000
1000
0000
0100
0000
0001
0000
0100
0000
1000
0000
,  // measure 44
0010
0001
0010
0100
0001
0000
0100
0000
,  // measure 45
0010
0000
1000
0000
0100
0001
0100
0010
,  // measure 46
0001
0000
0100
0000
1000
0000
0100
0000
0010
0000
1000
0000
0000
0010
0000
0000
,  // measure 47
1000
0000
0000
0001
0020
0000
0000
0000
0130
0000
0000
0000
0000
0000
0000
0000
,  // measure 48
0000
0000
0010
0000
0000
0001
0000
0000
0000
0000
1000
0000
0000
0001
0000
0000
,  // measure 49
1000
0000
0000
0000
0000
0010
0100
0100
,  // measure 50
0010
0000
0000
0000
0100
0000
0000
0000
0001
0000
0000
1000
0000
0000
0100
0000
,  // measure 51
0010
0000
0000
0000
0000
0000
0000
0000
0000
0000
1100
0000
0000
1000
0100
0000
,  // measure 52
1000
0001
0100
0001
0000
1000
0000
0001
,  // measure 53
0010
0000
0000
0000
0000
0100
1000
1000
,  // measure 54
0001
0000
0000
0000
0100
0000
0000
0000
0010
0000
1000
0001
0000
0001
1000
0000
,  // measure 55
0001
0100
0010
1000
,  // measure 56
0010
0100
0001
1000
0000
0100
0000
0010
,  // measure 57
0000
0000
0100
0010
0001
0100
0010
0100
,  // measure 58
0010
1000
0000
0001
0000
1000
0100
0010
,  // measure 59
0100
1000
0000
0000
0100
0000
1000
0000
,  // measure 60
0010
0100
0001
1000
0000
0001
0000
1000
,  // measure 61
0000
0000
0010
1000
0010
0100
0001
0010
,  // measure 62
0100
1000
0000
1100
0000
0011
0000
0110
,  // measure 63
0000
1001
0000
0220
0000
0000
0000
0000
,  // measure 64
0000
0000
0000
0000
,  // measure 65
0330
0000
0000
0000
0001
0010
0100
1000
,  // measure 66
0100
0000
0010
0000
0100
0000
1000
0000
0010
0000
0100
0000
0000
0010
0000
0000
,  // measure 67
1000
0000
0000
0001
0000
0000
1000
0000
0100
0000
1000
0000
0010
0000
0100
0000
,  // measure 68
0001
0010
0100
0010
0001
0000
1000
0000
,  // measure 69
0010
0000
1000
0000
0100
1000
0001
0100
,  // measure 70
1000
0000
0100
0000
0010
0000
1000
0000
0001
0000
0010
0000
0000
0100
0000
0000
,  // measure 71
1000
0000
0000
0001
2000
0000
0000
0000
3010
0000
0000
0000
0000
0000
0000
0000
;

//---------------dance-single - ----------------
#NOTES:
     dance-single:
     :
     Easy:
     7:
     0.344789,0.382067,0.115778,0.053436,0.000000,271.000000,258.000000,13.000000,6.000000,0.000000,0.000000,0.344789,0.382067,0.115778,0.053436,0.000000,271.000000,258.000000,13.000000,6.000000,0.000000,0.000000:
// measure 0
0000
0000
0000
0000
,  // measure 1
0000
0000
0000
0000
,  // measure 2
0000
0000
0000
0000
,  // measure 3
0000
0000
0000
0000
,  // measure 4
1000
0100
1000
0010
,  // measure 5
0100
0001
0010
0100
,  // measure 6
0010
0001
1000
0010
,  // measure 7
1001
0000
0001
0100
,  // measure 8
0010
1000
0100
1000
,  // measure 9
0010
0100
0001
0010
,  // measure 10
0100
1000
0100
1000
,  // measure 11
0010
0100
0001
0010
,  // measure 12
0100
0010
0001
1000
,  // measure 13
0010
0100
0001
0010
,  // measure 14
1000
0010
0100
1000
,  // measure 15
0010
0200
0301
1000
,  // measure 16
0100
1000
0010
0010
,  // measure 17
0010
0100
0002
0000
,  // measure 18
1003
0100
1000
0010
,  // measure 19
0100
0000
0001
1000
0000
0000
0001
0000
,  // measure 20
0010
0001
1000
0100
,  // measure 21
1000
0010
0100
0001
,  // measure 22
1000
0000
0010
0000
0100
0001
0100
0000
,  // measure 23
0001
1000
0000
0000
1001
0000
0000
0000
,  // measure 24
0010
0100
1001
0000
,  // measure 25
0100
0010
1001
0010
,  // measure 26
0100
0000
0001
0000
1000
0000
0000
0001
,  // measure 27
1000
0000
0110
0000
,  // measure 28
1000
0001
0110
0000
,  // measure 29
0100
0010
1001
0001
,  // measure 30
0100
0000
0010
0000
1000
0001
1000
0001
,  // measure 31
1000
0000
0001
0100
,  // measure 32
0010
0000
1000
0010
0000
1000
0000
0001
,  // measure 33
0000
1000
0100
0010
,  // measure 34
0001
0010
0000
0100
0000
0100
0010
0001
,  // measure 35
1000
0010
0000
0000
0100
0000
0010
0000
,  // measure 36
1000
0000
0001
1000
0000
0100
0000
0010
,  // measure 37
0000
0000
0100
0010
0001
0000
0010
0000
,  // measure 38
0100
0000
0000
0010
0000
0001
0000
1000
,  // measure 39
0000
0010
0000
0200
0000
0000
0000
0000
,  // measure 40
0000
0000
0300
0000
,  // measure 41
0110
1001
0001
1000
,  // measure 42
0010
1000
0100
0010
,  // measure 43
0100
1000
0100
1000
,  // measure 44
0010
0100
0001
0010
,  // measure 45
0100
0010
0001
1000
,  // measure 46
0010
1000
0001
0010
,  // measure 47
0100
2000
3100
0000
,  // measure 48
0000
1000
0000
0001
,  // measure 49
1000
0000
0000
0000
0000
0010
1000
1000
,  // measure 50
0010
1000
0010
0100
,  // measure 51
1001
0000
0001
1000
,  // measure 52
0100
1000
0010
0100
,  // measure 53
0001
0000
0000
0010
,  // measure 54
0100
1000
0100
1000
,  // measure 55
1010
0011
1001
0001
,  // measure 56
1000
0010
1000
0100
,  // measure 57
0010
0100
1000
0001
,  // measure 58
0100
0001
0000
0100
0000
0010
0100
0000
,  // measure 59
0001
0000
1000
0001
,  // measure 60
0010
0001
1000
0100
,  // measure 61
0010
0100
1000
0010
,  // measure 62
0100
0000
0000
0001
0000
0100
0000
0010
,  // measure 63
0000
1000
0000
0002
1000
0000
1000
0000
,  // measure 64
1000
1000
1000
1000
,  // measure 65
1003
0001
1000
0010
,  // measure 66
1000
0100
0010
0100
,  // measure 67
1000
0000
0100
1000
0010
0000
0100
0000
,  // measure 68
0001
1000
0010
1000
,  // measure 69
0100
0001
0100
1000
,  // measure 70
0010
0001
0010
0100
,  // measure 71
1000
0002
1003
0000
;

//---------------dance-single - ----------------
#NOTES:
     dance-single:
     :
     Beginner:
     4:
     0.156491,0.254711,0.071248,0.071248,0.000000,123.000000,115.000000,8.000000,8.000000,0.000000,0.000000,0.156491,0.254711,0.071248,0.071248,0.000000,123.000000,115.000000,8.000000,8.000000,0.000000,0.000000:
// measure 0
0000
0000
0000
0000
,  // measure 1
0000
0000
0000
0000
,  // measure 2
0000
0000
0000
0000
,  // measure 3
0000
0000
0000
0000
,  // measure 4
2000
0000
0000
0000
,  // measure 5
0000
3000
0001
1000
,  // measure 6
0002
0000
0000
0000
,  // measure 7
0003
0000
0100
0000
,  // measure 8
0000
0000
0010
0000
,  // measure 9
0000
0000
1000
0000
,  // measure 10
0000
0000
0100
0000
,  // measure 11
1000
0000
0001
0000
,  // measure 12
0000
0000
0100
0000
,  // measure 13
0000
0000
0010
0000
,  // measure 14
0000
0000
1000
0000
,  // measure 15
0001
0200
0301
0000
,  // measure 16
0010
0000
0100
0000
,  // measure 17
0000
0010
0010
0000
,  // measure 18
0100
0000
1000
0000
,  // measure 19
0001
0000
1001
0000
,  // measure 20
1000
0000
0010
0000
,  // measure 21
0000
0000
1000
0000
,  // measure 22
0001
0000
0100
0100
,  // measure 23
0100
0000
1001
0000
,  // measure 24
0000
0000
0110
0000
,  // measure 25
0000
0000
0100
0000
,  // measure 26
0010
0000
1001
0000
,  // measure 27
0110
0000
1000
0000
,  // measure 28
0000
0000
0001
0000
,  // measure 29
0000
0000
0010
0000
,  // measure 30
0001
0000
0100
0010
,  // measure 31
0100
0000
0010
0000
,  // measure 32
1000
0000
0001
0000
,  // measure 33
0000
0000
0100
0000
,  // measure 34
0001
0000
0010
0000
,  // measure 35
0000
0000
0100
0000
,  // measure 36
0010
0000
0001
0000
,  // measure 37
0000
0000
1000
0000
,  // measure 38
0001
0000
0100
0000
,  // measure 39
0010
0000
2002
0000
,  // measure 40
0000
0000
3003
0000
,  // measure 41
0000
0000
1000
0000
,  // measure 42
0000
0000
0001
0000
,  // measure 43
0010
0000
0100
0000
,  // measure 44
0000
0000
0010
0000
,  // measure 45
0001
0000
1000
0000
,  // measure 46
0000
0000
0100
0000
,  // measure 47
1000
0000
0010
0000
,  // measure 48
0000
0100
0000
0100
,  // measure 49
0100
0000
0000
0010
,  // measure 50
0000
0000
1000
0001
,  // measure 51
1000
0000
0110
0000
,  // measure 52
0010
0000
0000
0100
,  // measure 53
0001
0000
0000
0010
,  // measure 54
0010
0001
1000
0001
,  // measure 55
0100
0001
0010
0000
,  // measure 56
0100
0000
1000
0000
,  // measure 57
0000
0001
1000
0000
,  // measure 58
0010
0000
0100
0000
,  // measure 59
0000
0000
0010
0000
,  // measure 60
1000
0000
0001
1000
,  // measure 61
0001
0000
0010
0000
,  // measure 62
0001
0000
0100
0000
,  // measure 63
0010
0000
2002
0000
,  // measure 64
0000
0000
0000
0000
,  // measure 65
3003
0000
1000
0000
,  // measure 66
0001
0000
0100
0000
,  // measure 67
0000
0000
0010
0000
,  // measure 68
1000
0000
0100
0000
,  // measure 69
0000
0000
0010
0000
,  // measure 70
0001
0000
0100
0000
,  // measure 71
0010
2000
3100
0000
;

//---------------dance-single - ----------------
#NOTES:
     dance-single:
     :
     Challenge:
     16:
     0.722657,0.923328,0.374052,0.463111,0.694667,568.000000,526.000000,42.000000,52.000000,0.000000,0.000000,0.722657,0.923328,0.374052,0.463111,0.694667,568.000000,526.000000,42.000000,52.000000,0.000000,0.000000:
// measure 0
0000
0000
0000
0000
,  // measure 1
0000
0000
0000
0000
,  // measure 2
0000
0000
0000
0000
,  // measure 3
0000
0000
0000
0000
,  // measure 4
1000
0200
0000
0310
0100
0020
0000
0130
,  // measure 5
0010
0001
1000
0000
0200
0000
2300
0000
,  // measure 6
3010
1000
0000
0010
0100
0001
0010
0100
,  // measure 7
2200
0000
3000
0000
0300
0000
0000
0000
1000
0001
0010
0001
1000
0001
0000
0200
,  // measure 8
0000
0000
0310
0000
1000
0000
0010
0000
1000
0100
0010
0100
1000
0001
0100
0010
,  // measure 9
0100
0001
0100
0020
0000
0130
0001
0010
0100
0010
0001
1000
0010
0100
0000
0002
,  // measure 10
0000
0000
1003
0000
0100
0000
0010
0000
0100
1000
0010
0000
0100
0001
0000
0010
,  // measure 11
0100
0000
0010
0001
0000
0010
0100
1000
0001
1000
0100
1000
0010
0100
0000
0020
,  // measure 12
0000
0000
0130
0000
0001
0000
1000
0000
0100
0010
0100
1000
0010
0100
0001
0010
,  // measure 13
0100
0010
0100
2000
0000
3001
0010
0100
1000
0100
1000
0010
0100
0001
0000
0020
,  // measure 14
0000
0000
0130
0000
1000
0000
0010
0000
0100
0010
1000
0000
0001
0010
0000
0010
,  // measure 15
0100
0000
0000
0000
0000
0000
0100
0000
0000
1000
0000
0000
0010
0000
0100
0000
0010
0000
0100
0000
0010
0000
0100
0000
0010
0000
0000
0000
0000
0000
0000
0000
0000
0000
0000
0000
1000
0000
0000
0000
0000
0000
0001
0000
0000
0000
0000
0000
,  // measure 16
0010
1000
0010
0100
1000
0100
0001
0100
,  // measure 17
0000
0000
0010
0001
2100
0000
0010
0000
,  // measure 18
3001
0010
1000
0010
0210
0000
2300
0000
,  // measure 19
3020
0000
0000
0000
0130
0000
1001
0000
0001
0100
0001
0000
0100
0000
0010
1000
,  // measure 20
0000
0100
0000
0010
0100
0000
1000
0000
0010
1000
0010
0000
0100
0000
0001
0010
,  // measure 21
0000
0001
0000
1000
0100
0000
0010
0000
0200
0000
0000
0000
2300
0000
0000
0000
,  // measure 22
3010
0001
0020
0000
0130
0001
0020
0000
,  // measure 23
0100
0130
0000
0000
1001
0000
0000
0001
,  // measure 24
0100
1000
0010
0000
1001
0000
0000
1000
,  // measure 25
0100
0001
0010
0000
1000
1000
0001
0010
,  // measure 26
0110
0000
0011
0000
2100
0000
0000
3100
,  // measure 27
1100
0000
0000
0000
1001
0000
0000
1000
,  // measure 28
0100
0001
0010
0000
1001
0000
0000
0001
,  // measure 29
0100
1000
0001
0000
1000
0100
1000
0010
,  // measure 30
0100
0001
1000
0000
0001
0002
1000
2003
,  // measure 31
0002
3003
2010
0001
,  // measure 32
3010
0100
1000
0200
0000
0001
0000
0310
,  // measure 33
0000
0000
0100
0001
0011
0010
1000
0010
,  // measure 34
0100
1000
0000
0012
0000
0103
0001
0010
,  // measure 35
1000
0010
0000
0000
1020
0000
0100
0000
,  // measure 36
1030
0100
0001
0102
0000
0203
0000
0020
,  // measure 37
0000
0330
0001
0010
1000
0010
0100
1000
,  // measure 38
0010
0100
0000
1001
0000
1010
0000
0101
,  // measure 39
0000
0011
0000
0220
0000
0000
0000
0000
,  // measure 40
0000
0000
0330
0100
1001
0000
0000
0000
,  // measure 41
0110
0000
0000
0000
1001
0000
0000
0000
0001
0100
0010
0100
0001
1000
0000
0200
,  // measure 42
0000
0000
0310
0000
0100
0000
1000
0000
0001
1000
0010
1000
0001
0010
0100
0010
,  // measure 43
0001
1000
0100
2000
0000
3001
0010
0100
1000
0100
1000
0010
0100
0010
0000
0200
,  // measure 44
0000
0000
0301
0000
0010
0000
0001
0000
1000
0001
0100
0001
0010
0100
0010
0001
,  // measure 45
1000
0100
0010
0200
0000
0310
0100
1000
0001
0100
0001
0010
0100
0010
0100
2000
,  // measure 46
0000
0000
3001
0000
0010
0000
0100
0000
0010
0001
0100
0000
0010
1000
0000
0100
,  // measure 47
0010
0000
0000
0000
0000
0000
0001
0000
0000
0100
0000
0000
0010
0000
1000
0000
0010
0000
1000
0000
0010
0000
1000
0000
0002
0000
0000
0000
0000
0000
0000
0000
0000
0000
0000
0000
0003
0000
0000
0000
0000
0000
0000
0000
0000
0000
0000
0000
,  // measure 48
0000
0000
0001
0010
0000
0001
0010
0000
0000
0000
0010
0001
0000
0001
0010
0000
,  // measure 49
0100
0000
0000
0000
0000
0010
0100
0100
,  // measure 50
0010
0000
0000
0000
1001
0000
0000
0000
0001
1000
0100
0010
0000
0010
0100
0000
,  // measure 51
1000
0000
0000
0000
0000
0000
0000
0000
0000
0000
0000
0000
0000
0000
0000
0000
0000
0000
0000
0000
0000
0000
0000
0000
0000
0000
0000
0000
0000
0000
0011
0000
0000
0000
0000
0000
0000
0000
0000
0100
0000
0000
1000
0000
0100
0000
1000
0000
,  // measure 52
0100
1000
0100
0010
0001
1000
0001
0000
0000
0000
0100
0001
0000
0001
0100
0000
,  // measure 53
0110
0000
0000
0000
0000
0000
0000
0000
0000
0000
0100
0000
0010
0100
0010
0000
,  // measure 54
0100
0010
1000
0001
1000
0001
1000
0000
1000
0001
0010
0100
0000
0100
0010
0000
,  // measure 55
0011
1010
1002
0100
,  // measure 56
0013
1000
0010
0210
0000
2300
0000
3010
,  // measure 57
0000
0000
0100
1000
1100
0100
0001
0010
,  // measure 58
0100
1000
0000
2001
0000
3010
0100
1000
,  // measure 59
0001
1001
0000
0000
0210
0000
0001
0000
,  // measure 60
0310
1000
0100
0120
0000
0001
0000
0130
,  // measure 61
0000
0000
0010
0100
0010
0010
0001
1000
,  // measure 62
0010
1000
0000
1001
0000
1010
0000
0101
,  // measure 63
0000
0011
0000
0220
0000
0000
0000
0000
,  // measure 64
0000
0000
0000
0000
0000
0000
0330
0000
0001
1000
0010
0000
0100
0001
0000
0010
,  // measure 65
0100
0000
0010
0001
0000
0010
0001
0100
0010
1000
0001
0010
0100
1000
0000
0002
,  // measure 66
0000
0000
1003
0000
0001
0000
0010
0000
0100
0010
0001
0100
0010
1000
0001
0010
,  // measure 67
0100
0010
0001
2000
0000
3001
0010
0100
1000
0100
1000
0010
0100
0001
0000
2000
,  // measure 68
0000
0000
3100
0000
1000
0000
0010
0000
0100
0001
0010
0100
0010
0001
1000
0010
,  // measure 69
0100
0010
1000
0002
0000
0013
0100
1000
0001
0100
0001
0010
0001
1000
0000
0200
,  // measure 70
0000
0000
0310
0000
0100
0000
1000
0000
0001
0100
0010
1000
0010
0100
0001
0010
,  // measure 71
0100
0000
0000
1000
0000
0000
0010
0000
0000
0100
0000
0000
0001
0000
1000
0000
0001
0000
1000
0000
0001
0000
1000
0000
0010
0000
0000
0000
0000
0000
0000
0000
0000
0000
0000
0000
0000
0000
0000
0000
0000
0000
0000
0000
0000
0000
0000
0000
;
