#VERSION:0.83;
#TITLE:New World;
#SUBTITLE:(feat. Rogue);
#ARTIST:HOAPROX;
#TITLETRANSLIT:;
#SUBTITLETRANSLIT:;
#ARTISTTRANSLIT:;
#GENRE:DRUMSTEP;
#ORIGIN:;
#CREDIT:;
#BANNER:banner.jpg;
#BACKGROUND:background.png;
#PREVIEWVID:;
#JACKET:jacket.png;
#CDIMAGE:;
#DISCIMAGE:;
#LYRICSPATH:;
#CDTITLE:;
#MUSIC:New World (feat. Rogue).ogg;
#OFFSET:2.710000;
#SAMPLESTART:81.995880;
#SAMPLELENGTH:22.941177;
#SELECTABLE:YES;
#BPMS:0.000=85.000,
92.000=170.000,
116.000=85.000,
117.000=170.000,
179.000=85.000,
180.000=170.000;
#STOPS:;
#DELAYS:;
#WARPS:;
#TIMESIGNATURES:0.000=4=4;
#TICKCOUNTS:0.000=4;
#COMBOS:0.000=1;
#SPEEDS:0.000=1.000=0.000=0;
#SCROLLS:0.000=1.000;
#FAKES:;
#LABELS:0.000=Song Start;
#BGCHANGES:;
#KEYSOUNDS:;
#ATTACKS:
;

//---------------dance-single - ----------------
#NOTEDATA:;
#CHARTNAME:;
#STEPSTYPE:dance-single;
#DESCRIPTION:;
#CHARTSTYLE:;
#DIFFICULTY:Hard;
#METER:12;
#RADARVALUES:0.471232,0.715610,0.499791,0.136307,0.222634,363.000000,308.000000,55.000000,15.000000,0.000000,0.000000,0.000000,0.000000,0.000000,0.471232,0.715610,0.499791,0.136307,0.222634,363.000000,308.000000,55.000000,15.000000,0.000000,0.000000,0.000000,0.000000,0.000000;
#CREDIT:Pandemonium X;
#NOTES:
0000
0000
0000
0000
,
0000
0000
0000
0000
,
0000
0000
0000
0000
,
0000
0000
0000
0000
,
0000
0000
0000
0000
,
0000
0000
0000
0000
,
0001
0100
0001
0000
0100
0010
0100
0000
0010
1000
0010
0000
1000
0001
1000
0000
,
0001
0100
0010
0000
1000
0100
0010
0000
0100
1000
0010
0000
0100
0010
1000
0000
,
0001
0010
0001
0000
0010
0100
0010
0000
0100
1000
0100
0000
1000
0010
1000
0000
,
0010
0100
0001
0000
0010
0100
1000
0000
0100
0010
0001
0000
0010
0001
1000
0000
,
0100
1000
0100
0000
1000
0010
1000
0000
0010
0100
0010
0000
0100
0001
0100
0000
,
0001
0100
1000
0000
1000
0100
0010
0000
1000
0010
0001
0000
0001
0010
0100
0000
,
0010
1000
0010
0000
0100
0001
0100
0000
0001
0010
0001
0000
1000
0100
1000
0000
,
1000
0100
0001
0000
0001
0100
0010
0000
0010
0001
1000
0000
1000
0010
0001
0000
,
2010
0000
0000
0000
0001
0000
0000
0000
3100
0000
0000
0001
1000
0010
0000
0000
,
0100
0000
0001
0000
0010
0000
1100
0000
0000
0000
0000
0010
0001
0002
0000
0003
,
0000
0000
0000
1000
1001
0110
0202
0000
,
0303
0000
0000
0001
1001
0110
2200
3300
,
1001
1000
0010
0001
0010
1000
0010
0100
,
1000
0100
0001
0100
0010
1000
0001
0010
,
0100
0010
0100
0010
1000
0001
1000
0001
0100
0001
0100
0001
1000
0010
1000
0010
,
0100
1000
0100
0001
0010
0000
0100
0000
1001
0000
1010
0000
0010
1000
0200
0000
,
0310
0000
0000
0000
0100
1000
0010
0000
0010
0000
0010
0100
0001
0000
0110
0000
,
1001
0000
1000
0000
0100
1000
0010
0000
,
0101
0000
0100
0001
0010
0000
1100
0000
,
1001
0000
1000
0000
0001
0010
0100
0000
,
0110
0000
0100
1000
0010
0000
0110
0000
,
1001
0000
1000
0001
0100
1000
0100
0001
,
1000
0000
0001
1000
0010
0001
0010
1000
,
0200
0000
0310
0001
0100
0000
0110
0000
,
0001
0100
0010
0000
1010
0000
1001
0000
,
0000
0000
1000
0001
0010
0000
0110
0000
,
0010
0001
0100
0000
0101
0000
1001
0000
,
0000
0000
1000
0001
0010
0000
0110
0000
,
0010
0001
1000
0000
1001
0000
0011
0000
,
0000
0000
0001
0010
0110
0000
1100
0000
,
1000
0001
0100
0000
0110
0000
1002
0000
,
0103
0020
1030
0200
,
0310
0100
1000
0001
0000
0000
1001
0000
,
0101
0011
0110
0000
,
0000
0010
0100
0200
0000
0000
0310
0000
,
0000
0000
0100
0010
0001
0000
0011
0000
,
0001
0010
0100
0000
0110
0000
1100
0000
,
0000
0000
1000
0010
0100
0000
0110
0000
,
0100
0010
1000
0000
1001
0000
0102
0000
,
0013
0100
1000
0000
1100
0000
1000
0001
,
0100
0002
0000
0003
0011
0000
1100
0000
,
0101
0000
1001
0000
0000
0000
0000
0001
,
1000
2000
0000
0000
3100
0000
0000
0000
,
0010
0001
0100
0000
0110
0000
0100
0001
,
1000
1001
1010
0000
,
1000
0010
0110
0000
1001
0000
0001
0010
,
0110
1001
0110
0000
;

//---------------dance-single - ----------------
#NOTEDATA:;
#CHARTNAME:;
#STEPSTYPE:dance-single;
#DESCRIPTION:;
#CHARTSTYLE:;
#DIFFICULTY:Easy;
#METER:5;
#RADARVALUES:0.196022,0.262390,0.027261,0.163568,0.000000,151.000000,148.000000,3.000000,18.000000,0.000000,0.000000,0.000000,0.000000,0.000000,0.196022,0.262390,0.027261,0.163568,0.000000,151.000000,148.000000,3.000000,18.000000,0.000000,0.000000,0.000000,0.000000,0.000000;
#CREDIT:Pandemonium X;
#NOTES:
0000
0000
0000
0000
,
0000
0000
0000
0000
,
0000
0000
0000
0000
,
0000
0000
0000
0000
,
0000
0000
0000
0000
,
0000
0000
0000
0000
,
1000
0100
1000
0100
,
0010
0001
0010
0001
,
1000
0001
1000
0001
,
0100
0010
0100
0010
,
2000
3010
0200
0301
,
1000
0100
0010
0100
,
2000
3100
0002
0013
,
1000
0001
1000
0010
,
0110
0100
0001
1000
,
0001
1000
0001
1000
0000
0000
0020
0000
,
0030
0000
0100
0002
,
0003
0000
0010
0200
,
1300
0100
0010
0001
,
1000
0010
1000
0010
0000
0000
0200
0000
,
0300
0000
0010
1000
,
1001
0000
0100
0010
,
1001
0000
1000
0000
0001
0000
0100
0001
,
0010
0000
0100
0010
,
0001
1000
0010
0100
,
0001
0000
1000
0001
,
0010
0001
1000
0100
,
0010
0200
2300
3010
,
0000
0020
0230
0301
,
1000
0001
1000
0010
,
1000
0100
0010
0100
,
0000
0010
0001
0100
,
0001
1000
0100
0010
,
0000
0100
0010
0001
,
0100
0010
1000
0001
,
0000
1000
0001
0100
,
1000
0100
0001
1000
,
0000
0001
0000
0010
,
0000
0100
0000
0010
,
0001
1000
0010
0000
,
0000
0000
0200
0000
0000
0300
0000
0000
,
0000
0000
0010
1000
,
0001
0020
0000
0030
,
0000
0000
0100
1000
,
0001
0200
0000
0301
,
0010
0000
0100
0000
,
0010
0000
0100
1000
,
0010
0100
0000
0000
,
0002
0000
0003
0000
,
0000
1000
0001
0100
,
0020
0000
0030
0000
,
0000
0100
0001
1000
,
0020
0000
0130
0000
;

//---------------dance-single - ----------------
#NOTEDATA:;
#CHARTNAME:;
#STEPSTYPE:dance-single;
#DESCRIPTION:;
#CHARTSTYLE:;
#DIFFICULTY:Medium;
#METER:7;
#RADARVALUES:0.298576,0.357805,0.272613,0.236265,0.009087,230.000000,200.000000,30.000000,26.000000,0.000000,0.000000,0.000000,0.000000,0.000000,0.298576,0.357805,0.272613,0.236265,0.009087,230.000000,200.000000,30.000000,26.000000,0.000000,0.000000,0.000000,0.000000,0.000000;
#CREDIT:Pandemonium X;
#NOTES:
0000
0000
0000
0000
,
0000
0000
0000
0000
,
0000
0000
0000
0000
,
0000
0000
0000
0000
,
0000
0000
0000
0000
,
0000
0000
0000
0000
,
1000
0000
0001
0000
0100
0001
0010
0000
,
0100
0000
0010
0000
0100
1000
0010
0001
,
0010
0000
0100
0000
0010
1000
0100
0000
,
0010
0000
0100
0000
1000
0000
0001
1000
,
0020
2030
3200
0320
,
0031
0000
0010
0000
0100
0010
0001
1000
,
0010
0000
0100
0000
1000
0100
0001
0010
,
0100
0010
0001
1000
,
1002
1000
0100
0010
,
1003
0001
1000
0001
0000
0000
0200
0000
,
0300
0000
0000
0010
1000
0100
0020
0000
,
0030
0000
0000
0100
0010
0001
2000
3001
,
2000
3002
0203
0302
,
0013
0100
1000
0001
0000
0000
0020
0000
,
0030
0000
0000
0100
1000
0010
0002
0000
,
0003
0000
0000
0001
0010
1000
0200
0000
,
0310
0000
0000
0000
0100
1000
0001
0000
0100
0000
0010
1000
0001
0000
1000
0000
,
0110
0000
0000
0000
0100
0001
0010
0000
,
0100
0000
0010
0100
1000
0000
0100
0000
,
1000
0000
0000
0000
0100
1000
0010
0000
,
0100
0000
0001
1000
0010
0000
0100
0000
,
0001
0000
2000
0000
3002
0000
1000
0003
,
0000
2000
3002
2003
,
3001
0000
0100
0010
1000
0000
0010
0000
,
0100
0001
1000
0000
0001
0000
0010
0000
,
0000
0000
0100
0010
0001
0000
0010
0000
,
0100
1000
0010
0000
0100
0000
0001
0000
,
0000
0000
0100
0001
1000
0000
0010
0000
,
1000
0100
0010
0000
0100
0000
1001
0000
,
0000
0000
0001
0100
0010
0000
0110
0000
,
0100
0010
1000
0000
1010
0000
0102
0000
,
0013
1100
0010
0001
,
0100
0010
1000
0001
0000
0000
1100
0000
,
0011
1100
0011
0000
,
0000
0001
1000
2000
0000
0000
3000
0000
,
0000
0000
0101
1010
,
1100
0022
0000
0033
,
0000
0000
0101
1010
,
1100
0000
0012
0000
0010
0003
0100
0000
,
1000
0000
0000
0000
0100
0000
0000
1000
,
0010
0100
0000
0000
0110
0000
1001
0000
,
1001
0000
0110
0000
0000
0000
0000
0100
,
0010
2000
0000
0000
3001
0000
0000
0000
,
0001
1000
0100
0000
1000
0000
0010
0100
,
0010
0100
1001
0000
,
0000
0101
1010
1100
,
0011
0110
1001
0000
;

//---------------dance-single - ----------------
#NOTEDATA:;
#CHARTNAME:;
#STEPSTYPE:dance-single;
#DESCRIPTION:;
#CHARTSTYLE:;
#DIFFICULTY:Beginner;
#METER:3;
#RADARVALUES:0.112940,0.166976,0.018174,0.000000,0.000000,87.000000,85.000000,2.000000,0.000000,0.000000,0.000000,0.000000,0.000000,0.000000,0.112940,0.166976,0.018174,0.000000,0.000000,87.000000,85.000000,2.000000,0.000000,0.000000,0.000000,0.000000,0.000000,0.000000;
#CREDIT:Pandemonium X;
#NOTES:
// measure 0
0000
0000
0000
0000
,  // measure 1
0000
0000
0000
0000
,  // measure 2
0000
0000
0000
0000
,  // measure 3
0000
0000
0000
0000
,  // measure 4
0000
0000
0000
0000
,  // measure 5
0000
0000
0000
0000
,  // measure 6
1000
0000
0000
0000
,  // measure 7
0001
0000
0000
0000
,  // measure 8
0100
0000
0000
0000
,  // measure 9
0010
0000
0000
0000
,  // measure 10
1000
0100
0010
0001
,  // measure 11
0000
0000
1000
0000
,  // measure 12
0000
0000
0001
0000
,  // measure 13
0000
0000
0000
0000
,  // measure 14
0100
0010
1000
0001
,  // measure 15
1001
0000
0000
0000
,  // measure 16
1000
0000
0000
0000
,  // measure 17
0001
0000
0000
0000
,  // measure 18
0100
0000
0010
0000
,  // measure 19
1000
0001
0010
0000
,  // measure 20
0100
0000
0000
0000
,  // measure 21
0010
0000
0001
0000
,  // measure 22
1000
0001
0100
0010
,  // measure 23
1000
0000
0100
0000
,  // measure 24
1000
0000
0010
0000
,  // measure 25
0100
0000
0010
0000
,  // measure 26
1000
0000
0001
0000
,  // measure 27
0000
0010
0001
0010
,  // measure 28
0000
0100
1000
0100
,  // measure 29
0000
1000
0000
0001
,  // measure 30
0000
0100
0000
0010
,  // measure 31
0000
0100
0000
0001
,  // measure 32
0000
1000
0000
0100
,  // measure 33
0000
1000
0000
0010
,  // measure 34
0000
0100
0000
1001
,  // measure 35
0000
0001
0000
1000
,  // measure 36
0000
0010
0000
1000
,  // measure 37
0000
0100
0000
0010
,  // measure 38
0000
0001
0000
1000
,  // measure 39
1000
0001
0001
0000
,  // measure 40
0000
0100
0000
0000
,  // measure 41
0000
0000
0000
0010
,  // measure 42
0000
1000
0000
0000
,  // measure 43
0000
0000
0000
0001
,  // measure 44
0000
0100
0000
0010
,  // measure 45
1000
0000
0100
0000
,  // measure 46
0010
0000
0100
1000
,  // measure 47
0010
0100
0000
0000
,  // measure 48
0001
0000
0000
0000
,  // measure 49
0000
0000
1000
0000
,  // measure 50
0001
0000
0000
0000
,  // measure 51
0000
0000
0010
0000
,  // measure 52
0001
0000
0100
0000
;
