#TITLE:Mächö Mönky;
#SUBTITLE:;
#ARTIST:kors k;
#TITLETRANSLIT:;
#SUBTITLETRANSLIT:;
#ARTISTTRANSLIT:;
#GENRE:JUNGLE TERROR;
#CREDIT:;
#BANNER:banner.png;
#BACKGROUND:background.png;
#LYRICSPATH:;
#CDTITLE:CDTITLE.png;
#MUSIC:Macho Monky.ogg;
#OFFSET:-0.001000;
#SAMPLESTART:25.619999;
#SAMPLELENGTH:12.800003;
#SELECTABLE:YES;
#BPMS:0.000000=150.000000
;
#STOPS:28.000000=1.200000
;
#BGCHANGES:0.000=Macho Monky.avi=1.000=1=0=1===CrossFade==,
99999=-nosongbg-=1.000=0=0=0 // don't automatically add -songbackground-
;
#KEYSOUNDS:;
#ATTACKS:;

//---------------dance-single - ----------------
#NOTES:
     dance-single:
     :
     Hard:
     16:
     0.764285,1.050529,0.643354,0.067721,0.685679,632.000000,556.000000,76.000000,8.000000,0.000000,0.000000,0.764285,1.050529,0.643354,0.067721,0.685679,632.000000,556.000000,76.000000,8.000000,0.000000,0.000000:
// measure 0
0000
0000
0000
0000
,  // measure 1
0000
0000
0000
0000
,  // measure 2
0000
0000
0000
0000
,  // measure 3
0000
0000
0000
0000
,  // measure 4
1000
0010
1000
0010
1010
0000
1010
0000
,  // measure 5
0001
0010
0001
0010
0011
0000
0000
0000
,  // measure 6
0010
0100
0010
0100
0110
0000
0110
0000
,  // measure 7
2002
3003
0000
0000
0000
0000
0000
0000
1000
0000
0000
0000
0100
0000
0000
0000
1000
0000
0000
0000
0010
0000
0000
0000
1010
0000
0000
0000
0000
0000
0000
0000
,  // measure 8
1100
0000
0001
0100
0001
0010
0011
0000
,  // measure 9
0000
0000
0001
0010
0100
0010
0011
0000
,  // measure 10
0101
0000
0010
1000
0100
1000
1010
0000
,  // measure 11
0110
0000
1000
0100
0001
0100
1100
0000
,  // measure 12
0101
0000
0001
0010
1000
0010
0011
0000
,  // measure 13
0000
0000
0001
0010
1000
0010
0011
0000
,  // measure 14
1010
0000
0000
0000
0100
0000
0000
1000
0000
0000
0010
0100
0000
0000
0010
0000
,  // measure 15
1001
0000
0000
0000
1000
0000
0001
0000
0010
0000
0100
0000
1100
0000
0000
0100
,  // measure 16
0000
0100
0000
0000
0010
0000
0100
0000
0010
0000
0001
0000
1001
0000
0000
0001
,  // measure 17
0000
0000
1000
0000
0001
0000
0100
0000
0001
0000
0010
0000
0110
0000
0000
0010
,  // measure 18
0000
0010
0000
0000
0100
0000
0010
0000
0001
0000
1000
0000
1010
0000
0000
1000
,  // measure 19
0000
0000
0001
0000
0010
0000
1000
0000
0010
0000
0100
0000
1100
0000
0000
0001
,  // measure 20
0000
0001
0000
0000
1000
0000
0010
0000
0001
0000
0010
0000
0110
0000
0000
0100
,  // measure 21
0000
0000
0001
0000
1000
0000
0100
0000
0001
0000
0100
0000
0110
0000
0000
0001
,  // measure 22
0000
0001
0000
0000
1000
0000
0001
0000
1000
0000
0001
0000
1001
0000
0000
0000
,  // measure 23
0000
2100
0010
0100
,  // measure 24
0010
0100
0010
3001
,  // measure 25
1001
0102
0010
0100
,  // measure 26
0010
0100
0010
1003
,  // measure 27
1001
2001
0010
0100
,  // measure 28
0010
0100
0010
3001
,  // measure 29
1001
0102
0010
0100
,  // measure 30
0010
0100
0010
0103
,  // measure 31
1001
0000
1000
0100
0010
0001
0011
0010
,  // measure 32
0100
1000
1100
0100
0010
0001
1001
0000
,  // measure 33
0110
0000
0101
0001
0100
0010
1010
1000
,  // measure 34
0010
0100
0101
0001
0100
0010
1010
0000
,  // measure 35
1001
0000
0001
0100
1001
1000
1001
0001
,  // measure 36
1001
1000
1001
0001
1001
1000
1001
0001
,  // measure 37
1001
1000
1001
0001
1001
1000
1001
0001
,  // measure 38
1001
1000
1001
0010
1001
0010
1001
0000
,  // measure 39
0000
0000
0000
0000
0000
0000
0000
0000
1000
0010
0000
0000
0100
0000
0000
0001
0000
0000
0010
0000
0100
1000
0000
1000
,  // measure 40
0001
0000
0001
1000
0000
0000
0010
0000
1000
0010
0000
0010
0100
0000
0100
0001
0000
0001
0010
0000
0010
0100
0000
0100
,  // measure 41
1000
0000
1000
0001
0000
0000
0000
0000
1000
0001
0000
0000
0100
0000
0000
0010
0000
1000
0000
0000
0100
0000
0000
0010
,  // measure 42
0001
0000
0000
0100
0000
0000
0010
0000
0000
0100
0000
0001
0010
0000
0010
0100
0000
0100
1000
0000
0000
0000
0000
0000
,  // measure 43
1001
0000
0000
0000
0000
0000
0000
0000
1000
0001
0000
0000
0100
0000
0000
0001
0000
0000
0010
0000
0001
0010
0000
0010
,  // measure 44
0100
0000
0100
0010
0000
0010
0001
0000
1000
0001
0000
0001
0100
0000
0100
0010
0000
0010
1000
0000
1000
0001
0000
0001
,  // measure 45
0010
0000
0000
0000
0000
0000
0100
0000
0010
0001
0000
1000
0001
0000
0000
0100
0000
0001
0000
0000
0010
0100
0000
0100
,  // measure 46
1000
0001
1000
0100
0001
0100
1000
0000
,  // measure 47
1001
0000
0000
0000
0000
0000
0000
0000
0001
0100
0000
0000
0010
0000
0000
1000
0000
0000
0001
0000
1000
0001
0000
0001
,  // measure 48
0100
0000
0100
0001
0000
0001
0010
0000
0000
0100
1000
0100
1000
0000
0000
0001
0000
0000
0100
0000
0000
0010
0100
0010
,  // measure 49
0100
0000
0000
0000
0000
0000
0000
0000
1000
0010
1000
0010
1000
0000
0000
0001
0000
0010
0000
0000
0010
0001
0000
0000
,  // measure 50
1000
0000
0000
0001
0000
0000
1000
0000
0001
1000
0001
1000
0001
0000
0000
1000
0000
0001
1000
0001
1000
0001
0000
0000
,  // measure 51
1001
0000
0000
0000
0000
0000
0000
0000
1000
0010
0000
0000
0100
0000
0000
0010
0000
0100
0001
0000
0001
1000
0000
1000
,  // measure 52
0001
0000
0001
1000
0000
0000
1000
0000
1000
0100
0000
0100
0010
0000
0010
0001
0000
0001
0100
0000
0100
0010
0000
0010
,  // measure 53
1000
0000
0000
0000
0001
1000
0001
1000
0001
1000
0001
1000
0001
1000
0001
1000
,  // measure 54
0001
1000
0001
1000
1001
0000
0010
0000
1001
0000
0010
0000
1001
0000
0000
0000
,  // measure 55
0000
0000
0000
0000
0101
0000
0010
0000
0000
0000
1000
0001
1000
0001
1000
0001
,  // measure 56
1000
0001
0000
0000
1100
0000
0010
0000
0000
0000
0001
0100
0001
0100
0001
0100
,  // measure 57
0001
0100
0000
0000
0110
0000
0001
0000
0000
0000
1000
0010
1000
0010
1000
0010
,  // measure 58
1000
0010
0000
0000
0110
0000
1000
0000
0000
0000
0001
0010
0001
0010
0001
0010
,  // measure 59
0001
0010
0000
0000
1001
0000
0000
0001
0000
0000
0100
0001
0010
0001
0100
0001
,  // measure 60
0010
0001
0000
0000
1001
0000
0000
1000
0000
0000
0010
1000
0100
1000
0010
1000
,  // measure 61
0100
1000
0000
0000
1001
0000
0000
1010
0000
0000
1000
0001
0010
0100
1000
0100
,  // measure 62
0010
0001
0000
0000
1000
0000
0001
0100
0000
1000
0100
0000
0001
0100
0000
1000
,  // measure 63
0100
0000
0000
0000
0110
0000
0000
0100
1000
0000
0010
0000
1000
0000
0001
0000
,  // measure 64
0011
0000
0100
0000
0010
0000
0000
0001
0010
0000
0001
0000
1000
0000
0100
0000
,  // measure 65
0000
0000
0000
0000
0010
0000
0000
0001
0000
0000
1000
0000
0010
0000
1000
0000
,  // measure 66
0110
0000
0010
0000
0001
1000
0100
1000
0001
0100
0001
1000
0100
1000
0001
0100
,  // measure 67
0010
0000
0000
0000
1000
0001
0000
0100
0010
1000
0000
0100
0010
0001
0000
0010
,  // measure 68
0100
1000
0000
0010
1000
0001
0000
0010
1000
0100
0000
0010
0001
1000
0000
0001
,  // measure 69
0100
0010
0000
1000
0001
0000
1000
0001
0100
0000
0001
1000
0010
0000
1000
0100
,  // measure 70
0010
0000
0000
0000
0000
0000
0100
0000
0000
0010
0000
0000
0001
0000
1000
0000
0001
0000
1000
0000
0001
0000
1000
0000
0001
0000
1000
0000
0001
0000
1000
0000
0001
0000
1000
0000
0001
0000
1000
0000
0001
0000
1000
0000
0001
0000
1000
0000
,  // measure 71
0001
0220
0000
0000
,  // measure 72
0000
0000
0000
0000
,  // measure 73
0330
0000
0000
0000
;

//---------------dance-single - ----------------
#NOTES:
     dance-single:
     :
     Medium:
     13:
     0.551446,0.710652,0.313212,0.067721,0.143908,456.000000,419.000000,37.000000,8.000000,0.000000,0.000000,0.551446,0.710652,0.313212,0.067721,0.143908,456.000000,419.000000,37.000000,8.000000,0.000000,0.000000:
// measure 0
0000
0000
0000
0000
,  // measure 1
0000
0000
0000
0000
,  // measure 2
0000
0000
0000
0000
,  // measure 3
0000
0000
0000
0000
,  // measure 4
1000
1000
0011
0011
,  // measure 5
1000
1000
0011
0000
,  // measure 6
0001
0001
1010
1010
,  // measure 7
0200
0300
0000
0000
0010
0000
1000
0000
0010
0000
1000
0000
0100
0000
0000
0000
,  // measure 8
0100
0000
0010
0001
0010
0001
0100
0000
,  // measure 9
0000
0000
0010
0100
0010
0100
0001
0000
,  // measure 10
0001
0000
1000
0010
1000
0010
0001
0000
,  // measure 11
1010
0000
0001
0010
0001
0010
0100
0000
,  // measure 12
0100
0000
1000
0010
1000
0010
0100
0000
,  // measure 13
0000
0000
0001
1000
0001
1000
0010
0000
,  // measure 14
0010
0000
0000
0000
0100
0000
0000
0001
0000
0000
0010
0000
0000
0000
0100
0000
,  // measure 15
1001
0000
1000
0001
1000
0001
1001
0000
,  // measure 16
1001
0000
0001
1000
0001
1000
1001
0000
,  // measure 17
0000
0000
0001
0100
0001
0100
0101
0000
,  // measure 18
0101
0000
1000
0010
1000
0010
1010
0000
,  // measure 19
1001
0000
1000
0100
1000
0100
1100
0000
,  // measure 20
1100
0000
0001
0010
0001
0010
0011
0000
,  // measure 21
0000
0000
0001
0100
0001
0100
0101
0000
,  // measure 22
0101
0000
0001
0100
1000
0100
0001
0000
,  // measure 23
0000
2100
0100
0100
,  // measure 24
0100
0100
0100
3100
,  // measure 25
0011
0201
0001
0001
,  // measure 26
0001
0001
0001
0301
,  // measure 27
1010
1002
1000
1000
,  // measure 28
1000
1000
1000
1003
,  // measure 29
1100
0210
0010
0010
,  // measure 30
0010
0010
0010
0310
,  // measure 31
1001
0000
1000
0100
0010
0001
0010
0001
,  // measure 32
0010
0001
0010
0001
0010
0001
0010
0000
,  // measure 33
1001
0000
0001
0010
0100
1000
0100
1000
,  // measure 34
0100
1000
0100
1000
0100
1000
0100
0000
,  // measure 35
1001
0000
1000
0100
0010
0001
0010
0001
,  // measure 36
0010
0001
1000
0100
1000
0100
1000
0100
,  // measure 37
1000
0100
1000
0010
0100
0001
1000
0010
,  // measure 38
0100
0001
1000
0010
0001
0010
1000
0000
,  // measure 39
0000
0000
0000
0000
0000
1000
0001
0000
1000
0000
0100
0000
1000
0000
1000
0000
,  // measure 40
0001
0100
0010
0010
0100
0001
0001
0001
,  // measure 41
1001
0000
0000
0000
0000
0000
1000
0000
0010
0000
0000
0100
0000
0001
0000
0010
,  // measure 42
0100
0000
0010
0000
0001
0000
1000
0000
0001
0000
0000
0100
0000
0000
0000
0000
,  // measure 43
1001
0000
0000
0000
0000
0001
1000
0000
0001
0000
0010
0000
0100
0000
0100
0000
,  // measure 44
0100
0010
0001
0001
1000
1000
0001
0100
,  // measure 45
0010
0000
0000
0000
0100
0000
0010
0000
1000
0000
0001
0010
0000
0100
0000
0010
,  // measure 46
0001
1000
0001
0100
1000
0100
0010
0000
,  // measure 47
1001
0000
0000
0000
0000
1000
0010
0000
0100
0000
0001
0000
0010
0000
0001
0000
,  // measure 48
0100
0001
0100
1000
0100
0001
0010
1000
,  // measure 49
0010
0000
0000
0000
0100
0000
0010
0000
0001
0010
0000
0001
0000
0100
0010
0000
,  // measure 50
1000
0000
0010
0000
1000
0001
1000
0000
0010
0000
1000
0001
1000
0000
0001
0000
,  // measure 51
1001
0000
0000
0000
0000
0001
0010
0000
0001
0000
0100
0000
0100
0000
0010
0000
,  // measure 52
1000
0100
0010
0001
0100
0010
1000
0001
,  // measure 53
1001
0000
0010
0100
0010
0100
0010
0100
,  // measure 54
0010
0100
0010
0100
0010
0100
0110
0000
,  // measure 55
0000
0000
1000
0100
0000
0010
0100
0100
,  // measure 56
0100
0000
0010
0001
0000
0100
0010
0010
,  // measure 57
0010
0000
1000
0001
0000
0010
0001
0001
,  // measure 58
0001
0000
1000
0100
0000
0010
0100
0100
,  // measure 59
0100
0000
0010
0001
0000
0100
0010
0010
,  // measure 60
0010
0000
0100
0001
0000
1000
0100
0100
,  // measure 61
0100
0000
0010
0001
0000
1000
0001
0001
,  // measure 62
0001
0000
0000
0100
0100
0100
0100
0100
,  // measure 63
1001
0000
0000
0000
0001
0000
0000
1000
0010
0000
1000
0000
0001
0000
0010
0000
,  // measure 64
0001
0000
1000
0000
0001
0000
0000
0100
0010
0000
0001
0000
0100
0000
0010
0000
,  // measure 65
0000
0000
0000
0000
1000
0000
0000
1000
0000
0000
0001
0000
0010
0000
0001
0000
,  // measure 66
0100
0002
0010
0100
,  // measure 67
1003
0000
0000
0000
0001
0000
0000
0001
0100
0000
0000
0100
0010
0000
0000
0010
,  // measure 68
1000
0000
0000
1000
0100
0000
0000
0100
0010
0000
0000
0010
0001
0000
0000
0001
,  // measure 69
0100
0000
0000
0100
0010
0000
1000
0000
0001
0000
0010
0000
0100
0000
0010
0000
,  // measure 70
0001
0000
0100
0000
0010
1000
0010
1000
0001
0100
0001
0100
0001
0010
0001
0010
,  // measure 71
0100
2002
0000
0000
,  // measure 72
0000
0000
0000
0000
,  // measure 73
3003
0000
0000
0000
;

//---------------dance-single - ----------------
#NOTES:
     dance-single:
     :
     Easy:
     7:
     0.371259,0.525264,0.524841,0.101582,0.000000,307.000000,245.000000,62.000000,12.000000,0.000000,0.000000,0.371259,0.525264,0.524841,0.101582,0.000000,307.000000,245.000000,62.000000,12.000000,0.000000,0.000000:
// measure 0
0000
0000
0000
0000
,  // measure 1
0000
0000
0000
0000
,  // measure 2
0000
0000
0000
0000
,  // measure 3
0000
0000
0000
0000
,  // measure 4
1000
1000
0001
0001
,  // measure 5
1000
1000
0001
0000
,  // measure 6
0001
0001
1000
1000
,  // measure 7
0110
0100
0010
1010
,  // measure 8
1010
0010
1000
1010
,  // measure 9
0000
0001
0100
0110
,  // measure 10
0110
0010
0010
0110
,  // measure 11
0000
0100
0001
0011
,  // measure 12
0011
0001
0001
0011
,  // measure 13
0000
0001
1000
1100
,  // measure 14
1100
0020
0000
0000
,  // measure 15
0030
1000
0001
0101
,  // measure 16
1010
0001
1000
1100
,  // measure 17
0000
1000
0001
0011
,  // measure 18
1100
0100
1000
1010
,  // measure 19
0110
0001
0010
0011
,  // measure 20
1100
0100
1000
1010
,  // measure 21
0000
0110
0100
0011
,  // measure 22
1100
0000
0001
1000
0001
1000
0001
0000
,  // measure 23
0000
0102
0100
0100
,  // measure 24
0100
0100
0100
0103
,  // measure 25
0000
2100
0100
0100
,  // measure 26
0100
0100
0100
3100
,  // measure 27
0000
1020
1000
1000
,  // measure 28
1000
1000
1000
1030
,  // measure 29
0000
0021
0001
0001
,  // measure 30
0001
0001
0001
0031
,  // measure 31
0000
1001
0000
1010
,  // measure 32
0000
1001
0000
0011
,  // measure 33
0000
1001
0000
1100
,  // measure 34
0000
1001
0000
0101
,  // measure 35
0000
1001
0010
1001
,  // measure 36
0100
1001
0010
1001
,  // measure 37
0100
1001
0010
1001
,  // measure 38
0100
0000
0001
0100
0010
1000
0001
0000
,  // measure 39
0000
1000
0100
1000
,  // measure 40
0010
0100
0001
0010
,  // measure 41
0100
0010
0001
0010
,  // measure 42
0100
1000
0100
1000
,  // measure 43
0010
0100
0010
1000
,  // measure 44
0001
0010
1000
0010
,  // measure 45
0001
0100
0001
0010
,  // measure 46
0100
0000
1000
0100
1000
0100
1000
0000
,  // measure 47
0000
0100
1000
0010
,  // measure 48
0100
0002
1003
0200
,  // measure 49
0310
0100
1000
0010
,  // measure 50
0100
0000
0002
0000
1003
0002
0000
1003
,  // measure 51
0001
1000
0001
0010
,  // measure 52
0100
1000
0100
0010
,  // measure 53
0001
0000
1000
0001
1000
0001
1000
0001
,  // measure 54
1000
0001
1000
0001
1000
0001
1000
0000
,  // measure 55
0000
0101
0000
0000
,  // measure 56
0000
1100
0000
0000
,  // measure 57
0000
0011
0000
0000
,  // measure 58
0000
1010
0000
0000
,  // measure 59
0000
0101
0000
0011
,  // measure 60
0000
1100
0000
1010
,  // measure 61
0000
1001
0000
0110
,  // measure 62
0000
0000
0000
1000
0001
1000
0001
1000
,  // measure 63
0001
0000
1000
0000
0100
0000
1000
0010
,  // measure 64
1000
0000
0010
0000
0100
0000
0001
0100
,  // measure 65
0001
0000
0010
0000
0100
0000
1000
0100
,  // measure 66
1000
0200
0000
0000
,  // measure 67
0300
1010
0010
1001
,  // measure 68
0010
1100
0100
0011
,  // measure 69
0100
1001
0110
0101
,  // measure 70
1001
0000
1000
0010
0100
0001
1000
0010
,  // measure 71
0100
2002
0000
0000
,  // measure 72
0000
0000
0000
0000
,  // measure 73
3003
0000
0000
0000
;

//---------------dance-single - ----------------
#NOTES:
     dance-single:
     :
     Challenge:
     17:
     0.777587,1.266814,0.812657,0.220095,0.698377,643.000000,547.000000,96.000000,26.000000,176.000000,0.000000,0.777587,1.266814,0.812657,0.220095,0.698377,643.000000,547.000000,96.000000,26.000000,176.000000,0.000000:
// measure 0
0000
0000
0000
0000
,  // measure 1
0000
0000
0000
0000
,  // measure 2
0000
0000
0000
0000
,  // measure 3
0000
0000
0000
0000
,  // measure 4
0001
0100
0001
0100
0101
0000
0101
0000
,  // measure 5
1000
0100
1000
0100
1100
0000
0000
0000
,  // measure 6
0100
0010
0100
0010
0110
0000
0110
0000
,  // measure 7
4004
3003
0000
0000
MMMM
0000
0000
0000
0001
0000
0000
0000
0010
0000
0000
0000
0001
0000
0000
0000
0100
0000
0000
0000
0101
0000
0000
0000
0000
0000
0000
0000
,  // measure 8
0011
0000
1000
0010
1000
0100
1100
0000
,  // measure 9
0000
0000
1000
0100
0010
0100
1100
0000
,  // measure 10
1010
0000
0100
0001
0010
0001
0101
0000
,  // measure 11
MMMM
0000
0001
0010
1000
0010
0011
0000
,  // measure 12
1010
0000
1000
0100
0001
0100
1100
0000
,  // measure 13
0000
0000
1000
0100
0001
0100
1100
0000
,  // measure 14
0101
0000
0000
0000
1000
0000
0000
0001
0000
0000
0100
0100
0000
0000
0001
0000
,  // measure 15
MMMM
0000
0000
0000
0001
0000
1000
0000
0100
0000
0010
0000
0011
0000
0000
0011
,  // measure 16
0000
0110
0000
0000
0100
0000
0010
0000
0100
0000
1000
0000
1001
0000
0000
1010
,  // measure 17
0000
0000
0001
0000
1000
0000
0010
0000
1000
0000
0100
0000
0110
0000
0000
1100
,  // measure 18
0000
0110
0000
0000
0010
0000
0100
0000
1000
0000
0001
0000
0101
0000
0000
0000
,  // measure 19
MMMM
0000
0000
0000
1000
0000
0001
0000
0100
0000
0010
0000
0110
0000
0000
1010
,  // measure 20
0000
1100
0000
0000
0001
0000
0100
0000
1000
0000
0100
0000
0110
0000
0000
1010
,  // measure 21
0000
0000
1000
0000
0001
0000
0010
0000
1000
0000
0010
0000
0110
0000
0000
1100
,  // measure 22
0000
1001
0000
0000
0001
0000
0100
0000
1000
0000
0001
0000
1001
0000
0000
0000
,  // measure 23
0000
0000
1000
2000
0001
3002
1000
2003
,  // measure 24
0001
3002
1000
2003
0001
3001
1001
0000
,  // measure 25
MMMM
0000
0010
0020
0100
0230
0010
0320
,  // measure 26
0100
0230
0010
0320
0100
0130
1001
0000
,  // measure 27
MMMM
0000
0001
0002
0100
0203
0010
0320
,  // measure 28
1000
2030
0100
3200
0010
0310
1001
0000
,  // measure 29
MMMM
0000
1000
2000
0100
3200
0001
0302
,  // measure 30
0100
0203
1000
2300
0010
3010
1001
0000
,  // measure 31
MMMM
0000
1001
MMMM
1010
MMMM
1001
MMMM
,  // measure 32
0011
MMMM
1001
MMMM
1010
MMMM
1001
MMMM
,  // measure 33
0220
0330
MMMM
0000
1001
0000
MMMM
0000
1100
0000
MMMM
0000
1001
0000
MMMM
0000
,  // measure 34
0101
MMMM
1001
MMMM
1100
MMMM
0101
MMMM
,  // measure 35
2002
3003
MMMM
0000
0101
0000
MMMM
0000
1010
0000
MMMM
0000
1100
0000
MMMM
0000
,  // measure 36
0110
MMMM
0011
MMMM
0110
MMMM
1100
MMMM
,  // measure 37
0110
MMMM
0011
MMMM
1100
MMMM
0110
MMMM
,  // measure 38
0101
MMMM
1001
0110
1001
0110
1001
0000
,  // measure 39
MMMM
0000
0000
0000
0000
0000
0000
0000
0001
0010
0000
0000
0100
0000
0000
0010
0000
0000
0001
0000
0100
0010
0000
1000
,  // measure 40
0100
0000
0010
0001
1000
0001
1000
0000
0010
1000
0000
1000
0100
0000
0100
0010
0000
0010
0001
0000
0001
0100
0000
0100
,  // measure 41
0010
0000
0000
0000
0000
0000
0000
0000
0100
0001
0010
0001
1000
0000
0000
0001
0000
1000
0000
0000
1000
0000
0000
1000
,  // measure 42
0001
0000
0000
0010
0000
0000
0100
0000
0000
0010
0000
0001
0100
0000
0010
0000
0000
1000
0000
0000
0000
0000
0000
0000
,  // measure 43
MMMM
0000
0000
0000
0000
0000
0000
0000
1000
0100
0000
0000
0010
0000
0001
0010
0000
0010
0100
0000
0100
1000
0000
1000
,  // measure 44
0100
0000
0100
0010
0000
0010
0001
0000
1000
0001
0000
0100
0010
0000
1000
0001
0000
0100
0010
0000
0100
0001
0000
0010
,  // measure 45
0100
0000
0000
0000
0000
0000
0000
0000
0010
0001
0010
0001
1000
0000
0000
0010
0000
1000
0000
0000
0001
0000
0000
0010
,  // measure 46
0100
1000
0001
0100
1000
0010
0001
0000
,  // measure 47
MMMM
0000
0000
0000
0000
0000
0000
0000
1000
0100
0000
0000
0010
0000
0000
0100
0000
0000
1000
0000
0010
0100
0000
0001
,  // measure 48
0010
0000
0100
0010
0000
0001
1000
0000
0001
0100
0010
0100
0001
1000
0001
0000
0000
0001
1000
0100
1000
0001
1000
0001
,  // measure 49
1000
0000
0000
0000
0000
0000
0000
0001
0010
0001
0010
0001
0010
0000
0000
0100
0000
1000
0000
0000
0010
0000
0000
0100
,  // measure 50
0001
0000
0000
1000
0000
0000
1001
0000
0001
0010
0100
1000
0000
0000
0000
1001
0000
0001
0010
0100
1000
0000
0000
0000
,  // measure 51
MMMM
0000
0000
0000
0000
0000
0000
0000
1000
0010
0000
1000
0100
0000
1000
0001
0000
1000
0010
0000
1000
0001
0000
1000
,  // measure 52
0100
0000
1000
0001
0000
1000
0010
0000
0010
0100
0000
0100
0001
0000
0001
0010
0000
0010
0100
0000
0100
1000
0000
1000
,  // measure 53
0001
0000
0000
0000
1000
0001
1000
0001
1000
0001
1000
0001
1000
0001
1000
0001
,  // measure 54
1000
0001
1000
0001
1001
0000
MMMM
0000
0110
0000
MMMM
0000
1001
0000
0000
0000
,  // measure 55
0000
0000
0000
0000
1010
0000
0100
0000
0000
0000
0001
4000
0001
0000
0001
0000
,  // measure 56
0001
3000
0000
0000
0011
0000
0100
0000
0000
0000
1000
0040
1000
0000
1000
0000
,  // measure 57
1000
0030
0000
0000
0110
0000
1000
0000
0000
0000
0001
0400
0001
0000
0001
0000
,  // measure 58
0001
0300
0000
0000
0110
0000
0001
0000
0000
0000
1000
0400
1000
0000
1000
0000
,  // measure 59
1000
0300
0000
0000
1001
0000
0000
1000
0000
0000
0010
4000
0100
0000
0010
0000
,  // measure 60
0100
3000
0000
0000
1001
0000
0000
0001
0000
0000
0100
0004
0010
0000
0100
0000
,  // measure 61
0010
0003
0000
0000
1001
0000
0000
0101
0000
0000
0001
0400
1000
0000
0001
0000
,  // measure 62
1000
0300
0000
0000
0001
0000
1000
1000
0000
0010
0010
0000
0100
0100
0000
0001
,  // measure 63
0001
0000
0000
0000
1001
0000
0000
0001
0101
0000
0100
0000
0101
0000
1000
0000
,  // measure 64
1100
0000
0010
0000
0110
0000
0000
1000
1100
0000
1000
0000
0001
0000
0010
0000
,  // measure 65
MMMM
0000
0000
0000
0110
0000
0000
1100
0000
0000
1001
0000
0101
0000
0001
0000
,  // measure 66
0110
0000
0001
0000
1000
0001
0010
0001
1000
0010
1000
0001
0040
0031
4000
3010
,  // measure 67
0100
0000
0000
0000
0001
1000
0100
0010
0100
1000
0010
0100
0001
0010
0100
0010
,  // measure 68
0001
0100
0010
1000
0001
0010
0100
0010
0001
0010
0100
1000
0010
0100
0001
0010
,  // measure 69
0100
1000
0100
0010
0001
1000
0100
0010
0100
1000
0010
0100
0001
1000
0100
0010
,  // measure 70
0001
0000
0000
0100
0000
0000
0010
0000
0000
1000
0000
0000
0100
0000
0010
0000
0100
0000
1000
0000
0100
0000
1000
0000
0010
0000
1000
0000
0010
0000
0100
0000
0010
0000
0100
0000
0001
0000
0100
0000
0001
0000
0010
0000
0001
0000
0010
0000
,  // measure 71
0100
0010
0100
1000
0100
0020
0200
0000
0000
0000
0000
0000
0000
0000
0000
0000
0000
0000
0000
0000
0000
0000
0000
0000
,  // measure 72
0000
0000
0000
0000
0000
0000
0000
0000
0000
0000
0000
0000
0000
0000
0000
0330
,  // measure 73
MMMM
0000
0000
0000
;

//---------------dance-single - ----------------
#NOTES:
     dance-single:
     :
     Beginner:
     4:
     0.137861,0.211100,0.203164,0.000000,0.000000,114.000000,90.000000,24.000000,0.000000,0.000000,0.000000,0.137861,0.211100,0.203164,0.000000,0.000000,114.000000,90.000000,24.000000,0.000000,0.000000,0.000000:
// measure 0
0000
0000
0000
0000
,  // measure 1
0000
0000
0000
0000
,  // measure 2
0000
0000
0000
0000
,  // measure 3
0000
0000
0000
0000
,  // measure 4
0000
0000
0000
0000
,  // measure 5
0000
0000
0000
0000
,  // measure 6
0000
0000
0000
0000
,  // measure 7
0000
0010
0000
0000
,  // measure 8
0000
0100
0000
0000
,  // measure 9
0000
0010
0000
0000
,  // measure 10
0000
0100
0000
0000
,  // measure 11
1001
1000
0000
0000
,  // measure 12
0000
0001
0000
0000
,  // measure 13
0000
1000
0000
0000
,  // measure 14
0000
0001
0000
0000
,  // measure 15
0000
0100
0000
0000
,  // measure 16
0000
0010
0000
0000
,  // measure 17
0000
1000
0000
0000
,  // measure 18
0000
0100
0000
0000
,  // measure 19
0110
0010
0000
0000
,  // measure 20
0000
0001
0000
0000
,  // measure 21
0000
1000
0000
0000
,  // measure 22
0000
0001
0001
0001
,  // measure 23
0000
1001
0000
0000
,  // measure 24
0000
0000
0000
0000
,  // measure 25
0110
1001
0000
0000
,  // measure 26
0000
0000
0000
0000
,  // measure 27
1001
0110
0000
0000
,  // measure 28
0000
0000
0000
0000
,  // measure 29
0110
1001
0000
0000
,  // measure 30
0000
0010
0000
0000
,  // measure 31
0000
0100
0000
0010
,  // measure 32
0000
0100
0000
0010
,  // measure 33
0000
1000
0000
0001
,  // measure 34
0000
1000
0000
0001
,  // measure 35
0000
1001
0000
1000
,  // measure 36
0000
0001
0000
0100
,  // measure 37
0000
0010
0000
1000
,  // measure 38
0000
0100
0100
0100
,  // measure 39
0000
1001
0000
0000
,  // measure 40
0000
1000
0000
0000
,  // measure 41
0000
0010
0000
0000
,  // measure 42
0000
0100
0000
0000
,  // measure 43
0110
0001
0000
0000
,  // measure 44
0000
0010
0000
0000
,  // measure 45
0000
0001
0000
0000
,  // measure 46
0000
1000
1000
1000
,  // measure 47
0000
1001
0000
0000
,  // measure 48
0000
0010
0000
0000
,  // measure 49
0110
0100
0000
0000
,  // measure 50
0000
0000
1001
0000
0000
0010
0000
0000
,  // measure 51
0000
0100
0000
0000
,  // measure 52
0000
0010
0000
0000
,  // measure 53
0000
1000
0000
0001
,  // measure 54
0000
0100
0100
0100
,  // measure 55
0000
0110
0000
0000
,  // measure 56
0000
0110
0000
0000
,  // measure 57
0000
0110
0000
0000
,  // measure 58
0000
0110
0000
0000
,  // measure 59
0000
1001
0000
0000
,  // measure 60
0000
1001
0000
0000
,  // measure 61
0000
1001
0000
0000
,  // measure 62
0000
1000
0000
0000
,  // measure 63
0000
1001
0000
0000
,  // measure 64
0000
0010
0000
0000
,  // measure 65
0000
0100
0000
0000
,  // measure 66
0000
0001
0000
0000
,  // measure 67
0000
1000
0000
0100
,  // measure 68
0000
0010
0000
0001
,  // measure 69
0000
1000
0000
0001
,  // measure 70
0000
0100
0000
0010
,  // measure 71
0000
1001
0000
0000
;
