#TITLE:MAGAZINE;
#SUBTITLE:;
#ARTIST:Knasibas;
#TITLETRANSLIT:;
#SUBTITLETRANSLIT:;
#ARTISTTRANSLIT:;
#GENRE:CHIP & BASS;
#CREDIT:;
#BANNER:banner.png;
#BACKGROUND:background.png;
#LYRICSPATH:;
#CDTITLE:CDTITLE.png;
#MUSIC:MAGAZINE.ogg;
#OFFSET:-0.057000;
#SAMPLESTART:11.028428;
#SAMPLELENGTH:21.942856;
#SELECTABLE:YES;
#BPMS:0.000000=175.000000
;
#STOPS:
;
#BGCHANGES:;
#KEYSOUNDS:;
#ATTACKS:;

//---------------dance-single - ----------------
#NOTES:
     dance-single:
     :
     Hard:
     15:
     0.604229,0.907920,0.152490,0.858762,0.296955,527.000000,508.000000,19.000000,107.000000,0.000000,0.000000,0.604229,0.907920,0.152490,0.858762,0.296955,527.000000,508.000000,19.000000,107.000000,0.000000,0.000000:
// measure 0
0000
0000
0000
0000
,  // measure 1
0000
0000
0000
0000
,  // measure 2
0000
0000
0000
0000
,  // measure 3
0000
0000
0000
0000
,  // measure 4
1000
0001
1000
0001
1000
0000
1000
0000
,  // measure 5
0100
0000
0000
0010
0000
0000
0100
0000
0000
0000
0010
0000
0001
0000
1000
0000
,  // measure 6
0010
0100
0001
0010
0001
0100
0010
1000
,  // measure 7
0001
1000
0001
1000
0001
1000
0001
1000
0001
1000
0001
1000
0001
1000
0001
1000
,  // measure 8
0001
0001
0100
0010
2000
3000
2000
3000
,  // measure 9
0100
0000
0000
0100
0000
0000
0100
0000
0000
0000
0010
0000
0100
0000
1000
0000
,  // measure 10
0001
0001
0010
0001
0200
0300
0200
0300
,  // measure 11
0010
0000
0000
0010
0000
0000
0010
0000
0000
0000
0100
0000
0001
0000
1000
0000
,  // measure 12
0100
0100
0010
0100
2000
3000
2000
3000
,  // measure 13
0001
0000
0000
0001
0000
0000
0001
0000
0000
0000
0010
0000
0100
0000
1000
0000
,  // measure 14
0100
0100
0010
0001
0200
0300
0200
0300
,  // measure 15
0010
0000
0000
0010
0000
0000
0010
0000
0000
0000
1000
0000
0001
0000
0010
0000
,  // measure 16
0002
0203
1300
0100
0020
0030
0020
0030
,  // measure 17
1000
0000
0000
1000
0000
0000
1000
0000
0000
0000
0001
0000
0010
0000
0100
0000
,  // measure 18
0010
0010
0001
1000
0200
0300
0200
0300
,  // measure 19
1000
0000
0000
1000
0000
0000
1000
0000
0000
0000
0100
0000
0010
0000
0001
0000
,  // measure 20
0100
0100
0001
0010
0002
0003
0002
0003
,  // measure 21
0010
0000
0000
0010
0000
0000
0010
0000
0000
0000
0100
0000
0010
0000
0001
0000
,  // measure 22
1000
0010
0100
0001
0010
0100
1000
0001
,  // measure 23
0100
0010
0100
0010
0100
0010
0100
0010
0100
0010
0100
0010
0100
0010
0100
0010
,  // measure 24
0200
0000
0000
0000
0320
0000
0000
1030
,  // measure 25
0200
0000
0310
0002
0000
1003
0010
2000
,  // measure 26
0000
0000
3200
0000
,  // measure 27
2300
0000
3001
0200
0000
0000
0000
0000
,  // measure 28
0310
1000
0100
0010
,  // measure 29
0100
1000
0001
0100
,  // measure 30
0010
1000
0010
1000
0001
0100
0001
0100
,  // measure 31
0002
0000
0000
0000
0000
0000
1003
1000
,  // measure 32
1100
0000
0000
0101
0000
0000
1100
0000
,  // measure 33
0000
0101
0000
0000
1001
0000
1010
0000
,  // measure 34
1001
0000
0000
0011
0000
0000
1001
0000
,  // measure 35
0000
1010
0000
0000
1001
0000
0001
0001
,  // measure 36
0101
0000
0100
0110
0000
0010
1010
0000
,  // measure 37
1000
1001
0000
0001
0011
0000
1100
0000
,  // measure 38
1001
0001
0100
0010
1000
0001
0100
0010
,  // measure 39
2000
3200
0301
0200
0320
0032
1003
0001
,  // measure 40
2000
3200
2300
3200
2300
3000
0000
0000
0002
0000
0003
0000
0002
0000
0003
0000
,  // measure 41
0100
0000
0000
0010
0000
0000
1000
0000
0000
0000
0100
0000
1000
0000
0001
0000
,  // measure 42
0100
0001
0010
0100
0020
0030
0020
0030
,  // measure 43
0100
0000
0000
1000
0000
0000
0001
0000
0000
0000
0100
0000
0001
0000
0010
0000
,  // measure 44
0100
1000
0001
0100
0020
0030
0020
0030
,  // measure 45
0100
0000
0000
0001
0000
0000
0010
0000
0000
0000
0100
0000
0010
0000
0100
0000
,  // measure 46
1000
0001
0010
0100
0020
0030
0020
0030
,  // measure 47
0100
0000
0000
0010
0000
0000
0001
0000
0000
0000
1000
0000
0001
0000
0100
0000
,  // measure 48
0002
0023
1030
0010
0002
0003
0002
0003
,  // measure 49
1000
0000
0000
0001
0000
0000
0100
0000
0000
0000
0010
0000
1000
0000
0100
0000
,  // measure 50
1000
0010
1000
0001
0020
0030
0020
0030
,  // measure 51
0100
0000
0000
0010
0000
0000
0001
0000
0000
0000
1000
0000
0010
0000
1000
0000
,  // measure 52
0100
0010
0100
1000
0020
0030
0020
0030
,  // measure 53
0100
0000
0000
0001
0000
0000
0010
0000
0000
0000
0100
0000
0010
0000
0001
0000
,  // measure 54
1000
0001
0100
0010
1000
0001
0100
0010
,  // measure 55
1000
0001
1000
0001
1000
0001
1000
0001
1000
0001
1000
0001
1000
0001
1000
0001
,  // measure 56
1000
0000
0000
0100
1000
0000
0010
0000
0200
0000
0000
0000
0000
0000
0000
0000
,  // measure 57
0000
0000
0000
0000
0301
0010
0001
2000
,  // measure 58
0000
0000
0000
0000
3002
0000
0000
0000
0103
0000
0000
0010
0000
0000
1000
0000
,  // measure 59
0100
0000
0000
0100
0000
0000
1000
0000
0020
0000
0000
0000
0000
0000
0000
0000
,  // measure 60
0030
0000
0100
0000
0001
0000
0010
0000
0001
0000
0000
1000
0000
0000
0100
0000
,  // measure 61
0020
0000
0000
0030
0000
0010
0100
2000
,  // measure 62
0000
0000
0000
0000
3001
0000
0000
0000
0100
0000
0000
0001
0000
0000
0010
0000
,  // measure 63
0001
1000
0001
1000
0001
1000
0001
1000
,  // measure 64
0001
0000
1000
0010
0100
0001
1000
0010
,  // measure 65
1000
0100
0010
0001
1000
0100
0020
0000
,  // measure 66
0130
1000
0001
0200
0000
0301
0000
0020
,  // measure 67
0000
0000
0000
0000
0130
0010
0001
2000
0000
0000
0000
0000
3002
0000
0000
0000
,  // measure 68
0203
0320
2030
3002
0023
0230
0320
0032
,  // measure 69
1003
0000
0100
0000
0010
0001
0010
0001
0020
0000
0000
0000
0230
0000
0000
0000
,  // measure 70
1300
0100
0010
0001
1000
0100
0010
0001
,  // measure 71
1000
0001
1000
0001
1000
0001
1000
0001
1000
0001
1000
0001
1000
0001
1000
0001
,  // measure 72
0200
0300
0200
0300
0010
0000
2000
0000
0000
0000
0000
0000
0000
0000
3100
0010
,  // measure 73
0002
0000
0000
2003
0000
0000
3020
0000
,  // measure 74
0130
0000
0000
0000
0001
0000
0020
0000
0000
0000
0130
0000
0010
0100
2000
0000
,  // measure 75
0000
0000
3001
0200
0000
0000
0000
0000
,  // measure 76
0302
0000
0000
0000
0000
0000
0023
0000
0000
0000
0000
0000
0000
0000
0130
1000
,  // measure 77
0002
0000
0000
2003
0000
0000
3020
0000
,  // measure 78
2030
0000
0000
0000
3001
0000
0020
0000
0000
0000
0130
0000
0010
0001
2000
0000
,  // measure 79
0000
0000
0000
0000
,  // measure 80
3000
0000
0000
0000
0010
0000
2002
0000
0000
0000
0000
0000
3003
0000
0001
0010
,  // measure 81
0200
0000
0000
0320
0000
0000
0002
0030
,  // measure 82
2003
0000
0000
0000
3010
0000
0200
0000
0000
0000
0310
0000
0100
0001
2000
0000
,  // measure 83
0000
0000
3100
0020
0000
0000
0000
0000
,  // measure 84
0032
0000
0000
0000
1003
0000
0002
0000
0000
0000
0000
0000
0000
0000
0013
0100
,  // measure 85
2000
0000
0000
3200
0000
0000
0020
0300
,  // measure 86
0032
0000
0000
0000
1003
0000
0002
0000
0000
0000
0103
0000
0001
0010
0100
0000
,  // measure 87
1000
0001
1000
0001
1000
0001
1000
0001
1000
0001
1000
0001
1000
0001
1000
0020
,  // measure 88
0200
0000
0000
0000
,  // measure 89
0000
0000
0000
0000
,  // measure 90
0000
0000
0330
0000
;

//---------------dance-single - ----------------
#NOTES:
     dance-single:
     :
     Medium:
     11:
     0.491868,0.582674,0.465497,0.465497,0.084271,429.000000,371.000000,58.000000,58.000000,0.000000,0.000000,0.491868,0.582674,0.465497,0.465497,0.084271,429.000000,371.000000,58.000000,58.000000,0.000000,0.000000:
// measure 0
0000
0000
0000
0000
,  // measure 1
0000
0000
0000
0000
,  // measure 2
0000
0000
0000
0000
,  // measure 3
0000
0000
0000
0000
,  // measure 4
1000
1000
0010
0010
,  // measure 5
0100
0001
0010
0100
,  // measure 6
0010
0010
0001
0001
,  // measure 7
1000
0000
0100
0000
0010
0000
0200
2300
,  // measure 8
3010
0100
1001
1001
,  // measure 9
0001
0000
0000
0001
0000
0000
0001
0000
0000
0000
0010
0000
0100
0000
0000
0000
,  // measure 10
1000
0100
1100
1100
,  // measure 11
1000
0000
0000
1000
0000
0000
1000
0000
0000
0000
0010
0000
0100
0000
0000
0000
,  // measure 12
0001
0100
0001
0000
0110
0000
1010
0000
,  // measure 13
0100
0000
0000
0100
0000
0000
0100
0000
0000
0000
0010
0000
0001
0000
0000
0000
,  // measure 14
1000
0001
1000
0000
1001
0000
1001
0000
,  // measure 15
1000
0000
0000
1000
0000
0000
1000
0000
0000
0000
0100
0000
0010
0000
0001
0000
,  // measure 16
0200
0320
1030
0000
0011
0000
0011
0000
,  // measure 17
1000
0000
0000
1000
0000
0000
1000
0000
0000
0000
0010
0000
1000
0000
0000
0000
,  // measure 18
0100
0010
1100
1100
,  // measure 19
0001
0000
0000
0001
0000
0000
0001
0000
0000
0000
1000
0000
0010
0000
0000
0000
,  // measure 20
0100
0001
0010
0000
1100
0000
0011
0000
,  // measure 21
0001
0000
0000
0001
0000
0000
0001
0000
0000
0000
1000
0000
0010
0000
0000
0000
,  // measure 22
0100
0001
0011
1100
,  // measure 23
1000
0100
0010
0001
1000
0100
0010
0001
,  // measure 24
2000
0000
3002
0000
,  // measure 25
0103
0000
0000
0001
0000
0010
0100
2000
,  // measure 26
0000
0000
3200
0000
,  // measure 27
2300
0000
3010
0200
0000
0000
0000
0000
,  // measure 28
0310
0010
1000
1000
,  // measure 29
0001
0001
0010
0010
,  // measure 30
0100
1000
0100
0000
1000
0010
1000
0000
,  // measure 31
0010
0100
0001
1000
0010
0100
0001
0001
,  // measure 32
1001
0000
0000
1001
0000
0000
1001
0000
,  // measure 33
0000
1001
0000
0000
1001
0000
1001
0000
,  // measure 34
0110
0000
0000
0110
0000
0000
0110
0000
,  // measure 35
0000
0110
0000
0000
0110
0000
0010
0010
,  // measure 36
1010
0000
0000
0101
0000
0000
0011
0000
,  // measure 37
0000
0110
0000
0000
1100
0000
0110
0000
,  // measure 38
1100
0000
0000
0110
0000
0000
0011
0000
,  // measure 39
0001
0100
0000
1000
0100
0001
0000
0010
,  // measure 40
0100
0100
0100
0000
0110
0000
0011
0000
,  // measure 41
0001
0000
0000
1000
0000
0000
0010
0000
0000
0000
0100
0000
0010
0000
0000
0000
,  // measure 42
1000
0001
0011
1010
,  // measure 43
1000
0000
0000
0100
0000
0000
0010
0000
0000
0000
0100
0000
1000
0000
0010
0000
,  // measure 44
0100
0010
1000
0000
1001
0000
1010
0000
,  // measure 45
0100
0000
0000
0001
0000
0000
0010
0000
0000
0000
0100
0000
1000
0000
0000
0000
,  // measure 46
0100
1000
1010
0011
,  // measure 47
0001
0000
0000
0010
0000
0000
0100
0000
0000
0000
0010
0000
0001
0000
0000
0000
,  // measure 48
1000
0100
0001
0000
0101
0000
1100
0000
,  // measure 49
1000
0000
0000
0010
0000
0000
0100
0000
0000
0000
0010
0000
1000
0000
0000
0000
,  // measure 50
0001
1000
1100
1010
,  // measure 51
0010
0000
0000
0100
0000
0000
0001
0000
0000
0000
0010
0000
0001
0000
0000
0000
,  // measure 52
1000
0010
0100
0000
0110
0000
0101
0000
,  // measure 53
0001
0000
0000
1000
0000
0000
0100
0000
0000
0000
0010
0000
0100
0000
0000
0000
,  // measure 54
1000
0010
0101
0011
,  // measure 55
1000
0000
0000
0001
0000
0000
0100
0000
0000
0000
0010
0000
1000
0000
0100
0000
,  // measure 56
0010
0000
0000
0100
0000
0000
0010
0000
0002
0000
0000
0000
0000
0000
0000
0000
,  // measure 57
0000
0000
0000
0000
1003
0100
1000
0020
,  // measure 58
0000
0000
0000
0000
0130
0000
0000
0000
0002
0000
0000
0013
0000
0000
0001
0000
,  // measure 59
2000
0000
0000
3010
0000
0000
1000
0000
0200
0000
0000
0000
0000
0000
0000
0000
,  // measure 60
0300
0000
0010
0000
0100
0000
1000
0000
0002
0000
0000
0013
0000
0000
0100
0000
,  // measure 61
0020
0000
0000
0030
0000
0100
1000
0020
,  // measure 62
0000
0000
0000
0000
0130
0000
0000
0000
0010
0000
0000
1000
0000
0000
0001
0000
,  // measure 63
0010
0100
0010
0100
0010
0100
0010
0100
,  // measure 64
0000
1000
1000
0001
,  // measure 65
1000
0000
1000
0000
0001
1000
0020
0000
,  // measure 66
0130
0000
0001
0020
0000
0230
0000
2300
,  // measure 67
0000
0000
3000
0000
0001
0000
0000
0200
0000
0000
0000
0000
0310
0000
0000
0000
,  // measure 68
1000
0100
0010
0001
1000
0100
0010
0001
,  // measure 69
1000
0001
0010
0100
0020
0000
0032
0000
,  // measure 70
0103
0100
0010
0010
,  // measure 71
0100
0010
2002
0000
,  // measure 72
3003
0000
1000
0020
0000
0000
0000
0130
,  // measure 73
0002
0000
0000
0023
0000
0000
0230
0000
,  // measure 74
0310
0000
0001
0020
0000
0130
0010
0002
,  // measure 75
0000
0000
1003
0020
0000
0000
0000
0000
,  // measure 76
0230
0000
0000
0302
0000
0000
0000
0013
,  // measure 77
0200
0000
0000
0320
0000
0000
0032
0000
,  // measure 78
2003
0000
3001
0200
0000
0310
1000
0200
,  // measure 79
0000
0000
0000
0000
,  // measure 80
0300
0000
2000
0020
0000
0000
3000
0130
,  // measure 81
0002
0000
0000
0023
0000
0000
0230
0000
,  // measure 82
0320
0000
0031
0200
0000
0310
1000
0002
,  // measure 83
0000
0000
2003
0200
0000
0000
0000
3300
,  // measure 84
0012
0010
0010
0013
,  // measure 85
2100
0100
0100
3100
,  // measure 86
1020
0130
0021
0130
,  // measure 87
0010
0001
1000
0100
0010
0001
1000
0000
,  // measure 88
0220
0000
0000
0000
,  // measure 89
0000
0000
0000
0000
,  // measure 90
0000
0000
0000
0330
;

//---------------dance-single - ----------------
#NOTES:
     dance-single:
     :
     Easy:
     7:
     0.285490,0.400588,0.016052,0.272878,0.004013,249.000000,247.000000,2.000000,34.000000,0.000000,0.000000,0.285490,0.400588,0.016052,0.272878,0.004013,249.000000,247.000000,2.000000,34.000000,0.000000,0.000000:
// measure 0
0000
0000
0000
0000
,  // measure 1
0000
0000
0000
0000
,  // measure 2
0000
0000
0000
0000
,  // measure 3
0000
0000
0000
0000
,  // measure 4
1000
0000
0001
0000
,  // measure 5
0100
0100
0100
0000
,  // measure 6
0010
0000
1000
0000
,  // measure 7
0001
0000
0001
0000
0001
0000
1000
0001
,  // measure 8
1000
0100
1000
1000
,  // measure 9
0020
0000
0030
0000
,  // measure 10
0100
0001
0010
0010
,  // measure 11
0200
0000
0300
0000
,  // measure 12
0010
0001
1000
0100
,  // measure 13
0020
0000
0030
0000
,  // measure 14
0100
1000
0001
0001
,  // measure 15
2000
0000
3000
0000
,  // measure 16
0001
1000
0010
0000
1000
0000
0001
0000
,  // measure 17
0020
0000
0030
0000
,  // measure 18
0100
0010
0001
0001
,  // measure 19
0200
0000
0300
0000
,  // measure 20
0010
1000
0010
0100
,  // measure 21
0002
0000
0003
0000
,  // measure 22
1000
0001
0010
0100
,  // measure 23
0020
0000
0030
0000
,  // measure 24
0100
0000
1000
0000
,  // measure 25
0010
0000
0000
1000
0000
0000
0000
0001
,  // measure 26
0000
0000
0010
0000
,  // measure 27
0001
0000
0000
1000
0000
0000
0000
0000
,  // measure 28
0001
0001
1000
1000
,  // measure 29
0010
0010
0100
0100
,  // measure 30
0020
0000
0000
0000
,  // measure 31
0000
0000
0000
0000
0000
0000
0130
0001
,  // measure 32
0010
0000
0000
0010
0000
0000
0010
0000
,  // measure 33
0000
0010
0000
0000
0010
0000
0010
0000
,  // measure 34
0100
0000
0000
0100
0000
0000
0100
0000
,  // measure 35
0000
0100
0000
0000
0100
0000
0100
0100
,  // measure 36
1000
0000
0000
1000
0000
0000
1000
0000
,  // measure 37
0000
1000
0000
0000
1000
0000
1000
0000
,  // measure 38
0001
0000
0000
0001
0000
0000
0001
0000
,  // measure 39
1000
0010
0000
1000
0010
1000
0000
0000
,  // measure 40
0010
0100
0010
0000
0100
0000
0100
0000
,  // measure 41
0002
0000
0003
1000
,  // measure 42
0100
1000
0010
0010
,  // measure 43
0200
0000
0300
0010
,  // measure 44
1000
1000
0100
1000
,  // measure 45
0002
0000
0003
0100
,  // measure 46
0001
1000
0100
0010
,  // measure 47
0200
0000
0300
0010
,  // measure 48
0100
0010
0001
0000
0001
0000
0001
0000
,  // measure 49
2000
0000
3000
0001
,  // measure 50
0100
0010
1000
1000
,  // measure 51
0200
0000
0300
1000
,  // measure 52
0100
1000
0010
0100
,  // measure 53
0002
0000
0003
0010
,  // measure 54
0001
1000
0100
0100
,  // measure 55
2000
0000
0000
3000
,  // measure 56
0001
1010
0002
0000
,  // measure 57
0000
0000
0003
0000
1000
0000
0000
0100
,  // measure 58
0000
1000
0010
0100
,  // measure 59
0001
0010
0200
0000
,  // measure 60
0300
0010
0001
1000
,  // measure 61
0200
0000
0300
0010
,  // measure 62
0001
0100
0010
1000
,  // measure 63
0001
0001
0001
0001
,  // measure 64
0000
1000
1000
0001
,  // measure 65
0001
1000
0001
0100
,  // measure 66
0001
0000
0000
0010
0000
0000
0000
0001
,  // measure 67
0000
0000
0000
0000
0100
0000
0000
0010
0000
0000
0000
0000
0100
0000
0000
0000
,  // measure 68
0001
0001
1000
1000
,  // measure 69
0100
0010
0001
0010
,  // measure 70
0001
0001
0001
0001
,  // measure 71
0001
0001
0002
0000
,  // measure 72
1003
0010
1000
0100
0000
0000
0000
0000
,  // measure 73
0010
0000
0000
0100
0000
0000
1000
0000
,  // measure 74
0010
0000
0000
1000
0000
0000
0001
1000
,  // measure 75
0000
0000
0010
1000
0000
0000
0000
0000
,  // measure 76
0010
0000
0000
0100
0000
0000
0000
0000
,  // measure 77
0001
0000
0000
0010
0000
0000
0100
0000
,  // measure 78
0010
0000
0000
0001
0000
0100
0010
2000
,  // measure 79
0000
0000
0000
3000
,  // measure 80
0000
0000
0001
0200
0000
0000
0000
0301
,  // measure 81
0010
0000
0000
0100
0000
0000
0020
0000
,  // measure 82
0031
0000
0000
2000
0000
0000
3010
2000
,  // measure 83
0000
0000
3010
0200
0000
0000
0000
0300
,  // measure 84
0020
0000
0000
2030
0000
0000
0000
3001
,  // measure 85
0020
0000
0000
0031
0000
0000
0010
0000
,  // measure 86
0002
0000
0000
1003
0000
0010
0100
0002
,  // measure 87
0000
0000
0000
0003
,  // measure 88
0220
0000
0000
0000
,  // measure 89
0000
0000
0000
0000
,  // measure 90
0000
0000
0000
0330
;

//---------------dance-single - ----------------
#NOTES:
     dance-single:
     :
     Beginner:
     4:
     0.132999,0.247195,0.048155,0.000000,0.000000,116.000000,110.000000,6.000000,0.000000,0.000000,0.000000,0.132999,0.247195,0.048155,0.000000,0.000000,116.000000,110.000000,6.000000,0.000000,0.000000,0.000000:
// measure 0
0000
0000
0000
0000
,  // measure 1
0000
0000
0000
0000
,  // measure 2
0000
0000
0000
0000
,  // measure 3
0000
0000
0000
0000
,  // measure 4
0000
0000
0000
0000
,  // measure 5
0000
0000
0000
0000
,  // measure 6
0000
0000
0000
0000
,  // measure 7
0000
0000
0000
0000
,  // measure 8
1000
0000
0000
0000
,  // measure 9
0010
0000
0000
0000
,  // measure 10
1000
0000
0000
0000
,  // measure 11
0100
0000
0000
0000
,  // measure 12
1000
0000
0000
0000
,  // measure 13
0001
0000
0000
0000
,  // measure 14
0100
0000
0000
0000
,  // measure 15
0010
0000
0000
0000
,  // measure 16
0100
0010
1000
0000
,  // measure 17
0001
0000
0000
0000
,  // measure 18
1000
0000
0000
0000
,  // measure 19
0100
0000
0000
0000
,  // measure 20
1000
0000
0000
0000
,  // measure 21
0001
0000
0000
0000
,  // measure 22
0100
0000
0000
0000
,  // measure 23
0010
0000
0000
0000
,  // measure 24
1000
0000
0000
0000
,  // measure 25
0001
0000
0000
0000
,  // measure 26
0100
0000
0000
0000
,  // measure 27
0001
0000
0000
0000
,  // measure 28
0010
0000
0000
0000
,  // measure 29
0001
0000
0000
0000
,  // measure 30
1000
0000
0000
0000
,  // measure 31
0000
0000
0000
0010
,  // measure 32
1001
0000
0000
1000
,  // measure 33
0000
0000
0001
0000
,  // measure 34
1000
0000
0000
0010
,  // measure 35
0000
0000
0100
0010
,  // measure 36
0100
0000
0000
0010
,  // measure 37
0000
0000
1000
0001
,  // measure 38
1000
0000
0001
0000
,  // measure 39
0100
0000
0000
0000
,  // measure 40
0010
0010
1000
0000
,  // measure 41
0001
0000
0000
0000
,  // measure 42
0010
0000
0001
0000
,  // measure 43
0100
0000
0000
0000
,  // measure 44
0010
0000
1000
0000
,  // measure 45
0100
0000
0000
0000
,  // measure 46
1000
0000
0001
0000
,  // measure 47
0100
0000
0000
0000
,  // measure 48
0010
0100
0010
0000
,  // measure 49
1000
0000
0000
0000
,  // measure 50
0001
0000
0010
0000
,  // measure 51
0001
0000
0000
0000
,  // measure 52
1000
0000
0001
0000
,  // measure 53
0100
0000
0000
0000
,  // measure 54
0010
0000
1000
0000
,  // measure 55
0100
0000
0000
0000
,  // measure 56
1000
1001
0000
0000
,  // measure 57
0000
0000
0010
0000
,  // measure 58
0000
0000
0100
0000
,  // measure 59
0000
0000
0000
0000
,  // measure 60
0001
0000
0000
0000
,  // measure 61
1000
0000
0000
0000
,  // measure 62
0010
0000
1000
0000
,  // measure 63
0001
0001
0001
0001
,  // measure 64
0000
1001
0000
0000
,  // measure 65
1000
0000
0000
0000
,  // measure 66
0100
0000
0000
0000
,  // measure 67
1000
0000
0000
0000
,  // measure 68
0010
0000
0000
0000
,  // measure 69
0100
0000
0000
0000
,  // measure 70
0001
0000
0001
0000
,  // measure 71
1000
0000
1000
0000
,  // measure 72
0010
1001
0000
0000
,  // measure 73
1000
0000
0000
0000
,  // measure 74
0100
0000
0000
0000
,  // measure 75
1000
0000
0000
0000
,  // measure 76
0010
0000
0000
0000
,  // measure 77
0100
0000
0000
0000
,  // measure 78
0001
0000
0000
0000
,  // measure 79
1000
0000
0000
0000
,  // measure 80
0010
1001
0000
0000
,  // measure 81
0001
0000
0000
1000
,  // measure 82
0010
0000
0000
0100
,  // measure 83
0010
0000
0000
0000
,  // measure 84
1000
0000
0000
0000
,  // measure 85
0100
0000
0000
0000
,  // measure 86
1000
0000
0001
0000
,  // measure 87
0100
0000
0000
0000
,  // measure 88
0110
0000
0000
0000
;
