#VERSION:0.83;
#TITLE:Let There Be House;
#SUBTITLE:;
#ARTIST:DAISHI DANCE & LUKE DB;
#TITLETRANSLIT:;
#SUBTITLETRANSLIT:;
#ARTISTTRANSLIT:;
#GENRE:HOUSE;
#ORIGIN:;
#CREDIT:;
#BANNER:banner.png;
#BACKGROUND:background.png;
#PREVIEWVID:;
#JACKET:jacket.png;
#CDIMAGE:;
#DISCIMAGE:;
#LYRICSPATH:;
#CDTITLE:CDTITLE.png;
#MUSIC:Let There Be House.ogg;
#OFFSET:-0.052000;
#SAMPLESTART:90.040733;
#SAMPLELENGTH:14.765625;
#SELECTABLE:YES;
#BPMS:0.000=128.000;
#STOPS:;
#DELAYS:;
#WARPS:;
#TIMESIGNATURES:0.000=4=4;
#TICKCOUNTS:0.000=4;
#COMBOS:0.000=1;
#SPEEDS:0.000=1.000=0.000=0;
#SCROLLS:0.000=1.000;
#FAKES:;
#LABELS:0.000=Song Start;
#BGCHANGES:;
#KEYSOUNDS:;
#ATTACKS:
;

//---------------dance-single - ----------------
#NOTEDATA:;
#CHARTNAME:;
#STEPSTYPE:dance-single;
#DESCRIPTION:;
#CHARTSTYLE:;
#DIFFICULTY:Hard;
#METER:13;
#RADARVALUES:0.527814,0.540923,0.257583,0.024148,0.764698,459.000000,427.000000,32.000000,3.000000,0.000000,0.000000,0.000000,0.000000,0.000000,0.527814,0.540923,0.257583,0.024148,0.764698,459.000000,427.000000,32.000000,3.000000,0.000000,0.000000,0.000000,0.000000,0.000000;
#CREDIT:Pandemonium X;
#NOTES:
// measure 0
0000
0000
0000
0000
,  // measure 1
0000
0000
0000
0000
,  // measure 2
0000
0000
0000
0000
,  // measure 3
0010
0010
0010
0010
,  // measure 4
1001
0000
0001
0000
1000
0001
1000
0000
0001
1000
0000
0100
0000
1000
0000
0001
,  // measure 5
0000
0000
1000
0000
0001
1000
0001
0000
1000
0001
0000
0010
0000
0001
0000
1000
,  // measure 6
0001
0000
1000
0000
0010
1000
0010
0000
1000
0001
0000
1000
0000
0001
0000
1000
,  // measure 7
0000
0000
0001
0000
0100
0001
0100
0000
0001
1000
0000
0001
0000
0010
0100
0010
,  // measure 8
0001
0000
1000
0000
0010
0100
0010
0000
0100
0001
0000
0100
0000
0010
0000
1000
,  // measure 9
0000
0000
0001
0000
1000
0100
1000
0000
0001
1000
0000
0010
0000
1000
0000
0100
,  // measure 10
0010
0000
0001
0000
1000
0010
1000
0000
0010
1000
0000
0001
0000
1000
0000
0000
,  // measure 11
0101
0011
0101
0011
,  // measure 12
1001
0000
0000
0000
0010
1000
0100
0000
0010
0100
0000
1000
0000
0001
0000
1000
,  // measure 13
0000
0000
0001
0000
0010
0100
1000
0000
0100
1000
0000
0010
0000
0100
0000
0001
,  // measure 14
1000
0000
0100
0000
0010
0001
0100
0000
0001
1000
0000
0001
0000
0010
0000
0001
,  // measure 15
0000
0000
1000
0000
0100
1000
0010
0000
0100
0010
0000
1000
0000
0001
0010
0100
,  // measure 16
1000
0000
0100
0000
0010
0001
0100
0000
0001
1000
0000
0001
0000
0010
0000
0100
,  // measure 17
0000
0000
0010
0000
0001
1000
0100
0000
0010
0100
0000
1000
0000
0010
0000
0100
,  // measure 18
0001
0000
1000
0000
0001
1000
0100
0000
0010
0100
0000
0010
0000
0001
0000
1000
,  // measure 19
0001
0000
0000
0000
0001
0000
0000
0000
0001
0000
0000
1000
0000
0000
0010
0000
,  // measure 20
2002
0000
0000
0000
,  // measure 21
0000
0000
0000
0000
,  // measure 22
0000
0000
0000
0000
,  // measure 23
0000
0000
0000
0000
,  // measure 24
3003
0000
1000
0000
1000
0000
0000
0010
0000
0000
1000
0000
1000
0000
0000
0100
,  // measure 25
0000
0000
1000
0000
1000
0000
0000
0001
0000
0000
1000
0000
1000
0000
0000
0010
,  // measure 26
0000
0000
1000
0000
1000
0000
0000
0100
0000
0000
1000
0000
1000
0000
0000
0001
,  // measure 27
0000
0000
1000
0000
1000
0000
0000
0010
0000
0000
1000
0000
1000
0000
0000
1001
,  // measure 28
0000
0000
0001
0000
0001
0000
0000
0010
0000
0000
0001
0000
0001
0000
0000
0100
,  // measure 29
0000
0000
0001
0000
0001
0000
0000
1000
0000
0000
0001
0000
0001
0000
0000
0100
,  // measure 30
0000
0000
0001
0000
0001
0000
0000
0010
0000
0000
0001
0000
0001
0000
0000
1000
,  // measure 31
0000
0000
0001
0000
0001
0000
0000
0100
0000
0000
0001
0000
0001
0000
0000
1000
,  // measure 32
0010
0000
0000
0010
0000
0000
0100
0000
0001
0000
0010
0000
,  // measure 33
0110
0000
0000
0100
0000
0000
0100
0000
0010
0000
0001
0000
,  // measure 34
1000
0000
0000
1000
0000
0000
0100
0000
0010
0000
0100
0000
,  // measure 35
1100
0000
0000
1100
0000
0000
0100
0000
0010
0000
0001
0000
,  // measure 36
0100
0000
0000
0100
0000
0000
0010
0000
1000
0000
0100
0000
,  // measure 37
0110
0000
0000
0010
0000
0000
0001
0000
0010
0000
0100
0000
,  // measure 38
0010
0000
0000
0010
0000
0000
0100
0000
0010
0000
0001
0000
,  // measure 39
1001
0000
0000
1001
0000
0000
0001
0000
1000
0000
0010
0000
,  // measure 40
1000
0000
0001
0000
0010
0000
0010
0000
0001
0000
1000
0000
,  // measure 41
1000
0000
0001
0000
0010
0000
0010
0000
0001
0000
1000
0000
,  // measure 42
1000
0000
0001
0000
0010
0000
0010
0000
0001
0000
1000
0000
,  // measure 43
1000
0000
0001
0000
0010
0000
0010
0000
0001
0000
1000
0000
,  // measure 44
1001
0110
1001
0110
,  // measure 45
1001
0110
1001
0110
,  // measure 46
0001
1000
0001
1000
0001
1000
0001
1000
,  // measure 47
1001
1001
1001
0110
,  // measure 48
1001
0000
0000
0000
1000
0000
0100
0000
1000
0100
0000
1000
0000
0010
0000
0100
,  // measure 49
0000
0000
0010
0000
0100
0001
0010
0000
0100
0010
0000
0001
0000
1000
0000
0001
,  // measure 50
0010
0000
0100
0000
0010
0001
0100
0000
0010
1000
0000
0001
0000
1000
0000
0100
,  // measure 51
0000
0000
0010
0000
0100
0010
0001
0000
1000
0010
0000
0100
0000
0010
1000
0100
,  // measure 52
0010
0000
0100
0000
1000
0001
0100
0000
0001
0010
0000
0100
0000
0010
0000
0001
,  // measure 53
0000
0000
1000
0000
0001
1000
0100
0000
1000
0010
0000
0100
0000
0010
0000
1000
,  // measure 54
0001
0000
0010
0000
0100
0010
0001
0000
0010
0001
0000
0100
0000
0010
0000
0000
,  // measure 55
1001
0110
1001
0110
,  // measure 56
1001
0000
2000
0000
3001
0010
0100
0000
0010
0001
0000
1000
0000
0010
0000
0100
,  // measure 57
0000
0000
0010
0000
1000
0100
0010
0000
0100
0010
0000
0001
0000
1000
0000
0001
,  // measure 58
0100
0000
0010
0000
0100
0001
1000
0000
0001
1000
0000
0100
0000
1000
0000
0010
,  // measure 59
0000
0000
0100
0000
0010
1000
0001
0000
0010
0100
0000
0010
0000
0001
0010
0100
,  // measure 60
1000
0000
0100
0000
1000
0010
0100
0000
0010
1000
0000
0001
0000
0010
0000
0001
,  // measure 61
0000
0000
0010
0000
0001
0100
0010
0000
1000
0001
0000
0010
0000
0100
0000
0010
,  // measure 62
0001
0000
1000
0000
0010
1000
0100
0000
0010
0100
0000
1000
0000
0001
0000
0000
,  // measure 63
0000
0000
0100
0000
0010
0100
0001
0000
1000
0001
0000
0010
0000
0100
0010
0001
,  // measure 64
1000
0000
0000
0000
;

//---------------dance-single - ----------------
#NOTEDATA:;
#CHARTNAME:;
#STEPSTYPE:dance-single;
#DESCRIPTION:;
#CHARTSTYLE:;
#DIFFICULTY:Medium;
#METER:8;
#RADARVALUES:0.324278,0.463649,0.539314,0.000000,0.000000,282.000000,215.000000,67.000000,0.000000,0.000000,0.000000,0.000000,0.000000,0.000000,0.324278,0.463649,0.539314,0.000000,0.000000,282.000000,215.000000,67.000000,0.000000,0.000000,0.000000,0.000000,0.000000,0.000000;
#CREDIT:Pandemonium X;
#NOTES:
// measure 0
0000
0000
0000
0000
,  // measure 1
0000
0000
0000
0000
,  // measure 2
0000
0000
0000
0000
,  // measure 3
1000
1000
1000
1000
,  // measure 4
1001
0001
0010
0001
,  // measure 5
0100
0010
1000
0100
,  // measure 6
0011
0001
0100
0010
,  // measure 7
0100
0000
0001
0000
1000
0000
0100
0010
,  // measure 8
0011
0001
1000
0010
,  // measure 9
1000
0100
0010
0100
,  // measure 10
1100
0100
1000
0010
,  // measure 11
1001
0110
1001
0110
,  // measure 12
1001
1000
0001
0100
,  // measure 13
0010
0001
0010
1000
,  // measure 14
1100
1000
0100
0001
,  // measure 15
0100
0010
0001
0100
,  // measure 16
1001
0001
1000
0010
,  // measure 17
0001
0010
0100
0010
,  // measure 18
1010
0010
1000
0001
,  // measure 19
1001
0110
1001
0110
,  // measure 20
1001
0000
0000
0000
,  // measure 21
0000
0000
0000
0000
,  // measure 22
0000
0000
0000
0000
,  // measure 23
0000
0000
0000
0000
,  // measure 24
0000
0010
0010
0000
0000
0010
0010
0000
,  // measure 25
0000
0010
0010
0000
0000
0010
0010
0000
,  // measure 26
0000
0100
0100
0000
0000
0100
0100
0000
,  // measure 27
0000
0100
0100
0000
0000
0100
0100
0000
,  // measure 28
0000
0001
0001
0000
0000
0001
0001
0000
,  // measure 29
0000
0001
0001
0000
0000
0001
0001
0000
,  // measure 30
0000
1000
1000
0000
0000
1000
1000
0000
,  // measure 31
0000
1000
1000
0000
0000
1000
1000
0000
,  // measure 32
1001
0000
0001
1000
,  // measure 33
0110
0000
1000
0110
,  // measure 34
0000
0000
0001
1000
,  // measure 35
0110
0110
1000
0001
,  // measure 36
0000
0000
0100
0010
,  // measure 37
1001
0000
0100
1001
,  // measure 38
0000
0000
0010
0100
,  // measure 39
1001
1001
0100
0010
,  // measure 40
1001
0000
1010
0000
,  // measure 41
1001
0000
0011
0000
,  // measure 42
1001
0000
1100
0000
,  // measure 43
1001
0000
0101
0000
,  // measure 44
1001
1001
0110
0110
,  // measure 45
0101
0101
0011
0011
,  // measure 46
0110
1100
1010
0110
,  // measure 47
1001
1001
1001
1001
,  // measure 48
0110
0010
1000
0010
,  // measure 49
0001
0010
0100
0001
,  // measure 50
1100
0100
1000
0010
,  // measure 51
0001
0000
0010
0000
0100
0000
0010
1000
,  // measure 52
1001
0001
0010
1000
,  // measure 53
0010
0001
0100
0010
,  // measure 54
1001
1000
0001
0100
,  // measure 55
1001
0110
1001
0110
,  // measure 56
1001
0010
0001
0100
,  // measure 57
1000
0100
0010
1000
,  // measure 58
0101
0001
0010
1000
,  // measure 59
0010
0001
0100
1000
,  // measure 60
1100
0100
0010
1000
,  // measure 61
0001
0010
1000
0010
,  // measure 62
0011
0001
0100
0010
,  // measure 63
1001
1001
1001
1001
,  // measure 64
0110
0000
0000
0000
;

//---------------dance-single - ----------------
#NOTEDATA:;
#CHARTNAME:;
#STEPSTYPE:dance-single;
#DESCRIPTION:;
#CHARTSTYLE:;
#DIFFICULTY:Easy;
#METER:6;
#RADARVALUES:0.246083,0.360616,0.169039,0.000000,0.000000,214.000000,193.000000,21.000000,0.000000,0.000000,0.000000,0.000000,0.000000,0.000000,0.246083,0.360616,0.169039,0.000000,0.000000,214.000000,193.000000,21.000000,0.000000,0.000000,0.000000,0.000000,0.000000,0.000000;
#CREDIT:Pandemonium X;
#NOTES:
// measure 0
0000
0000
0000
0000
,  // measure 1
0000
0000
0000
0000
,  // measure 2
0000
0000
0000
0000
,  // measure 3
0000
0000
0000
0000
,  // measure 4
1000
0001
1000
0001
,  // measure 5
0100
0001
0100
0001
,  // measure 6
0010
0001
0010
0001
,  // measure 7
1000
0100
1000
0100
,  // measure 8
0010
0001
0100
0001
,  // measure 9
0010
0001
0100
0001
,  // measure 10
1000
0100
0010
0100
,  // measure 11
1001
0110
1001
0110
,  // measure 12
1001
1000
0001
0010
,  // measure 13
0001
1000
0010
1000
,  // measure 14
0001
1000
0100
1000
,  // measure 15
0001
0100
0001
1000
,  // measure 16
0100
0010
0001
1000
,  // measure 17
0001
0010
0100
1000
,  // measure 18
0100
0010
0001
1000
,  // measure 19
1001
1001
1001
1001
,  // measure 20
0110
0000
0000
0000
,  // measure 21
0000
0000
0000
0000
,  // measure 22
0000
0000
0000
0000
,  // measure 23
0000
0000
0000
0000
,  // measure 24
0000
1000
0000
1000
,  // measure 25
0000
0001
0000
0001
,  // measure 26
0000
1000
0000
1000
,  // measure 27
0000
0001
0000
0001
,  // measure 28
0000
0100
0000
0100
,  // measure 29
0000
0010
0000
0010
,  // measure 30
0000
0100
0000
0100
,  // measure 31
0000
0010
0000
0010
,  // measure 32
1000
0000
0001
0010
,  // measure 33
0100
0000
0010
0001
,  // measure 34
0000
0000
1000
0001
,  // measure 35
0100
0100
0001
1000
,  // measure 36
0000
0000
0010
1000
,  // measure 37
0100
0000
0010
0100
,  // measure 38
0000
0000
1000
0100
,  // measure 39
0010
0010
0001
1000
,  // measure 40
0001
0000
0100
0000
,  // measure 41
0010
0000
1000
0000
,  // measure 42
0100
0000
0010
0000
,  // measure 43
0001
0000
0100
0000
,  // measure 44
0010
0010
0100
0100
,  // measure 45
0001
0001
1000
1000
,  // measure 46
0001
0100
0100
0100
,  // measure 47
1001
0110
1001
0110
,  // measure 48
1001
0001
0010
1000
,  // measure 49
0010
0100
0010
0001
,  // measure 50
1000
0001
0100
1000
,  // measure 51
0100
0001
0010
0001
,  // measure 52
1000
0010
0100
0001
,  // measure 53
0010
1000
0010
0001
,  // measure 54
1000
0001
0100
0001
,  // measure 55
1001
0110
1001
0110
,  // measure 56
1001
0001
1000
0010
,  // measure 57
0001
0010
0100
0001
,  // measure 58
1000
0100
0001
0100
,  // measure 59
0010
0001
0100
0010
,  // measure 60
1000
0001
0100
1000
,  // measure 61
0100
0010
1000
0001
,  // measure 62
0010
1000
0010
0001
,  // measure 63
1000
1000
1000
1000
,  // measure 64
0110
0000
0000
0000
;

//---------------dance-single - ----------------
#NOTEDATA:;
#CHARTNAME:;
#STEPSTYPE:dance-single;
#DESCRIPTION:;
#CHARTSTYLE:;
#DIFFICULTY:Beginner;
#METER:4;
#RADARVALUES:0.126491,0.206066,0.128791,0.000000,0.000000,110.000000,94.000000,16.000000,0.000000,0.000000,0.000000,0.000000,0.000000,0.000000,0.126491,0.206066,0.128791,0.000000,0.000000,110.000000,94.000000,16.000000,0.000000,0.000000,0.000000,0.000000,0.000000,0.000000;
#CREDIT:Pandemonium X;
#NOTES:
// measure 0
0000
0000
0000
0000
,  // measure 1
0000
0000
0000
0000
,  // measure 2
0000
0000
0000
0000
,  // measure 3
0000
0000
0000
0000
,  // measure 4
1001
0000
0000
0000
,  // measure 5
0010
0000
0000
0000
,  // measure 6
1001
0000
0000
0000
,  // measure 7
1000
0000
0000
0000
,  // measure 8
0110
0000
0000
0000
,  // measure 9
0001
0000
0000
0000
,  // measure 10
0110
0000
0000
0000
,  // measure 11
1000
1000
1000
1000
,  // measure 12
0001
1000
0000
0000
,  // measure 13
0010
0000
0000
0000
,  // measure 14
1000
0000
0000
0000
,  // measure 15
0100
0000
0000
0000
,  // measure 16
0010
0000
0000
0000
,  // measure 17
0001
0000
0000
0000
,  // measure 18
1000
0000
0000
0000
,  // measure 19
0010
0010
0010
0000
,  // measure 20
0110
0000
0000
0000
,  // measure 21
0000
0000
0000
0000
,  // measure 22
0000
0000
0000
0000
,  // measure 23
0000
0000
0000
0000
,  // measure 24
1000
0000
0000
0000
0000
1000
0000
0000
,  // measure 25
0000
1000
0000
0000
0000
1000
0000
0000
,  // measure 26
0000
1000
0000
0000
0000
1000
0000
0000
,  // measure 27
0000
1000
0000
0000
0000
1000
0000
0000
,  // measure 28
0000
0001
0000
0000
0000
0001
0000
0000
,  // measure 29
0000
0001
0000
0000
0000
0001
0000
0000
,  // measure 30
0000
0001
0000
0000
0000
0001
0000
0000
,  // measure 31
0000
0001
0000
0000
0000
0001
0000
0000
,  // measure 32
0110
0000
0010
0000
,  // measure 33
0000
0000
0100
0000
,  // measure 34
0000
0000
0010
0000
,  // measure 35
0100
0100
0010
0000
,  // measure 36
1001
0000
1000
0000
,  // measure 37
0001
0000
1000
0000
,  // measure 38
0000
0000
0001
0000
,  // measure 39
1000
1000
0001
0000
,  // measure 40
1000
0000
0100
0000
,  // measure 41
0010
0000
0001
0000
,  // measure 42
1000
0000
0100
0000
,  // measure 43
0010
0000
0001
0000
,  // measure 44
1000
0000
1000
0000
,  // measure 45
0001
0000
0001
0000
,  // measure 46
0100
0000
0010
0000
,  // measure 47
1000
1000
1000
1000
,  // measure 48
1001
0000
0000
0000
,  // measure 49
0010
0000
0000
0000
,  // measure 50
1001
0000
0000
0000
,  // measure 51
0100
0000
0000
0000
,  // measure 52
0110
0000
0000
0000
,  // measure 53
0001
0000
0000
0000
,  // measure 54
1001
0000
0000
0000
,  // measure 55
0010
0010
0010
0010
,  // measure 56
1001
1000
0000
0000
,  // measure 57
0001
0000
0000
0000
,  // measure 58
0110
0000
0000
0000
,  // measure 59
0001
0000
0000
0000
,  // measure 60
1001
0000
0000
0000
,  // measure 61
0100
0000
0000
0000
,  // measure 62
1001
0000
0000
0000
,  // measure 63
0010
0000
0100
0000
,  // measure 64
1001
0000
0000
0000
;
