#TITLE:Lekka;
#SUBTITLE:;
#ARTIST:Bardalimov;
#TITLETRANSLIT:;
#SUBTITLETRANSLIT:;
#ARTISTTRANSLIT:;
#GENRE:UPLIFTING TRANCE;
#CREDIT:;
#BANNER:banner.png;
#BACKGROUND:background.png;
#LYRICSPATH:;
#CDTITLE:CDTITLE.png;
#MUSIC:Lekka.ogg;
#OFFSET:-0.133000;
#SAMPLESTART:71.437355;
#SAMPLELENGTH:13.913040;
#SELECTABLE:YES;
#BPMS:0.000000=138.000000
;
#STOPS:
;
#BGCHANGES:;
#KEYSOUNDS:;
#ATTACKS:;

//---------------dance-single - ----------------
#NOTES:
     dance-single:
     :
     Hard:
     13:
     0.524448,0.650792,0.050061,0.116809,0.279507,440.000000,434.000000,6.000000,14.000000,0.000000,0.000000,0.524448,0.650792,0.050061,0.116809,0.279507,440.000000,434.000000,6.000000,14.000000,0.000000,0.000000:
// measure 0
0000
0000
0000
0000
,  // measure 1
1000
0000
0000
1000
0000
0000
0001
0000
0010
0000
0000
0010
0000
0000
0100
0000
,  // measure 2
0010
0000
0000
0010
0000
0000
0001
0000
0100
0000
0000
0100
0000
0000
0010
0000
,  // measure 3
1000
0000
0000
1000
0000
0000
0100
0000
0010
0000
0000
0010
0000
0000
0100
0000
,  // measure 4
1000
0000
0000
1000
0000
0000
0010
0000
0100
0000
0000
0100
0000
0000
0001
0000
,  // measure 5
1000
0000
0000
0100
0000
0000
1000
0000
0010
0000
0000
0100
0000
0000
0001
0000
,  // measure 6
0010
0000
0000
0100
0000
0000
0010
0000
0001
0000
0000
0100
0000
0000
0010
0000
,  // measure 7
1000
0000
0000
0010
0000
0000
1000
0000
0001
0000
0000
0010
0000
0000
0001
0000
,  // measure 8
1000
0000
0100
0001
0000
0001
0100
0000
,  // measure 9
2100
0000
0000
0100
0000
0000
3100
0000
0020
0000
0000
0001
0000
0000
0031
0000
,  // measure 10
0200
0000
0000
0010
0000
0000
0310
0000
2000
0000
0000
0001
0000
0000
3001
0000
,  // measure 11
0200
0000
0000
0010
0000
0000
0310
0000
2000
0000
0000
0100
0000
0000
3100
0000
,  // measure 12
0020
0000
0000
0001
0000
0000
0031
0000
0200
0000
0000
0010
0000
0000
0310
0000
,  // measure 13
2000
0000
0000
0001
0000
0000
3001
0000
0020
0000
0000
0100
0000
0000
0130
0000
,  // measure 14
2000
0000
0000
0100
0000
0000
3100
0000
0020
0000
0000
0001
0000
0000
0031
0000
,  // measure 15
1000
0001
1000
0001
1000
0001
1000
0001
,  // measure 16
1000
0000
0010
0001
0000
0010
1000
0000
,  // measure 17
2001
0001
0000
0010
,  // measure 18
0000
0100
0000
3001
,  // measure 19
0002
0100
0000
0010
,  // measure 20
0000
1000
0000
0100
,  // measure 21
0013
0000
0000
0000
0100
0000
0000
0100
0000
0000
1000
0000
0001
0000
1000
0000
,  // measure 22
0010
0000
0000
0000
0100
0000
0000
0100
0000
0000
0010
0000
1000
0000
0100
0000
,  // measure 23
0010
0000
0000
0000
0100
0000
0000
0100
0000
0000
0100
0000
0010
0000
0100
0000
,  // measure 24
1000
0000
1000
0100
0000
0100
0001
0000
,  // measure 25
1100
1000
0010
0000
0100
0001
0000
0010
,  // measure 26
0100
0000
0000
0000
0010
0000
0001
0000
0000
0000
1000
0000
0001
0000
0100
0010
,  // measure 27
0100
0001
0010
0000
0001
0100
0000
0010
,  // measure 28
0100
0000
0000
0000
0001
0000
0010
0000
0000
0000
0100
0000
0010
0000
0001
1000
,  // measure 29
0001
0000
1000
0000
0000
0000
0001
0000
0000
0000
1000
0000
0010
0000
0010
0100
,  // measure 30
0000
0000
0001
0000
0000
0000
1000
0000
0100
0000
0000
0000
0010
0000
0100
1000
,  // measure 31
0100
0000
1000
0010
0000
0100
0001
0000
,  // measure 32
0010
0000
0100
0010
0001
0000
1000
0000
0001
0100
0000
0100
0001
0000
0000
0000
,  // measure 33
1000
0001
0010
0000
0100
1000
0000
0010
,  // measure 34
0100
0000
0000
0000
0001
0000
0010
0000
0000
0000
0100
0000
0010
0000
0001
0100
,  // measure 35
0001
1000
0100
0000
1000
0010
0000
0100
,  // measure 36
0010
0000
0000
0000
1000
0000
0010
0000
0000
0000
0100
0000
0001
0000
0010
0100
,  // measure 37
0010
0000
0000
0000
0100
0000
1000
0000
0000
0000
0001
0000
0010
0000
0010
0100
,  // measure 38
0000
0000
0010
0000
0000
0000
0001
0000
0100
0000
0000
0000
0010
0000
1000
0001
,  // measure 39
1000
0100
0010
0001
1000
0100
0010
0001
,  // measure 40
1001
0000
0001
0100
1000
0000
1100
0000
0100
0001
0000
0001
0010
0000
0000
0000
,  // measure 41
0100
1000
0010
0100
0010
1000
0100
0010
,  // measure 42
0001
0000
0100
0000
0010
0000
0100
0000
0001
0000
1000
0000
0100
0000
0010
0001
,  // measure 43
0010
0001
1000
0001
0100
1000
0100
0001
,  // measure 44
0010
0000
0001
0000
1000
0000
0100
0000
0001
0000
0100
0000
1000
0000
0001
1000
,  // measure 45
0001
0000
0010
0000
0001
0000
0100
0000
0010
0000
1000
0000
0100
0000
0010
0001
,  // measure 46
0000
0000
0100
0000
0010
0000
1000
0000
0100
0000
0010
0000
0100
0000
1000
0010
,  // measure 47
1000
0001
0010
0001
0100
0010
1000
0100
,  // measure 48
0010
0000
0100
1000
0010
0000
0100
0000
0001
1000
0000
1000
0001
0000
0000
0000
,  // measure 49
1000
0010
1000
0001
0010
0100
0010
0001
,  // measure 50
1000
0000
0010
0000
1000
0000
0001
0000
0010
0000
0100
0000
1000
0000
0001
0100
,  // measure 51
0001
0010
1000
0010
0100
0001
0100
0010
,  // measure 52
0001
0000
1000
0000
0010
0000
0001
0000
0010
0000
0100
0000
0001
0000
1000
0100
,  // measure 53
1000
0000
0010
0000
0100
0000
0001
0000
0010
0000
0100
0000
1000
0000
1000
0001
,  // measure 54
0000
0000
0100
0000
0001
0000
0010
0000
0001
0000
1000
0000
0010
0000
0100
0001
,  // measure 55
0100
0001
0010
1000
0010
0001
0100
0010
,  // measure 56
1000
0000
0001
0010
0100
0000
0100
0000
1000
0100
0000
0100
0010
0000
0000
0000
,  // measure 57
0100
1000
0010
0000
0100
0001
0000
0010
,  // measure 58
0001
0000
0000
0000
1000
0000
0001
0000
0000
0000
0100
0000
1000
0000
0100
0001
,  // measure 59
0010
0100
1000
0000
0100
0010
0000
0001
,  // measure 60
0100
0000
0000
0000
0010
0000
1000
0000
0000
0000
0001
0000
1000
0000
0100
1000
,  // measure 61
0010
0000
0100
0000
0000
0000
0010
0000
1000
0000
0000
0000
0100
0000
0000
0010
,  // measure 62
0000
0000
0001
0000
0000
0000
1000
0000
0001
0000
0000
0000
0100
0000
0010
1000
,  // measure 63
0001
0010
0100
1000
0100
0010
0001
1000
,  // measure 64
0010
0100
0010
0100
0010
0100
0010
0100
0010
0100
0010
0100
0010
0000
0000
0000
,  // measure 65
1001
0000
0000
0000
;

//---------------dance-single - ----------------
#NOTES:
     dance-single:
     :
     Easy:
     5:
     0.179981,0.216931,0.025030,0.091778,0.000000,151.000000,148.000000,3.000000,11.000000,0.000000,0.000000,0.179981,0.216931,0.025030,0.091778,0.000000,151.000000,148.000000,3.000000,11.000000,0.000000,0.000000:
// measure 0
0000
0000
0000
0000
,  // measure 1
0001
0000
0100
0000
,  // measure 2
0001
0000
0010
0000
,  // measure 3
0100
0000
1000
0000
,  // measure 4
0010
0000
0100
0000
,  // measure 5
0001
0000
0010
0000
,  // measure 6
0001
0000
1000
0000
,  // measure 7
0010
0000
0100
0000
,  // measure 8
0001
1000
0010
1000
,  // measure 9
0100
0000
0001
0000
,  // measure 10
0100
0000
1000
0000
,  // measure 11
0001
0000
0010
0000
,  // measure 12
1000
0000
0010
0000
,  // measure 13
0001
0000
0100
0000
,  // measure 14
1000
0000
0100
0000
,  // measure 15
0010
0000
1000
0000
,  // measure 16
0001
1000
0010
1000
,  // measure 17
0002
0000
0000
0000
,  // measure 18
0000
0000
0000
0003
,  // measure 19
0200
0000
0000
0000
,  // measure 20
0000
0000
0000
0300
,  // measure 21
0020
0000
0000
0000
,  // measure 22
0000
0000
0000
0030
,  // measure 23
0200
0000
0000
0000
,  // measure 24
0000
0000
0000
0300
,  // measure 25
1001
0000
1000
0000
0000
0001
0000
0000
,  // measure 26
0001
0000
0000
0001
0000
0000
0001
0000
,  // measure 27
1000
0000
0010
0000
0000
0010
0000
0000
,  // measure 28
0010
0000
0000
0010
0000
0000
0100
0000
,  // measure 29
0010
0000
0000
1000
0000
0000
0010
0000
,  // measure 30
0000
0100
0000
0000
0010
0000
0000
0100
,  // measure 31
0001
0000
0000
0001
0000
0000
0001
0000
,  // measure 32
1000
0001
0100
0001
,  // measure 33
0010
0000
0100
0000
0000
0100
0000
0000
,  // measure 34
0100
0000
0000
0100
0000
0000
0100
0000
,  // measure 35
1000
0000
0010
0000
0000
0010
0000
0000
,  // measure 36
0010
0000
0000
0010
0000
0000
0100
0000
,  // measure 37
0001
0000
0000
0001
0000
0000
1000
0000
,  // measure 38
0000
1000
0000
0000
0001
0000
1000
0000
,  // measure 39
0001
0000
0000
0100
0000
0000
0010
0000
,  // measure 40
2002
0000
0000
3003
,  // measure 41
0001
0000
1000
0000
0000
0010
0000
0000
,  // measure 42
0001
0000
0000
0010
0000
0000
0100
0000
,  // measure 43
0001
0000
0010
0000
0000
1000
0000
0000
,  // measure 44
0010
0000
0000
0001
0000
0000
1000
0000
,  // measure 45
0010
0000
0000
0100
0000
0000
0010
0000
,  // measure 46
1000
0000
0000
0100
0000
0000
1000
0000
,  // measure 47
0001
0000
0000
0100
0000
0000
0001
0000
,  // measure 48
1000
0010
0100
0001
,  // measure 49
0010
0000
0100
0000
0000
0010
0000
0000
,  // measure 50
0001
0000
0000
1000
0000
0000
0001
0000
,  // measure 51
1000
0000
0010
0000
0000
0001
0000
0000
,  // measure 52
0010
0000
0000
0100
0000
0000
1000
0000
,  // measure 53
0010
0000
0000
0001
0000
0000
0010
0000
,  // measure 54
0000
0100
0000
0000
0010
0000
1000
0000
,  // measure 55
0001
0000
0000
1000
0000
0000
0100
0000
,  // measure 56
1000
0010
0100
0010
,  // measure 57
2000
0000
0000
0000
,  // measure 58
0000
0000
0000
3000
,  // measure 59
0002
0000
0000
0000
,  // measure 60
0000
0000
0000
0103
,  // measure 61
0020
0000
0000
0000
,  // measure 62
0000
0000
0000
0230
,  // measure 63
0302
0000
0000
0000
,  // measure 64
1003
0100
0010
0001
,  // measure 65
1001
0000
0000
0000
;

//---------------dance-single - ----------------
#NOTES:
     dance-single:
     :
     Medium:
     7:
     0.272951,0.379629,0.041717,0.100122,0.012515,229.000000,224.000000,5.000000,12.000000,0.000000,0.000000,0.272951,0.379629,0.041717,0.100122,0.012515,229.000000,224.000000,5.000000,12.000000,0.000000,0.000000:
// measure 0
0000
0000
0000
0000
,  // measure 1
1000
0000
0001
0000
,  // measure 2
0100
0000
0010
0000
,  // measure 3
1000
0000
0100
0000
,  // measure 4
1000
0000
0010
0000
,  // measure 5
0100
0000
0001
0000
,  // measure 6
0010
0000
0001
0000
,  // measure 7
1000
0000
0010
0000
,  // measure 8
0100
0000
0000
0010
0000
0000
1000
0000
,  // measure 9
0001
0000
0010
0000
,  // measure 10
0001
0000
0100
0000
,  // measure 11
0010
0000
1000
0000
,  // measure 12
0100
0000
1000
0000
,  // measure 13
0010
0000
0100
0000
,  // measure 14
0001
0000
0010
0000
,  // measure 15
0001
0000
1000
0000
,  // measure 16
0010
0000
0000
1000
0000
0000
0100
0000
,  // measure 17
0021
0000
0000
0000
,  // measure 18
0000
0000
0000
0000
,  // measure 19
0230
0000
0000
0000
,  // measure 20
0000
0000
0000
0000
,  // measure 21
2300
0000
0000
0000
,  // measure 22
0000
0000
0000
0000
,  // measure 23
3002
0000
0000
0000
,  // measure 24
0103
0000
0000
0001
0000
0000
0010
0000
,  // measure 25
1001
1000
0010
1000
,  // measure 26
0100
0000
0010
0000
0001
0000
0100
0001
,  // measure 27
0010
0100
0010
0001
,  // measure 28
1000
0000
0100
0000
0010
0000
0100
0010
,  // measure 29
0001
0100
0010
1000
,  // measure 30
0001
0010
0001
1000
,  // measure 31
0100
0010
0001
1000
,  // measure 32
0001
0100
0010
1000
0100
0010
0001
0000
,  // measure 33
0010
0001
0100
0001
,  // measure 34
1000
0000
0100
0000
0010
0000
0100
1000
,  // measure 35
0010
0100
0010
1000
,  // measure 36
0001
0000
0010
0000
0100
0000
0010
0100
,  // measure 37
1000
0100
1000
0010
,  // measure 38
0100
0000
0001
0000
0010
0000
0100
0010
,  // measure 39
0001
1000
0010
0100
,  // measure 40
1001
0000
0000
0000
0000
0000
0100
0000
0000
0100
0000
0000
0100
0000
0000
0000
,  // measure 41
1001
1000
0100
0000
1000
0010
0000
1000
,  // measure 42
0001
0000
1000
0100
0000
1000
0010
0100
,  // measure 43
0000
0001
0010
0000
0001
1000
0000
0001
,  // measure 44
0100
0000
0001
0010
0000
0001
1000
0100
,  // measure 45
0010
0000
0000
0000
0001
0000
0010
0000
0000
0000
0010
0000
0100
0000
0000
0100
,  // measure 46
0000
1000
0000
0001
0100
0000
0010
1000
,  // measure 47
0001
0000
0010
0100
0000
0100
1000
0000
,  // measure 48
1000
0100
0010
0001
0100
0010
1000
0000
,  // measure 49
0001
0100
0010
0000
1000
0010
0000
0100
,  // measure 50
0001
0000
1000
0010
0000
0100
0001
0010
,  // measure 51
0000
1000
0100
0000
0010
0001
0000
1000
,  // measure 52
0100
0000
0010
0001
0000
0010
0100
1000
,  // measure 53
0010
0000
0000
0000
0100
0000
0001
0000
0000
0000
0010
0000
0100
0000
0000
0100
,  // measure 54
0000
0010
0000
0001
0100
0000
0001
1000
,  // measure 55
0100
0000
0010
0100
0000
1000
0010
0000
,  // measure 56
0100
0010
1000
0001
1000
0100
0010
0000
,  // measure 57
0200
0000
0000
0000
,  // measure 58
2300
0000
0000
3020
,  // measure 59
0230
0000
0000
0000
,  // measure 60
0302
0000
0000
0023
,  // measure 61
0032
0000
0000
0000
,  // measure 62
2003
0000
0000
0000
,  // measure 63
3001
0000
0000
0100
0000
0000
1000
0000
,  // measure 64
0100
0001
0010
1000
0010
0001
1000
0000
,  // measure 65
1001
0000
0000
0000
;

//---------------dance-single - ----------------
#NOTES:
     dance-single:
     :
     Beginner:
     2:
     0.081051,0.135582,0.041717,0.000000,0.000000,68.000000,63.000000,5.000000,0.000000,0.000000,0.000000,0.081051,0.135582,0.041717,0.000000,0.000000,68.000000,63.000000,5.000000,0.000000,0.000000,0.000000:
// measure 0
0000
0000
0000
0000
,  // measure 1
0001
0000
0000
0000
,  // measure 2
1000
0000
0000
0000
,  // measure 3
0010
0000
0000
0000
,  // measure 4
1000
0000
0000
0000
,  // measure 5
0100
0000
0000
0000
,  // measure 6
1000
0000
0000
0000
,  // measure 7
0001
0000
0000
0000
,  // measure 8
0100
0000
0000
0000
,  // measure 9
0010
0000
0000
0000
,  // measure 10
1000
0000
0000
0000
,  // measure 11
0100
0000
0000
0000
,  // measure 12
0010
0000
0000
0000
,  // measure 13
0001
0000
0000
0000
,  // measure 14
1000
0000
0000
0000
,  // measure 15
0010
0000
0000
0000
,  // measure 16
0100
0000
0000
0000
,  // measure 17
0001
0000
0000
0000
,  // measure 18
0000
0000
0000
0000
,  // measure 19
1000
0000
0000
0000
,  // measure 20
0000
0000
0000
0000
,  // measure 21
0010
0000
0000
0000
,  // measure 22
0000
0000
0000
0000
,  // measure 23
0100
0000
0000
0000
,  // measure 24
0010
0000
0000
0000
,  // measure 25
1001
0000
0000
0000
,  // measure 26
0000
0000
0000
0000
,  // measure 27
0100
0000
0000
0000
,  // measure 28
0000
0000
0000
0000
,  // measure 29
0010
0000
0000
0000
,  // measure 30
0000
0000
0000
0000
,  // measure 31
1000
0000
0000
0000
,  // measure 32
0000
0000
0000
0000
,  // measure 33
1001
0000
0000
0000
,  // measure 34
0000
0000
0000
0000
,  // measure 35
0001
0000
0000
0000
,  // measure 36
0000
0000
0000
0000
,  // measure 37
0010
0000
0000
0000
,  // measure 38
0100
0000
0000
0000
,  // measure 39
1000
0000
0000
0000
,  // measure 40
1001
0000
0000
0000
,  // measure 41
0010
0000
0000
0000
,  // measure 42
1000
0000
0000
0100
,  // measure 43
1000
0000
0000
0000
,  // measure 44
0000
0000
0010
0000
,  // measure 45
0100
0000
0000
0000
,  // measure 46
0010
0000
0000
1000
,  // measure 47
0001
0000
0000
0000
,  // measure 48
0010
0000
0001
0000
,  // measure 49
1000
0000
0000
0000
,  // measure 50
0010
0000
0000
0100
,  // measure 51
0001
0000
0000
0000
,  // measure 52
0000
0000
0000
0010
,  // measure 53
0001
0000
0000
0000
,  // measure 54
1000
0000
0000
0001
,  // measure 55
0100
0000
0000
0000
,  // measure 56
0010
0000
0100
0000
,  // measure 57
1001
0000
0000
0000
,  // measure 58
1000
0000
0000
0000
,  // measure 59
0001
0000
0000
0000
,  // measure 60
0100
0000
0000
0000
,  // measure 61
0010
0000
0000
0000
,  // measure 62
1000
0000
0000
0000
,  // measure 63
0100
0000
0000
0000
,  // measure 64
1000
0000
0001
0000
,  // measure 65
0110
0000
0000
0000
;
