#TITLE:Knight of Sword;
#SUBTITLE:;
#ARTIST:Unlucky Morpheus;
#TITLETRANSLIT:;
#SUBTITLETRANSLIT:;
#ARTISTTRANSLIT:;
#GENRE:;
#CREDIT:;
#BANNER:banner.png;
#BACKGROUND:background.png;
#LYRICSPATH:;
#CDTITLE:CDTITLE.png;
#MUSIC:Knight of Sword.ogg;
#OFFSET:-0.080000;
#SAMPLESTART:72.937149;
#SAMPLELENGTH:17.142853;
#SELECTABLE:YES;
#BPMS:0.000000=84.000000
,16.000000=168.000000
,284.000000=84.000000
,298.000000=168.000000
;
#STOPS:
;
#BGCHANGES:0.000=bga.avi=1.000=0=0=0=StretchNoLoop====,
99999=-nosongbg-=1.000=0=0=0 // don't automatically add -songbackground-
;
#KEYSOUNDS:;
#ATTACKS:;

//---------------dance-single - ----------------
#NOTES:
     dance-single:
     :
     Hard:
     15:
     0.690264,0.976603,0.425395,0.489606,0.589935,602.000000,549.000000,53.000000,61.000000,0.000000,0.000000,0.690264,0.976603,0.425395,0.489606,0.589935,602.000000,549.000000,53.000000,61.000000,0.000000,0.000000:
// measure 0
0000
0000
0000
0000
,  // measure 1
0000
0000
0000
0000
,  // measure 2
0001
0000
0000
0010
0000
0000
0100
0000
0010
0000
0000
0000
0001
0000
0000
0000
1000
0000
0000
0010
0000
0000
1000
0000
0100
0000
0000
0000
0000
0000
0000
0000
,  // measure 3
0110
0000
0001
0001
1000
1000
0010
0010
0110
0100
0010
1000
0100
0010
0001
1000
,  // measure 4
0001
0001
0100
0010
0000
0110
0000
1010
,  // measure 5
0000
0101
0000
0011
0000
0010
0100
1000
,  // measure 6
0001
1000
0010
1000
0000
1010
0000
0011
,  // measure 7
0000
0000
0110
0000
0000
0000
2100
0000
0000
0000
3001
0010
0001
0010
0001
0010
,  // measure 8
0001
0000
0010
0100
0000
0100
1000
0000
,  // measure 9
1000
0001
0000
0100
0010
0000
1010
0000
,  // measure 10
1000
0010
0100
0001
0010
1000
0010
0001
,  // measure 11
0000
0000
1010
0000
1010
0000
0000
0000
1000
0010
0100
0001
0010
0100
0010
0001
,  // measure 12
1000
0010
0100
0010
0100
0000
0010
1000
0001
0000
1001
0000
0000
0000
1100
0000
,  // measure 13
0000
0011
0000
0101
0000
0001
1000
0100
,  // measure 14
0010
0100
1000
1010
0000
1100
0000
1001
,  // measure 15
0000
0000
0101
0000
0000
0000
0021
0000
0000
0000
0130
1000
0100
1000
0100
1000
,  // measure 16
0100
0000
0010
0100
0000
1000
0010
0000
,  // measure 17
0100
0001
0000
0010
0100
0000
1100
0000
,  // measure 18
2000
0000
0000
3020
0000
0000
0130
0000
,  // measure 19
0001
0000
1001
0000
1001
0000
1000
0100
1000
0100
0010
0001
0010
0001
0100
0001
,  // measure 20
1000
0100
0010
0001
0010
0100
0010
0001
1000
0100
0010
0100
1000
0010
0100
0001
,  // measure 21
0000
1001
0000
0110
,  // measure 22
0000
1001
1001
0000
,  // measure 23
0001
0000
1000
0010
0100
0000
0100
0010
,  // measure 24
0000
1001
1001
0000
,  // measure 25
2000
3200
0310
0110
,  // measure 26
0020
0032
0203
0300
,  // measure 27
0010
0000
1000
0001
0011
0000
0001
1000
,  // measure 28
1010
0000
1000
0010
0100
0001
0010
0100
,  // measure 29
0010
0000
0001
0000
0100
0001
0100
0000
0010
0000
1000
0000
0001
1000
0001
0000
,  // measure 30
0010
0000
0100
0000
1000
0100
1000
0000
0100
0000
1000
0000
0010
1000
0010
0000
,  // measure 31
0100
0000
0001
0000
0010
0100
0010
0000
0100
0000
1000
0000
0010
0100
0010
0000
,  // measure 32
0100
0000
0001
0000
0010
0001
0010
0000
0100
0000
1000
0000
0010
1000
0010
0000
,  // measure 33
1000
0000
0000
0001
0010
0000
0000
0010
0100
0000
0000
0100
1000
0000
0000
1000
,  // measure 34
0001
0000
0000
0001
0100
0000
0000
0100
0010
0000
0000
0000
0000
0000
0000
0000
,  // measure 35
0101
0000
0000
0000
0011
0000
0000
0000
0110
0000
0000
0010
0000
0000
0001
0000
,  // measure 36
2000
0000
3020
0000
,  // measure 37
0130
0001
0100
0001
0100
0000
0001
0000
0010
0000
0100
0000
1000
0000
0001
0000
,  // measure 38
1000
0010
1000
0010
1000
0000
0001
0000
0010
0000
0100
0000
0010
0000
0001
0000
,  // measure 39
1000
0001
1000
0001
1000
0000
0100
0000
1000
0000
0010
0000
0100
0000
0001
0000
,  // measure 40
0010
0100
0010
0100
0010
0000
0001
0000
1000
0000
0100
0000
0010
0000
0100
0000
,  // measure 41
1000
0010
0100
0001
0010
0000
0100
0000
0010
0000
0001
0000
1000
0000
0010
0000
,  // measure 42
1000
0100
0010
0100
1000
0000
0001
0000
0010
0000
0100
0000
0010
0001
0010
0100
,  // measure 43
1000
0000
0010
1010
0000
0001
0011
0000
,  // measure 44
1010
0000
1000
1100
0000
0001
0101
0000
,  // measure 45
1001
1000
0100
1000
0001
0100
0010
1000
,  // measure 46
0100
0010
0100
0010
0001
0010
0100
1000
0100
1000
0010
1000
0010
0100
0010
0000
,  // measure 47
0100
0000
0001
0010
0000
0100
0010
0000
0001
0000
1000
0010
0000
0100
0010
0000
,  // measure 48
2000
0000
0000
0000
0200
0000
0000
3300
,  // measure 49
0010
0000
0100
1000
0000
0100
0010
0000
0100
0000
1000
0010
0000
0100
0001
0000
,  // measure 50
0020
0000
0000
0100
0200
0000
0330
0000
,  // measure 51
1000
0000
0001
0100
0000
0010
1000
0000
0001
0000
0000
0000
1100
0000
0000
0000
,  // measure 52
1000
0000
0010
0100
0000
0001
0010
0000
0100
0000
0000
0000
0000
0000
0000
0000
,  // measure 53
0200
0000
0000
2300
0000
0000
3002
0000
,  // measure 54
1003
0100
1000
0100
0010
0100
0010
0001
0010
0001
0100
0001
0100
0010
0100
0001
,  // measure 55
1000
0000
0100
0010
0000
0100
1000
0000
0010
0000
0100
0001
0000
0010
0100
0000
,  // measure 56
2000
0000
0000
0000
0002
0000
0000
3003
,  // measure 57
1000
0000
0100
1000
0000
0010
0100
0000
0010
0000
1000
0010
0000
0100
0001
0000
,  // measure 58
0020
0000
0000
0100
0200
0000
0330
0000
,  // measure 59
1000
0000
0001
0010
0000
0010
0100
0000
1000
0000
0000
0000
0101
0000
0000
0000
,  // measure 60
0001
0000
1000
0010
0000
0100
0001
0000
0020
0000
0000
0000
0030
0000
0000
0000
,  // measure 61
0200
0000
0000
0320
0000
0000
0032
0000
,  // measure 62
1003
0010
0000
0000
0010
0100
0000
0000
0001
0010
0001
0010
0001
0010
0001
0010
,  // measure 63
0002
0000
0000
0203
0000
0000
2300
0000
3200
0000
0000
0302
0000
0000
0203
0000
,  // measure 64
0320
0000
0000
0000
0200
0000
0000
0330
,  // measure 65
0020
0000
0000
2030
0000
0000
3200
0000
0302
0000
0000
0203
0000
0000
0320
0000
,  // measure 66
0032
0000
0000
0000
0000
0000
2000
3000
2000
0000
0000
0000
0000
0000
3003
0000
,  // measure 67
0002
0000
0000
2003
0000
0000
3200
0000
0302
0000
0000
0000
0203
0000
0000
0000
,  // measure 68
2300
0000
0000
3020
0000
0000
0032
0000
0020
0000
0000
0000
0000
0000
0033
0000
,  // measure 69
0200
0000
0000
0320
0000
0000
2030
0000
,  // measure 70
3001
0010
0001
0010
0100
0010
0100
1000
0100
1000
0010
1000
0001
0100
0001
0010
,  // measure 71
0100
0000
0000
1000
0000
0000
0100
0000
1000
0000
0000
0010
0000
0000
0100
0000
0002
0000
0000
0000
0000
0000
0000
0000
2000
0000
0000
0000
3003
0000
0000
0000
,  // measure 72
0001
0000
0000
0010
0000
0000
0100
0000
0010
0000
0000
0001
0000
0000
0100
0000
0020
0000
0000
0000
0000
0000
1000
0000
2000
0000
0000
0000
3030
0000
0000
0000
,  // measure 73
0001
0000
0000
1000
0000
0000
0100
0000
0010
0000
0000
0000
0110
0000
0000
0000
0100
0000
0000
1000
0000
0000
0010
0000
0200
0000
0000
0000
0300
0000
0000
0000
,  // measure 74
0101
0000
0000
0011
0000
0000
1001
0000
1000
0100
0010
0000
0100
0000
1000
0000
,  // measure 75
0010
0000
0100
0000
0001
0000
0010
0000
1100
0000
1000
0001
1000
0000
1000
0001
,  // measure 76
0100
0010
1000
0100
0010
0000
0110
0000
0000
0000
1100
0000
0000
0000
0011
0000
,  // measure 77
0000
0000
0010
0001
0100
0010
1000
0001
0020
0000
0000
0000
0000
0000
0000
0000
,  // measure 78
0000
0000
0030
0000
;

//---------------dance-single - ----------------
#NOTES:
     dance-single:
     :
     Medium:
     10:
     0.439155,0.630067,0.256842,0.425395,0.148487,383.000000,351.000000,32.000000,53.000000,0.000000,0.000000,0.439155,0.630067,0.256842,0.425395,0.148487,383.000000,351.000000,32.000000,53.000000,0.000000,0.000000:
0000
0000
0000
0000
,
0000
0000
0000
0000
,
1000
0000
0000
0001
0000
0000
0010
0000
0001
0000
0000
0000
1000
0000
0000
0000
0001
0000
0000
1000
0000
0000
0100
0000
0010
0000
0000
0000
0000
0000
0000
0000
,
0100
0000
0000
1000
0000
0000
0010
0000
0100
0000
0000
0000
0010
0000
0000
0000
,
1000
0000
0100
0010
0000
0100
0000
1000
,
0000
0010
0000
0100
0000
0001
0010
0100
,
0010
0000
0001
1000
0000
0001
0000
0100
,
0000
0001
0000
0020
0000
0130
0010
0001
,
1000
0000
0001
0100
0000
0001
0010
0000
,
0010
0100
0000
0100
1000
0000
0100
0000
,
1000
0000
0000
0010
0000
0000
0100
0000
,
0000
0001
1000
0000
0100
0010
0001
1000
,
0001
0100
1000
0000
0100
0010
0000
1000
,
0000
0001
0000
0010
0000
0100
0010
0001
,
1000
0000
0001
0100
0000
0001
0000
0010
,
0000
0100
0000
0020
0000
0031
0010
0100
,
1000
0000
0001
0100
0000
0010
1000
0000
,
0100
0010
0000
0100
1000
0000
0001
0000
,
0100
0000
0000
0100
0000
0000
0010
0000
2000
0000
0000
0000
3100
0000
0000
0000
,
0010
0000
0000
0010
0000
0000
0001
0000
2000
0000
0000
0000
3010
0000
0000
0000
,
0100
0010
1000
0001
0010
0100
0010
0001
,
0000
1001
0000
0110
,
0000
1001
1001
0000
,
1010
1000
0011
0100
,
0000
1001
0110
0000
,
2000
3200
0320
0032
,
0203
0320
2030
3000
,
0001
0000
0000
0000
1000
0000
0000
0000
0001
0000
0000
0100
0000
0000
0001
0000
,
0020
0000
0000
0000
0030
0100
0010
0001
,
1000
0000
0100
1000
0010
0000
0100
0001
,
0020
0000
0000
0000
0030
0100
0010
0001
,
1000
0000
0001
1000
0100
0010
0100
1000
,
0002
0000
0000
0000
0003
1000
0100
0010
,
0200
2300
3002
0203
,
0302
0023
0230
0300
,
0010
0000
0000
0000
0100
0000
0000
0000
1000
0000
0000
0001
0000
0000
0100
0000
,
0020
0000
0000
0000
0000
0030
0000
0000
,
1000
0100
0010
0000
0100
0000
1000
0000
,
0001
0100
0010
0000
1000
0000
0001
0000
,
0010
0100
1000
0000
0100
0000
1000
0000
,
0010
0100
0001
0000
1000
0000
0001
0000
,
0010
0100
1000
0000
0100
0000
0001
0000
,
0100
1000
0010
0000
0001
0000
0010
0000
,
0110
0010
1100
0001
,
1001
0001
0110
0100
,
1200
0000
0000
0300
,
2002
0000
0000
3003
,
0101
0000
0000
0001
0000
0000
0001
0000
1000
0000
0000
1000
0000
0000
1000
0000
,
0200
0000
0020
0330
,
0001
0000
0000
1000
0000
0000
0010
0000
0100
0000
0000
0001
0000
0000
0010
0000
,
0200
0000
0000
1000
2000
0000
3300
0000
,
0100
0000
0000
0100
0000
0000
1000
0000
0010
0000
0000
0000
0100
0000
0000
0000
,
0001
0000
0000
0001
0000
0000
1000
0000
0001
0000
0000
0000
0000
0000
0000
0000
,
1000
0000
0000
0010
0000
0000
0100
0000
,
0001
0100
0010
1000
0001
0010
0100
0010
,
0001
0000
0000
0001
0000
0000
1000
0000
0100
0000
0000
0100
0000
0000
0010
0000
,
0002
0000
0200
0303
,
0100
0000
0000
0001
0000
0000
0010
0000
0001
0000
0000
1000
0000
0000
0001
0000
,
0200
0000
0000
0010
0020
0000
0330
0000
,
1000
0000
0000
1000
0000
0000
0001
0000
0010
0000
0000
0000
0100
0000
0000
0000
,
0010
0000
0000
0010
0000
0000
0001
0000
0100
0000
0000
0000
0000
0000
0000
0000
,
0010
0000
1000
0010
0000
0010
0001
0000
,
0011
1010
0101
0011
,
1001
0000
0000
1000
0000
0000
2000
0000
0001
0000
0000
0001
0000
0000
3002
0000
,
0203
0000
0002
0303
,
1000
0000
0000
1000
0000
0000
2000
0000
0100
0000
0000
0100
0000
0000
3100
0000
,
0010
0002
0000
0100
0200
0000
0303
0000
,
1010
0000
0000
1000
0000
0000
1000
0000
2000
0000
0000
0000
3002
0000
0000
0000
,
1003
0000
0000
1000
0000
0000
0001
0000
2000
0000
0000
0000
0000
0000
0000
0000
,
3002
0000
0000
0203
0000
0000
0320
0000
,
1030
0100
0010
0001
0010
0100
0010
0001
,
1000
0000
0000
0001
0100
0000
0000
0100
0020
0000
0000
0000
2000
0000
3030
0000
,
1000
0000
0000
0100
0010
0000
0000
0010
0002
0000
0000
1000
2000
0000
3003
0000
,
0001
0000
0000
1000
0000
0000
0010
0000
1000
0000
0000
0000
0001
0000
0000
0000
0010
0000
0000
0100
0000
0000
0010
0000
0001
0000
0000
0000
0000
0000
0000
0000
,
1001
0000
0000
0110
0000
0000
1001
0000
0210
0000
0000
0000
0301
0000
0000
0000
,
0021
0000
0130
0000
1001
0000
0000
1010
,
0000
0101
0000
0011
0000
0110
0000
0011
,
0000
0001
0010
0100
2000
0000
0000
0000
,
0000
0000
3000
0000
;

//---------------dance-single - ----------------
#NOTES:
     dance-single:
     :
     Easy:
     6:
     0.266015,0.346537,0.096316,0.305000,0.000000,232.000000,220.000000,12.000000,38.000000,0.000000,0.000000,0.266015,0.346537,0.096316,0.305000,0.000000,232.000000,220.000000,12.000000,38.000000,0.000000,0.000000:
0000
0000
0000
0000
,
0000
0000
0000
0000
,
1000
0001
0010
0001
,
0100
0010
1000
0001
,
0220
0000
0000
0000
,
0000
0000
0000
0330
,
0010
0000
0000
1000
0000
1000
0000
0001
,
0000
0001
0000
0010
0000
0001
0100
0000
,
0010
0000
0000
1000
0000
0000
0100
0000
,
0000
1000
0000
0000
0001
0000
0100
0000
,
0001
0000
0000
0220
0000
0000
0000
0330
,
0000
1000
0001
0000
0100
0000
0010
0000
,
1000
0010
1000
0000
0000
0010
0000
0100
,
0000
0001
0000
0010
0000
0100
0010
0000
,
0100
0000
0000
1000
0000
0100
0000
0010
,
0000
0100
0000
1000
0000
0001
0100
0000
,
0001
0000
0000
0010
0000
0000
0001
0000
,
0000
1000
0000
0000
0100
0000
1000
0000
,
0010
0000
0000
0220
0000
0000
0000
0330
,
0000
0001
1000
0000
0001
0000
0100
0000
,
0010
1000
0010
0100
,
0000
1001
0000
0110
,
0000
1001
1001
0000
,
0001
0000
1000
0000
,
0000
0110
0110
0000
,
1000
0000
0010
0000
,
0100
0000
0001
0000
,
0010
0000
0001
0000
,
2000
0000
3000
0001
,
0100
0000
0010
0000
,
2000
0000
3000
0001
,
1000
0100
0010
0100
,
2000
0000
3000
0001
,
1000
0100
0001
0100
,
1000
0010
0100
0000
,
0010
0100
0001
0010
,
0200
0000
0000
0300
,
0010
0001
0100
0001
,
1000
0100
0010
0100
,
1000
0010
0100
0001
,
2000
0000
0000
3000
,
0001
0010
0001
0100
,
0001
1000
0200
0300
,
0010
0100
1000
0010
,
0100
0001
0010
0100
,
0020
0000
0000
0030
,
2002
0000
0000
3003
,
1000
0001
0100
0001
,
0020
0000
0100
0030
,
0010
0100
0010
0001
,
2000
0000
0000
0010
0020
0000
3030
0000
,
0100
0010
1000
0002
,
0013
0001
2000
3000
,
0001
0000
0000
1000
0000
0000
0010
0000
,
0200
0000
0000
0000
,
0310
1000
0100
0010
,
0200
0000
0000
0000
1000
0000
0000
0300
,
1000
0100
1000
0001
,
0200
0000
0000
0010
0020
0000
0330
0000
,
0100
0010
1000
0200
,
1300
0100
0020
0030
,
0100
0000
0000
0010
0000
0000
0001
0000
,
1000
0000
0001
0000
,
0220
0000
0000
0000
,
0000
0000
0000
0330
,
0100
0000
0010
0000
,
2000
0000
0000
0001
0002
0000
0000
3003
,
0001
0000
1000
0020
,
0130
0000
0001
0000
,
0010
0000
0000
0001
0000
0000
0100
0000
,
0020
0000
0000
0000
,
0130
0001
2000
3002
,
1003
0100
0020
0032
,
0013
0000
0001
0000
0100
0000
0020
0030
,
1000
0100
0010
0000
,
0100
0000
0000
0000
1001
0000
0000
1000
,
0000
0001
0000
0100
0000
0010
0000
0100
,
0000
0010
0100
0001
2000
0000
0000
0000
,
0000
0000
3000
0000
;

//---------------dance-single - ----------------
#NOTES:
     dance-single:
     :
     Beginner:
     4:
     0.138741,0.217714,0.032105,0.000000,0.000000,121.000000,117.000000,4.000000,0.000000,0.000000,0.000000,0.138741,0.217714,0.032105,0.000000,0.000000,121.000000,117.000000,4.000000,0.000000,0.000000,0.000000:
0000
0000
0000
0000
,
0000
0000
0000
0000
,
1000
0000
0001
0000
,
0100
0000
0010
0100
,
1001
0000
0000
0000
,
0000
0000
0000
0000
,
1000
0000
0000
0000
,
0010
0000
0000
0000
,
0100
0000
0000
0001
,
0000
0000
1000
0000
,
0100
0000
0000
0000
,
1000
0000
0001
0000
,
0100
0000
0010
0000
0000
1000
0000
0000
,
0000
0000
0000
0001
,
1000
0000
0000
0000
,
0000
0000
0000
0100
0000
0000
0000
0000
,
1000
0000
0000
0010
,
0000
0000
0100
0000
,
0010
0000
0000
0000
,
1000
0000
0001
0000
,
1000
0000
0010
0000
,
0000
0100
0000
0100
,
0000
0100
0100
0000
,
0010
0000
0010
0000
,
0000
0010
0010
0000
,
1000
0000
0001
0000
,
1000
0000
0000
0000
,
0001
0000
0100
0000
,
0010
0000
0000
0000
,
0100
0000
0001
0000
,
0010
0000
0000
0000
,
0001
0000
1000
0000
,
0100
0000
0000
0000
,
1000
0000
0010
0000
,
1000
0000
0100
0000
,
1000
0000
0001
0000
,
0100
0000
0000
0000
,
0010
0000
0000
0000
,
1000
0000
0000
0000
,
0100
0000
0000
0000
,
0010
0000
0000
0000
,
0001
0000
0000
0000
,
1000
0000
0000
0000
,
0010
0000
0000
0000
,
0100
0000
0000
0000
,
0010
0000
0000
0000
,
1000
0000
0000
0000
,
0001
0000
0001
0000
,
0001
0000
0000
0000
,
1000
0000
1000
0000
,
1000
0000
0000
0000
,
0010
0000
0010
0000
,
0100
0000
0100
0000
,
0010
0000
0100
0000
,
1001
0000
0000
0000
,
0001
0000
1000
0000
,
0001
0000
0000
0000
,
0100
0000
0010
0000
,
0100
0000
0000
0000
,
0010
0000
1000
0000
,
0001
0000
0010
0000
,
0100
0000
0000
0000
,
0010
0000
0001
0000
,
1001
0000
1000
0000
,
0001
0000
0000
0000
,
0100
0000
0010
0000
,
1000
0000
1000
0000
,
0100
0000
0000
0000
,
1000
0000
0000
0000
,
0010
0000
0000
0000
,
0100
0000
0000
0000
,
0001
0000
1000
0000
,
0010
0000
0100
0000
,
0010
0000
1000
0000
,
0001
0000
1000
0000
,
0001
0000
0000
0000
0100
0000
0000
0010
,
0000
0010
0000
0010
0000
0000
0000
0100
,
0000
0000
1001
0000
;
