#VERSION:0.83;
#TITLE:Jupiter;
#SUBTITLE:;
#ARTIST:Classic Remix;
#TITLETRANSLIT:;
#SUBTITLETRANSLIT:;
#ARTISTTRANSLIT:;
#GENRE:CLASSICAL;
#ORIGIN:;
#CREDIT:;
#BANNER:banner.png;
#BACKGROUND:background.png;
#PREVIEWVID:;
#JACKET:jacket.png;
#CDIMAGE:;
#DISCIMAGE:;
#LYRICSPATH:;
#CDTITLE:CDTITLE.png;
#MUSIC:Jupiter.ogg;
#OFFSET:0.793000;
#SAMPLESTART:36.799999;
#SAMPLELENGTH:19.200001;
#SELECTABLE:YES;
#BPMS:0.000=150.000,
139.000=75.000,
151.000=150.000;
#STOPS:87.000=0.200,
88.500=0.600,
90.500=0.400;
#DELAYS:;
#WARPS:;
#TIMESIGNATURES:0.000=4=4;
#TICKCOUNTS:0.000=4;
#COMBOS:0.000=1;
#SPEEDS:0.000=1.000=0.000=0;
#SCROLLS:0.000=1.000;
#FAKES:;
#LABELS:0.000=Song Start;
#BGCHANGES:;
#KEYSOUNDS:;
#ATTACKS:
;

//---------------dance-single - ----------------
#NOTEDATA:;
#CHARTNAME:;
#STEPSTYPE:dance-single;
#DESCRIPTION:;
#CHARTSTYLE:;
#DIFFICULTY:Hard;
#METER:12;
#RADARVALUES:0.411888,0.630182,0.233324,0.524978,0.095829,346.000000,318.000000,28.000000,63.000000,0.000000,0.000000,0.000000,0.000000,0.000000,0.411888,0.630182,0.233324,0.524978,0.095829,346.000000,318.000000,28.000000,63.000000,0.000000,0.000000,0.000000,0.000000,0.000000;
#CREDIT:Pandemonium X;
#NOTES:
// measure 0
0000
0000
0000
0000
,  // measure 1
0000
0000
0000
0000
,  // measure 2
0000
0000
0000
0000
,  // measure 3
0000
0000
0000
0000
,  // measure 4
0000
0000
0000
0000
,  // measure 5
0000
2002
0000
0000
,  // measure 6
0000
0000
0000
3003
,  // measure 7
1000
0100
0000
1000
0000
0001
0100
0000
,  // measure 8
0010
1000
0010
1000
0001
0000
0000
1000
0000
0000
0000
0000
0100
0000
0010
0000
,  // measure 9
0001
0100
0001
1000
0100
0000
0000
0010
0100
0000
1000
0000
0000
0000
0001
0000
,  // measure 10
0000
0220
0000
0000
,  // measure 11
0000
0000
0000
0330
0001
1001
0000
1010
,  // measure 12
0000
0001
0011
0000
1100
0010
0100
1001
,  // measure 13
0000
0000
0000
0000
0001
0100
0010
0000
,  // measure 14
0010
0100
0001
0000
0001
0100
0010
0100
,  // measure 15
0001
0000
0000
0000
1000
0200
0000
2300
,  // measure 16
0000
3020
0000
0230
0301
0020
0000
0230
,  // measure 17
0000
1300
0100
0010
0100
1000
1010
0000
,  // measure 18
0100
1000
1010
0000
0100
1000
1010
0010
,  // measure 19
1000
0001
1000
0000
0000
0100
0010
0100
,  // measure 20
0010
0001
1000
0100
0010
0001
0010
0001
,  // measure 21
1000
0001
0000
0001
1000
0001
0110
1000
,  // measure 22
0001
0110
0100
0010
1001
1001
1000
0100
,  // measure 23
0010
0000
0000
0100
0001
0100
1000
0010
,  // measure 24
1000
0000
0000
0000
0010
1000
0100
0000
,  // measure 25
0000
1000
0010
0100
0001
0010
0001
0100
,  // measure 26
1000
0000
0000
0000
0001
0100
1000
0000
,  // measure 27
0000
0001
0010
1000
0010
0100
0001
0010
,  // measure 28
0100
0000
0000
0000
0000
0000
0100
2000
,  // measure 29
0000
0000
0000
3002
0000
0000
0000
0000
0000
0103
0000
0000
0002
0000
0000
0000
0000
0000
0013
0000
0100
0000
0010
0000
,  // measure 30
0200
0000
2300
0000
3001
0100
0010
1000
,  // measure 31
1200
0000
0310
0001
1002
0000
1003
0001
,  // measure 32
0100
0001
0010
0210
0000
0300
0010
0001
,  // measure 33
1000
0100
0001
0100
1000
0010
0001
0010
,  // measure 34
0100
0001
1000
0100
0010
0001
1000
0010
,  // measure 35
0001
0010
1000
0100
0001
0100
1000
0010
,  // measure 36
0100
0000
0000
0000
0000
0000
0001
0000
0000
0000
0000
0000
1000
0000
0000
0000
0000
0000
0100
0000
0000
0000
0000
0000
0001
0000
0000
0000
0000
0000
0100
0000
0000
1000
0000
0000
0010
0000
0000
0000
0000
0000
0100
0000
0010
0000
1000
0000
,  // measure 37
0001
0000
0000
0010
0100
1000
0001
0000
0000
1000
0000
0000
0001
0000
0000
0100
0000
0000
0002
0000
0000
0000
0000
0000
,  // measure 38
0000
0023
0000
0230
,  // measure 39
0000
2300
0000
3000
,  // measure 40
0020
0030
2000
3002
2003
3000
0002
0000
0003
0000
0000
0000
2000
0000
0000
0000
,  // measure 41
3010
0200
0302
0023
,  // measure 42
0130
1000
0002
0000
2003
0000
3200
0000
,  // measure 43
0310
0200
1300
0200
,  // measure 44
0320
0032
1003
0200
,  // measure 45
0310
2000
0001
0010
,  // measure 46
0001
3002
2003
3020
,  // measure 47
1030
0200
2300
3020
,  // measure 48
0130
0010
2000
0000
3002
0000
2003
0000
,  // measure 49
3100
0020
0130
0020
,  // measure 50
0032
0203
0310
2000
,  // measure 51
3001
0020
0100
0001
,  // measure 52
0130
0000
0000
0000
0020
0000
0000
0000
0032
0000
0000
0000
0103
0000
0000
0100
,  // measure 53
0000
0000
0010
0000
0100
0000
0000
0000
0001
1000
0001
0000
1000
0000
0000
0000
,  // measure 54
0100
0000
0000
0000
0010
0000
0000
0100
0000
0000
0010
0000
0100
0000
0000
0000
,  // measure 55
0000
0000
0010
0000
0000
0000
0001
0000
0100
0000
0000
0000
0010
0000
0000
0010
,  // measure 56
0000
0000
0100
0000
0010
0000
0000
0000
1000
0001
1000
0000
0001
0000
0000
0000
,  // measure 57
0010
0200
0000
0000
,  // measure 58
0300
0000
0020
0000
0032
0000
1003
0001
,  // measure 59
0010
0000
0100
0000
1100
0000
1000
0010
,  // measure 60
0100
0000
0001
0000
0101
0000
0001
1000
,  // measure 61
0100
0000
0000
0000
0010
0000
0000
0000
0011
0000
0000
0000
0010
0000
0000
0001
,  // measure 62
0000
0000
0100
0000
0010
0000
0000
0000
0010
1000
0010
0000
0200
0000
0000
0000
,  // measure 63
0301
0002
0000
0000
,  // measure 64
0000
0000
0000
2000
,  // measure 65
0000
0000
0000
0000
,  // measure 66
0000
0000
0000
0000
0000
0000
3003
0110
,  // measure 67
0000
0000
1001
0000
0000
0000
1001
0000
0110
0000
0000
0000
0001
1000
0001
0000
,  // measure 68
0110
0000
0000
1000
0001
0000
0110
0000
0000
0000
1001
0000
0110
0000
0000
0000
;

//---------------dance-single - ----------------
#NOTEDATA:;
#CHARTNAME:;
#STEPSTYPE:dance-single;
#DESCRIPTION:;
#CHARTSTYLE:;
#DIFFICULTY:Medium;
#METER:8;
#RADARVALUES:0.324986,0.544248,0.183326,0.366651,0.000000,273.000000,251.000000,22.000000,44.000000,0.000000,0.000000,0.000000,0.000000,0.000000,0.324986,0.544248,0.183326,0.366651,0.000000,273.000000,251.000000,22.000000,44.000000,0.000000,0.000000,0.000000,0.000000,0.000000;
#CREDIT:Pandemonium X;
#NOTES:
// measure 0
0000
0000
0000
0000
,  // measure 1
0000
0000
0000
0000
,  // measure 2
0000
0000
0000
0000
,  // measure 3
0000
0000
0000
0000
,  // measure 4
0000
0000
0000
0000
,  // measure 5
0000
2002
0000
0000
,  // measure 6
0000
0000
0000
3003
,  // measure 7
0001
0100
0000
0001
0000
0010
0100
0000
,  // measure 8
0010
0001
1000
0000
0001
0000
0100
0000
,  // measure 9
0010
1000
0100
0000
0010
0001
0000
1000
,  // measure 10
0000
0220
0000
0000
,  // measure 11
0000
0000
0330
0000
0001
1000
0000
0100
,  // measure 12
0000
0001
0100
0000
0010
0100
1000
1001
,  // measure 13
0000
0000
0000
0000
1000
0010
1000
0000
,  // measure 14
0010
1000
0010
0000
1000
0010
0100
0001
,  // measure 15
0010
0000
0000
0000
0100
0010
0000
0001
,  // measure 16
0000
0100
0000
0010
0100
0001
0000
1000
,  // measure 17
0000
0001
0010
0100
1000
0001
1000
0000
,  // measure 18
0010
0100
0010
0000
1000
0001
0010
0001
,  // measure 19
1000
0100
0010
0000
0100
0000
1000
0000
,  // measure 20
0010
0100
0001
0010
,  // measure 21
0100
0000
0010
0000
0001
1000
1001
1000
,  // measure 22
0001
1001
0001
1000
1001
1001
1000
0100
,  // measure 23
0010
0000
0000
0100
1000
0010
0100
0001
,  // measure 24
0010
0000
0000
0000
0100
0010
0001
0000
,  // measure 25
0000
0010
0001
0100
0010
0100
0001
1000
,  // measure 26
0001
0000
0000
0000
1000
0001
1000
0000
,  // measure 27
0000
0001
1000
0001
0010
0001
1000
0100
,  // measure 28
0010
0000
0000
0000
0000
0000
0100
1000
,  // measure 29
0000
0010
0000
0100
0010
0000
1000
0010
,  // measure 30
1000
0010
0100
0101
,  // measure 31
0000
0011
0000
0110
,  // measure 32
0000
1100
0000
1001
,  // measure 33
1010
0011
1100
0011
,  // measure 34
0110
0000
0011
0000
1001
0000
0001
0100
,  // measure 35
0001
0100
0010
0100
0010
1000
0010
1000
,  // measure 36
0001
1000
0001
0010
0001
0010
0100
1000
,  // measure 37
1000
0001
0001
0010
0100
1000
0020
0000
,  // measure 38
0000
2030
0000
3002
,  // measure 39
0000
0203
0000
0300
,  // measure 40
0000
0000
0000
2001
,  // measure 41
3001
1000
0010
0200
,  // measure 42
0310
1000
0002
0000
0023
0000
0230
0000
,  // measure 43
0310
0020
0031
0010
,  // measure 44
0100
2000
0010
3002
,  // measure 45
1000
0200
0000
0000
,  // measure 46
0303
0001
0100
0020
,  // measure 47
1000
0130
0001
2000
,  // measure 48
3100
0010
0001
0000
0010
0000
0002
0000
,  // measure 49
1000
2003
3001
1000
,  // measure 50
0100
0020
0100
0230
,  // measure 51
1000
2000
0000
0000
,  // measure 52
3300
1000
0010
0200
,  // measure 53
0000
0320
0000
0130
,  // measure 54
0001
2000
0000
0002
,  // measure 55
3003
2000
3002
0023
,  // measure 56
0000
0030
0200
0000
0000
0300
0010
0000
,  // measure 57
0001
0200
0000
0000
,  // measure 58
0300
0010
1000
0002
,  // measure 59
1003
2000
3100
0200
,  // measure 60
0310
0020
0031
0002
,  // measure 61
0103
0200
0310
0020
,  // measure 62
2030
3200
0310
0200
,  // measure 63
1300
0002
0000
0000
,  // measure 64
0000
0000
0003
1010
,  // measure 65
0000
0000
0000
0000
,  // measure 66
0000
0000
0000
0000
0000
0000
0000
1000
,  // measure 67
0000
0001
0000
0001
1000
0000
1000
0001
,  // measure 68
1000
0000
0001
1000
0000
0001
1001
0000
;

//---------------dance-single - ----------------
#NOTEDATA:;
#CHARTNAME:;
#STEPSTYPE:dance-single;
#DESCRIPTION:;
#CHARTSTYLE:;
#DIFFICULTY:Easy;
#METER:5;
#RADARVALUES:0.204753,0.486959,0.141661,0.241657,0.000000,172.000000,155.000000,17.000000,29.000000,0.000000,0.000000,0.000000,0.000000,0.000000,0.204753,0.486959,0.141661,0.241657,0.000000,172.000000,155.000000,17.000000,29.000000,0.000000,0.000000,0.000000,0.000000,0.000000;
#CREDIT:Pandemonium X;
#NOTES:
// measure 0
0000
0000
0000
0000
,  // measure 1
0000
0000
0000
0000
,  // measure 2
0000
0000
0000
0000
,  // measure 3
0000
0000
0000
0000
,  // measure 4
0000
0000
0000
0000
,  // measure 5
0000
2002
0000
0000
,  // measure 6
0000
0000
0000
3003
,  // measure 7
1000
0000
0001
0000
,  // measure 8
0010
0001
0100
0000
,  // measure 9
0010
1000
0100
0010
,  // measure 10
0000
2002
0000
0000
,  // measure 11
0000
0000
3003
0000
0001
0000
0000
1000
,  // measure 12
0000
0000
0010
0000
0100
0000
0000
0010
,  // measure 13
0000
0000
1000
0000
,  // measure 14
1000
0000
1000
0001
,  // measure 15
1000
0000
0010
0000
,  // measure 16
1000
0000
0100
0000
,  // measure 17
0010
0000
0001
0000
,  // measure 18
0001
0000
0001
1000
,  // measure 19
0001
0010
0100
0000
,  // measure 20
0000
0000
0000
0000
,  // measure 21
0000
0000
0000
1001
,  // measure 22
0000
0110
0000
0000
1000
0001
1000
0000
,  // measure 23
0010
0000
1000
0100
,  // measure 24
0010
0000
0100
1000
,  // measure 25
0000
0100
0010
0001
,  // measure 26
0100
0000
0001
0100
,  // measure 27
0000
0001
1000
0100
,  // measure 28
0010
0000
0000
0100
,  // measure 29
0000
1000
0000
0010
,  // measure 30
0010
0010
0000
0110
,  // measure 31
0000
1001
0000
0110
,  // measure 32
0000
1001
0000
1010
,  // measure 33
1010
0011
0011
0101
,  // measure 34
0101
1100
1100
0200
,  // measure 35
0300
2000
0000
3000
0020
0000
0030
0200
,  // measure 36
0000
0300
0002
0000
0003
2000
3000
0001
,  // measure 37
0010
0100
1000
0100
0010
0001
1000
0000
,  // measure 38
0000
0001
0000
0100
,  // measure 39
0000
0010
0000
0000
,  // measure 40
0000
0000
0000
1000
,  // measure 41
0000
0001
0010
0100
,  // measure 42
0000
0010
0001
0100
,  // measure 43
0000
0010
0000
0010
,  // measure 44
1000
0001
0000
0100
,  // measure 45
0000
0002
0000
0000
,  // measure 46
0003
1000
0001
0010
,  // measure 47
0000
0100
0010
0001
,  // measure 48
0000
1000
0001
1000
,  // measure 49
0000
0010
0000
0010
,  // measure 50
0100
0001
0000
1000
,  // measure 51
0000
0200
0000
0000
,  // measure 52
0300
1000
0010
0200
,  // measure 53
0300
0020
0030
0100
,  // measure 54
0010
2000
3000
0002
,  // measure 55
0003
0010
0001
0200
,  // measure 56
0300
0020
0030
0100
,  // measure 57
0001
2000
0000
0000
,  // measure 58
3000
0001
1000
0020
,  // measure 59
0030
2000
3000
0200
,  // measure 60
0300
0020
0030
0002
,  // measure 61
0003
0020
0030
0100
,  // measure 62
1000
0020
0030
0200
,  // measure 63
0300
0002
0000
0000
,  // measure 64
0000
0000
0000
2000
,  // measure 65
0000
0000
0000
0000
,  // measure 66
0000
0000
0000
0000
3003
0000
0000
1000
,  // measure 67
0000
0001
0000
1000
0001
0000
1000
0001
,  // measure 68
1000
0000
0001
1000
0000
1000
1001
0000
;

//---------------dance-single - ----------------
#NOTEDATA:;
#CHARTNAME:;
#STEPSTYPE:dance-single;
#DESCRIPTION:;
#CHARTSTYLE:;
#DIFFICULTY:Beginner;
#METER:4;
#RADARVALUES:0.139280,0.200512,0.033332,0.000000,0.000000,117.000000,113.000000,4.000000,0.000000,0.000000,0.000000,0.000000,0.000000,0.000000,0.139280,0.200512,0.033332,0.000000,0.000000,117.000000,113.000000,4.000000,0.000000,0.000000,0.000000,0.000000,0.000000,0.000000;
#CREDIT:Pandemonium X;
#NOTES:
// measure 0
0000
0000
0000
0000
,  // measure 1
0000
0000
0000
0000
,  // measure 2
0000
0000
0000
0000
,  // measure 3
0000
0000
0000
0000
,  // measure 4
0000
0000
0000
0000
,  // measure 5
0000
0010
0000
0000
,  // measure 6
0000
0000
0000
0000
,  // measure 7
1000
0000
0000
0000
,  // measure 8
0001
0000
0000
0000
,  // measure 9
0100
0000
0010
0000
,  // measure 10
0000
1001
0000
0000
,  // measure 11
0000
0000
1000
0000
,  // measure 12
0001
0000
1000
1000
,  // measure 13
0000
0000
0010
0000
,  // measure 14
0010
0000
0100
0100
,  // measure 15
0010
0000
1000
0000
,  // measure 16
0000
0000
0001
0000
,  // measure 17
0000
0000
0010
0000
,  // measure 18
0001
0000
0010
0001
,  // measure 19
1000
0010
0000
0100
,  // measure 20
0100
0000
0000
0000
,  // measure 21
0000
0000
0000
0010
,  // measure 22
0000
0010
0000
0000
1000
0000
0001
0000
,  // measure 23
0000
0000
1000
0001
,  // measure 24
0000
0000
0010
0100
,  // measure 25
0000
0010
0000
0001
,  // measure 26
0000
0000
0001
0000
,  // measure 27
0000
1000
0001
1000
,  // measure 28
0000
0000
0000
0010
,  // measure 29
0000
0000
0000
0100
,  // measure 30
0000
0000
0000
0001
,  // measure 31
0000
1000
0000
0010
,  // measure 32
0000
1000
0000
0001
,  // measure 33
0000
0100
0000
0001
,  // measure 34
0000
1000
0000
0100
,  // measure 35
0000
1000
0000
0000
0010
0000
0000
0100
,  // measure 36
0000
0000
0001
0000
0000
1000
0000
0000
,  // measure 37
0001
0000
0000
1000
0000
0000
0010
0000
,  // measure 38
0000
0100
0000
0001
,  // measure 39
0000
1000
0000
0000
,  // measure 40
0000
0000
0000
1001
,  // measure 41
0000
0001
0000
1000
,  // measure 42
0000
0010
0010
0010
,  // measure 43
0000
1000
0000
0001
,  // measure 44
0001
0001
0000
1000
,  // measure 45
0000
0100
0000
0000
,  // measure 46
0000
1000
0000
0001
,  // measure 47
0000
0100
0000
0010
,  // measure 48
0000
1000
1000
1000
,  // measure 49
0000
0001
0000
0001
,  // measure 50
0001
1000
0000
0001
,  // measure 51
0000
1000
0000
0000
,  // measure 52
0000
0010
0100
0001
,  // measure 53
0000
0000
0000
1000
,  // measure 54
0000
0001
0000
0000
,  // measure 55
0000
0100
0000
0010
,  // measure 56
0000
0000
0000
1000
,  // measure 57
0000
0100
0000
0000
,  // measure 58
0000
0010
0001
1000
,  // measure 59
0000
0001
0000
0100
,  // measure 60
0000
0010
0000
1000
,  // measure 61
0000
0010
0000
0100
,  // measure 62
0001
0010
0000
0100
,  // measure 63
0000
1000
0000
0000
,  // measure 64
0000
0000
0000
1001
,  // measure 65
0000
0000
0000
0000
,  // measure 66
0000
0000
0000
0000
,  // measure 67
0010
0000
0100
0000
,  // measure 68
0010
0000
0000
1001
;
