#VERSION:0.83;
#TITLE:JINGLE DEATH;
#SUBTITLE:;
#ARTIST:DJ Myosuke & Gram;
#TITLETRANSLIT:;
#SUBTITLETRANSLIT:;
#ARTISTTRANSLIT:;
#GENRE:CHRISTMAS REQUIEM;
#ORIGIN:;
#CREDIT:;
#BANNER:banner.png;
#BACKGROUND:background.png;
#PREVIEWVID:;
#JACKET:jacket.png;
#CDIMAGE:;
#DISCIMAGE:;
#LYRICSPATH:;
#CDTITLE:CDTITLE.png;
#MUSIC:JINGLE DEATH.ogg;
#OFFSET:-0.024000;
#SAMPLESTART:46.309052;
#SAMPLELENGTH:11.891891;
#SELECTABLE:YES;
#BPMS:0.000=67.000,
6.000=30.000,
7.000=222.000,
71.000=111.000,
77.000=222.000,
237.000=111.000,
251.000=222.000,
396.000=64.500;
#STOPS:108.500=1.081,
312.000=0.135,
313.500=0.135,
339.500=0.135,
341.500=0.135,
354.500=0.135,
355.500=0.135,
369.500=0.135,
371.500=0.135;
#DELAYS:;
#WARPS:;
#TIMESIGNATURES:0.000=4=4;
#TICKCOUNTS:0.000=4;
#COMBOS:0.000=1;
#SPEEDS:0.000=1.000=0.000=0;
#SCROLLS:0.000=1.000;
#FAKES:;
#LABELS:0.000=Song Start;
#BGCHANGES:0.000=JINGLE DEATH.avi=1.000=1=0=1===CrossFade==,
99999=-nosongbg-=1.000=0=0=0 // don't automatically add -songbackground-
;
#KEYSOUNDS:;
#ATTACKS:
;

//---------------dance-single - ----------------
#NOTEDATA:;
#CHARTNAME:;
#STEPSTYPE:dance-single;
#DESCRIPTION:;
#CHARTSTYLE:;
#DIFFICULTY:Hard;
#METER:17;
#RADARVALUES:0.781942,0.957121,0.644398,0.159204,0.488985,722.000000,637.000000,85.000000,21.000000,0.000000,0.000000,0.000000,0.000000,0.000000,0.781942,0.957121,0.644398,0.159204,0.488985,722.000000,637.000000,85.000000,21.000000,0.000000,0.000000,0.000000,0.000000,0.000000;
#CREDIT:Pandemonium X;
#NOTES:
// measure 0
0000
0000
0000
0000
,  // measure 1
0000
0000
0000
0001
,  // measure 2
0001
0001
0000
0001
,  // measure 3
0001
0001
0000
0000
0000
0000
0010
0000
,  // measure 4
0100
0000
0000
0000
0100
1000
0001
0000
0001
0000
0000
0000
1000
0000
0000
0000
,  // measure 5
0000
0000
0000
0000
0000
0000
0000
0000
0010
0100
0010
1000
0001
0000
0000
0000
,  // measure 6
0001
0000
0001
0000
0000
0010
0001
0000
,  // measure 7
0001
1000
0001
0010
,  // measure 8
0100
0010
0001
1000
,  // measure 9
0000
0100
0000
0110
,  // measure 10
0010
0010
0000
0010
,  // measure 11
0010
0010
0000
0000
0000
0000
0100
0000
,  // measure 12
0010
0000
0000
0000
0001
0010
0100
0000
0010
0000
0000
0000
0100
0000
0000
0000
,  // measure 13
0000
0100
0010
0001
,  // measure 14
0000
0000
1000
0010
,  // measure 15
0000
0000
0100
0000
0001
0000
1000
0001
,  // measure 16
1000
0000
0001
0000
1000
0000
0001
0000
1000
0000
0100
0000
0010
0001
0010
0001
,  // measure 17
0010
0001
0010
0001
0010
0100
1000
0001
0100
0010
0100
0010
1000
0000
1000
0000
,  // measure 18
1000
0000
0001
0001
0001
0000
0100
0100
,  // measure 19
0010
0000
0000
0010
1001
0000
0000
0000
0110
0000
0000
0000
1010
0000
0000
0000
,  // measure 20
0101
0000
0011
0000
1000
0001
0101
0000
,  // measure 21
0001
0010
1000
0010
0001
1000
1010
0000
,  // measure 22
0100
0001
0010
0010
0010
0000
0110
0000
,  // measure 23
0100
0000
1000
0001
1000
0100
1000
0000
0001
0000
0100
0000
0020
0000
0000
0000
,  // measure 24
2030
0000
3200
0000
0310
0001
0200
0000
,  // measure 25
0310
0000
1000
0000
0001
1000
0001
0000
1000
0000
1000
0000
0010
0000
0000
0000
,  // measure 26
0110
0000
0000
0000
0101
0000
0000
1010
0000
0000
1000
0001
0010
0000
0000
1100
,  // measure 27
0000
0000
0000
0100
0000
0000
2000
0000
0000
0000
0000
0000
3001
0000
0100
0000
0001
0000
0020
0000
0000
0000
0000
0000
,  // measure 28
0130
1000
0010
0100
0001
0010
0100
0010
0001
1000
0000
0000
,  // measure 29
0001
0000
0000
2000
0000
0000
3010
0100
0010
2000
0000
0000
,  // measure 30
3010
0100
0010
0100
0010
1000
0001
0000
0000
1000
0000
0000
,  // measure 31
0110
1020
0130
0021
,  // measure 32
0130
0000
0000
1001
0000
0000
0110
0000
0010
1000
0000
0000
,  // measure 33
0101
0000
0000
0011
0000
0000
0010
0001
1000
0100
0000
0000
,  // measure 34
0110
0000
0000
0000
1000
0001
1000
0001
1000
0001
1000
0001
1000
0001
1000
0001
,  // measure 35
0100
0000
1001
0001
0010
0001
0100
0010
,  // measure 36
1000
0100
0010
0100
1000
0010
0100
0001
,  // measure 37
0010
0000
0100
0010
0001
1000
0010
1000
,  // measure 38
0001
0010
0100
0010
0001
1000
0010
0100
,  // measure 39
0001
0000
1000
0010
1000
0001
0010
0100
,  // measure 40
1000
0100
1000
0010
0100
0001
0010
0100
,  // measure 41
1000
0000
0001
0100
0001
0010
0001
1000
,  // measure 42
0100
0010
0100
1000
0010
0100
0001
1000
,  // measure 43
0001
1000
0001
1000
0001
0000
1000
0000
0010
0000
1000
0000
0001
0000
1000
0000
,  // measure 44
0010
1000
0001
1000
0100
1000
0001
1000
,  // measure 45
0100
0000
1000
0001
0010
0001
1000
0001
,  // measure 46
0010
0001
1000
0001
0100
0001
1000
0001
,  // measure 47
0100
0010
0100
0010
0100
0000
0000
0000
0101
0000
0000
0000
0011
0000
0000
0000
,  // measure 48
1100
1001
1001
1001
,  // measure 49
0000
0001
0101
0000
1010
0000
1100
0000
,  // measure 50
0110
0000
0000
0000
0001
0010
0001
0010
0001
0010
0001
0010
0001
0010
0100
1000
,  // measure 51
0020
0000
0000
0000
0130
0000
0000
0000
0000
0000
0010
1000
0001
0000
0000
0000
,  // measure 52
0000
0000
0010
0100
1000
0000
1000
0000
0001
0000
1000
0000
0001
0000
0100
0001
,  // measure 53
0100
0000
0010
1000
0010
0000
0000
0000
0000
0000
0100
0010
1000
0000
0000
0000
,  // measure 54
0000
0000
0001
0010
0100
0000
1000
0000
0100
0000
0001
0000
0100
0000
0010
0001
,  // measure 55
0100
0010
1000
0001
1000
0000
0000
0000
0000
0000
0100
0010
0001
0000
0000
0000
,  // measure 56
0000
0000
0010
0100
1000
0000
0000
0001
0000
0000
0100
0000
0010
0000
0100
0010
,  // measure 57
0100
0000
0010
0100
0010
0000
0000
0000
0000
0000
1000
0001
0010
0000
0000
0000
,  // measure 58
0000
0000
0100
0010
0001
0000
0100
0001
0100
0000
0010
1000
0010
0000
1000
0001
,  // measure 59
1000
0000
0001
0000
0010
0000
0010
0000
0010
0000
0000
0000
0010
0000
0010
0010
,  // measure 60
0000
0000
0000
0000
0000
0000
0000
0000
0100
0000
0000
0000
1000
0000
0000
0000
0001
0100
0010
0000
1000
0000
0000
0000
0100
0000
0000
0000
0000
0000
0000
0000
,  // measure 61
1000
0010
0101
0000
0000
0001
0010
0000
,  // measure 62
0010
0001
1000
0000
0001
0000
1001
0000
,  // measure 63
0110
0000
1001
0000
0110
0000
1001
0001
,  // measure 64
0000
0010
0000
0000
0001
0000
1000
0010
0000
0000
1000
0000
0000
0000
1000
0000
,  // measure 65
0000
0010
0000
0100
0001
0010
0000
0100
1000
0010
1000
0010
0100
0000
0010
0000
,  // measure 66
0000
1000
0000
0000
0001
0000
0000
0010
0000
0010
0001
0000
0000
0000
0010
0000
,  // measure 67
0001
0000
1000
0000
0010
0100
0010
0100
0010
0100
0010
0100
0010
0000
1000
0000
,  // measure 68
0000
0001
0000
0000
0010
0000
0000
0010
0001
0000
1000
0000
1001
0000
0001
0000
,  // measure 69
0000
0100
0000
0000
0010
0000
0000
1000
0001
0010
0001
0010
0100
0000
1000
0000
,  // measure 70
0000
0001
0000
0000
1001
0000
0000
0010
0100
0000
0001
0000
0000
0000
0010
0000
,  // measure 71
0100
1000
0001
0100
0010
1000
0100
1000
,  // measure 72
0000
1000
0000
0000
0001
0000
0000
0001
0010
0000
0100
0000
0000
0000
0010
0000
,  // measure 73
0000
0010
0000
0000
0001
0000
0000
1000
0001
0000
1000
0000
0000
0000
0010
0000
,  // measure 74
0000
0010
0000
0000
0100
0000
0000
0100
0001
0000
0100
0000
0001
0000
0000
0000
,  // measure 75
0010
0000
0000
0000
0100
0000
0000
0000
1000
0001
1000
0000
1001
0000
0000
1001
,  // measure 76
0000
0000
0101
0000
1001
0000
0000
1001
0000
0000
1100
0000
1001
0000
0000
1001
,  // measure 77
0000
0000
0000
0000
0000
0000
0011
0000
0000
0000
0000
0000
1001
0000
0000
0000
0000
0000
0000
0000
0000
1001
0000
0000
0000
0000
0000
0000
0000
0000
1010
0000
0000
0000
0000
0000
0001
0000
0000
0000
1000
0000
0000
0000
0010
0000
0000
0000
,  // measure 78
0100
0000
0000
0010
0000
1000
0000
0100
0000
0010
0000
0000
1100
0000
0000
0000
0011
0000
0000
0000
0101
0000
0000
0000
,  // measure 79
1010
0000
1001
0000
0110
0000
1001
0000
0000
0000
0000
0000
,  // measure 80
0000
0000
1010
0011
,  // measure 81
1100
0101
1001
0010
,  // measure 82
0001
0000
1000
0010
0100
0100
0001
0000
,  // measure 83
0010
0000
0100
1000
0002
0000
0000
0000
0103
0000
0100
0000
0010
0000
0000
0000
,  // measure 84
1000
0000
0000
0000
0100
0010
0001
0000
0000
0000
1000
0000
0010
0000
0001
0000
,  // measure 85
0010
0100
0001
1001
0010
0010
1000
0000
,  // measure 86
0100
0000
0000
0000
0010
0000
0000
0000
0100
0000
0100
0000
1000
0000
0001
0100
,  // measure 87
0020
0000
0000
0000
0230
0000
0300
0001
0000
0000
0010
0000
0000
0100
0000
0000
,  // measure 88
1000
0200
0000
0310
0001
1000
0010
1001
,  // measure 89
0101
0000
0010
0000
1000
0000
0001
0000
0010
0000
0100
0010
0000
0010
0002
0000
,  // measure 90
0000
1003
0010
0000
0100
0001
0022
0033
,  // measure 91
0100
1000
0001
0000
0100
0000
0010
2000
,  // measure 92
0000
3100
0001
0100
0010
0001
1000
0010
,  // measure 93
1001
0000
1001
0000
1001
0000
0000
0000
1010
0000
0000
0000
0101
0000
0001
0010
,  // measure 94
0100
0000
0010
0000
0001
0000
0000
0000
1000
0000
0000
0000
0101
0000
0000
1010
,  // measure 95
0000
0000
1100
0000
0000
0110
0000
0000
0011
0000
1100
0000
0000
0000
1001
0000
,  // measure 96
0010
0000
0000
0000
1001
0000
0000
0000
0000
0000
0110
0000
0000
0000
0000
1010
0000
0000
0000
0000
1000
0000
0000
0000
2002
0000
0000
0000
0000
0000
0000
0000
,  // measure 97
0000
0000
0000
0000
,  // measure 98
0000
0000
0000
0000
,  // measure 99
3003
0000
0000
0000
1000
1000
1000
0000
,  // measure 100
0010
0000
0010
0010
0000
0000
0000
0000
1000
0000
0100
0000
0010
0000
0100
0000
,  // measure 101
1001
0000
0000
0000
;

//---------------dance-single - ----------------
#NOTEDATA:;
#CHARTNAME:;
#STEPSTYPE:dance-single;
#DESCRIPTION:;
#CHARTSTYLE:;
#DIFFICULTY:Easy;
#METER:8;
#RADARVALUES:0.385556,0.535988,0.310827,0.060649,0.000000,356.000000,315.000000,41.000000,8.000000,0.000000,0.000000,0.000000,0.000000,0.000000,0.385556,0.535988,0.310827,0.060649,0.000000,356.000000,315.000000,41.000000,8.000000,0.000000,0.000000,0.000000,0.000000,0.000000;
#CREDIT:Pandemonium X;
#NOTES:
0000
0000
0000
0000
,
0000
0000
0000
0001
,
1000
0001
0000
0100
,
0000
0010
0000
0000
0000
0000
1000
0000
,
0010
0100
0001
0010
,
0000
0000
0200
0310
,
0001
1000
0000
0001
,
0010
0001
1000
0100
,
0010
0001
0010
0100
,
0000
0010
0000
0001
,
0001
1000
0000
0010
,
0000
1000
0000
0000
0000
0000
0100
0000
,
1000
0010
0100
0001
,
0000
1000
0100
0010
,
0000
0000
0100
1000
,
0000
0010
0100
0001
,
0000
0000
0000
0000
1000
0001
0200
0000
,
0000
0000
0000
0300
,
0000
0000
0000
0000
,
0000
1001
1001
0110
,
0110
0001
0100
0010
,
1000
0100
0010
0100
,
1000
0010
0100
0001
,
0010
0100
0010
0001
,
1000
0001
0100
0001
,
0010
0100
0010
0001
,
1000
0100
0010
0100
,
1000
0001
1000
0001
,
1000
0001
0100
0001
,
0100
0010
0100
0010
,
1000
0010
0100
0010
,
0100
0001
1000
0100
,
1000
0010
0100
0001
,
0010
0100
0100
0010
,
0010
0002
0000
0000
,
1003
0001
0100
0001
,
0010
0100
0000
0000
,
0010
0001
0010
0000
0001
0000
0010
0000
,
0100
1000
0000
0000
,
0100
1000
0100
0000
1000
0000
0010
0000
,
0100
0010
0000
0000
,
0100
0010
1000
0001
,
0010
0100
0000
0000
,
0010
0001
1000
0010
,
0100
0001
0000
0000
,
1000
0001
0010
0100
,
0010
0001
0000
0000
,
0010
0001
0100
0010
,
1000
0001
0001
0001
,
0000
1000
0001
0000
0010
0000
0100
0000
,
0010
0001
0000
1000
,
0000
0101
0000
1010
,
0000
0001
1000
0100
,
0000
1100
0000
1010
,
0000
0010
0100
0001
,
0000
0011
0000
0110
,
0000
0100
0010
0001
,
0000
1100
0000
1010
,
0000
0101
0000
1001
,
0000
0000
1000
0100
0010
0000
0100
1000
,
0010
0000
0100
0010
1000
0001
0010
0000
,
0100
0010
0001
0000
0000
0100
0010
0000
,
0100
0001
1000
0000
0000
0100
1000
0000
,
0010
0100
0001
1001
,
0000
0000
0000
0000
,
0000
0000
0000
0000
0010
0100
0110
0000
,
0000
0000
0000
0000
,
0000
0000
0001
1000
0001
1000
1001
0000
,
0000
0000
0000
0000
0000
0010
0110
0000
,
0000
0000
0000
0000
1000
0001
1001
0000
,
0000
1001
0000
1010
,
0101
1010
0000
0002
,
0000
0000
0003
2000
,
0000
0000
3000
0020
,
0000
0000
0030
0200
,
0000
0000
0300
0110
,
0000
1010
0000
0011
,
0000
0110
0000
1100
,
0000
0011
0000
0000
1100
0000
0000
0000
,
0110
0000
1001
0000
,
0000
0000
0101
0011
,
0101
0011
0001
1000
,
0100
1000
0010
0100
,
0001
0110
1000
0001
,
0100
0010
1000
0100
,
0000
0010
0000
0001
0100
0000
0010
0000
,
1000
0001
0010
0001
,
1100
0100
0020
0000
,
0000
0000
0030
0001
1000
0001
1000
0001
,
0100
0010
1000
0100
,
0010
0100
1000
1010
,
0010
0100
0001
0010
,
0000
0100
1000
0010
0100
0010
1000
0001
,
1000
0001
0100
0010
,
1000
0100
0110
0010
,
0001
0000
0100
0000
0010
0000
0000
0100
,
0010
1000
0000
0001
0010
0100
1000
0000
,
0000
0000
0000
0000
,
0000
0000
0000
0000
,
0000
0000
0000
0000
0001
1000
0001
0000
,
0001
1000
0001
0000
1000
0100
0010
0001
,
1001
0000
0000
0000
;

//---------------dance-single - ----------------
#NOTEDATA:;
#CHARTNAME:;
#STEPSTYPE:dance-single;
#DESCRIPTION:;
#CHARTSTYLE:;
#DIFFICULTY:Medium;
#METER:13;
#RADARVALUES:0.539345,0.689127,0.538262,0.098555,0.121298,498.000000,427.000000,71.000000,13.000000,0.000000,0.000000,0.000000,0.000000,0.000000,0.539345,0.689127,0.538262,0.098555,0.121298,498.000000,427.000000,71.000000,13.000000,0.000000,0.000000,0.000000,0.000000,0.000000;
#CREDIT:Pandemonium X;
#NOTES:
0000
0000
0000
0000
,
0000
0000
0000
1000
,
0001
1000
0000
0000
0000
0000
0001
0000
,
1000
0001
0000
0000
0000
0000
1000
0000
,
0100
0000
0010
0100
1000
0000
0001
0000
,
0000
0000
0200
0310
,
1000
0000
0001
0000
0000
0010
0001
0000
,
0001
1000
1000
0001
,
0100
1000
0100
0001
,
0000
1000
0000
1001
,
0001
0010
0000
0001
,
0100
0010
0000
0000
0000
0000
0100
0000
,
0010
0000
1000
0100
0010
0000
0100
0000
,
0000
0010
0001
0110
,
0000
0000
0010
1000
,
0000
0001
0100
0010
,
0000
0000
0000
0000
0100
0010
1000
0000
,
0001
0000
0020
0000
0230
0000
1300
1000
,
1000
0000
0001
0001
0001
0000
1000
0001
,
0100
0000
0000
0010
1000
0000
0000
0000
1010
0000
0000
0000
0001
0000
0000
0000
,
0011
0000
1001
0000
1000
0001
0010
0000
,
0001
1000
0010
0100
0001
0000
0010
0000
,
0200
0000
0310
0001
0100
0001
0010
0000
,
0100
1000
0001
0100
0001
0010
0200
0000
,
2300
0000
3010
0000
0100
0001
1000
0000
,
1000
0001
0010
0100
0010
0001
0200
0000
,
0310
0000
0000
0000
0100
0000
0000
0100
0000
0000
0010
0100
0010
0000
0000
1000
,
0000
0001
1001
0000
0010
0000
0101
0000
,
1000
0101
1100
1001
,
0001
1010
0001
0110
,
0001
0011
1100
1001
,
0110
0101
0011
0101
,
0011
1001
1010
1100
,
1001
0110
1010
0101
,
0011
0210
0000
0000
,
0310
0001
0100
1000
,
0100
0010
1000
0001
,
0010
0100
1000
0000
0100
0000
1000
0000
,
0010
0100
0001
0010
,
0100
0010
0001
0000
0010
0000
0001
0000
,
0100
0010
1000
0001
,
1000
0001
0001
1000
,
1000
0001
0100
0010
,
1000
0010
0110
0000
0101
0000
0011
0000
,
0110
1100
0000
0000
,
1000
0001
1001
0000
0101
0000
1001
0000
,
1100
0110
0000
0000
,
0010
0011
1100
0101
,
1010
0101
0101
0101
,
0000
1000
1010
0000
0011
0000
0110
0000
,
1100
1001
0000
0110
,
0000
1001
1000
0010
,
0000
0000
1000
0000
0100
0010
0000
0000
,
0000
0000
0100
0000
1000
0000
0010
0001
,
0010
0100
0000
0000
,
0020
0130
0001
0010
,
0000
0100
0010
0000
0001
0000
0010
0000
,
1000
0010
0100
1000
,
0010
0100
0000
0001
,
0000
0000
0000
0000
1000
0000
0100
0000
0010
0000
0000
0000
0100
0000
1000
1000
,
0000
0000
0000
0000
0100
0000
1000
0000
0010
0100
0001
0000
1000
0000
0000
0000
,
0001
0010
0110
0000
0000
0010
0001
0000
,
0100
0010
1000
0000
0001
0000
1001
0000
,
0110
1001
1010
0101
,
0000
0000
0000
0000
,
0000
0000
0000
0000
0000
0000
0000
0000
0010
1000
0010
1000
0010
0000
0000
0000
,
0000
0000
0000
0000
,
0000
0000
0000
0000
0001
1000
0001
1000
0001
1000
0001
1000
0001
0000
0000
0000
,
0000
0000
0000
0000
0000
1000
0001
0000
,
0000
0000
0000
0000
0000
0000
0000
0000
1000
0001
1000
0001
1000
0000
0000
0000
,
0000
0000
0001
0000
0000
1000
1000
0000
,
0100
0010
0001
0200
,
0010
0010
0310
2000
,
0001
0001
3001
0020
,
0001
0001
0031
2000
,
0100
0000
0000
0000
0100
0000
0000
0000
3100
0000
0000
0000
0010
0000
0000
0001
,
0000
0000
0100
0000
0010
0000
0000
1000
0000
0000
0001
0000
0010
0000
0000
0100
,
0000
0000
0000
0000
0000
0000
0010
0000
0000
0000
0000
0000
0001
0000
0000
0000
0000
0000
0000
0000
0000
0100
0000
0000
0000
0000
0000
0000
0000
0000
0010
0000
0000
0000
0000
0000
1000
0000
0000
0000
0000
0000
0000
0000
0001
0000
0000
0000
,
0100
0000
0000
0010
0000
0000
0000
1000
0000
0100
0000
0000
0010
0000
0000
0000
0100
0000
0000
0000
1000
0000
0000
0000
,
0010
0000
0100
0000
0001
0000
1001
0000
0000
0000
0000
0000
,
0000
0000
1010
1100
,
0110
0101
1001
1000
,
0001
0000
0010
0100
0010
0001
1000
0000
,
0001
0000
1010
0000
1000
0001
0100
0000
,
0010
0000
1000
0100
0000
0010
0100
1000
,
0100
0010
0001
1000
0001
0010
0100
0000
,
0010
0000
0001
0000
1000
0010
1000
0000
,
0101
0000
0000
0000
0000
0000
0001
0000
0000
0010
0000
0000
0100
0000
0000
0010
,
0000
0001
0000
1000
0001
0100
0100
0001
,
0000
0000
0010
0000
0000
0100
0000
0000
1000
0000
0000
0000
0001
0000
0100
0000
,
0000
0010
1000
0000
0100
0010
0001
1000
,
0010
0100
0010
0000
0100
0000
0001
0010
,
0000
0100
0010
0001
0001
0010
0100
1000
,
0001
0100
0010
0000
1000
0000
0001
0010
,
1000
0000
0010
0000
0100
0000
0000
0000
0010
0000
0000
0000
0001
0000
0000
1000
,
0000
0000
0010
0000
0000
0100
0000
0000
0010
0000
1000
0000
0000
0000
0100
0000
,
0010
0000
0000
0000
0001
0000
0000
0000
0000
0000
1100
0000
0000
0000
0000
1010
0000
0000
0000
0000
1000
0000
0000
0000
1001
0000
0000
0000
0000
0000
0000
0000
,
0000
0000
0000
0000
,
0000
0000
0000
0000
,
0000
0000
0000
0000
0001
0010
0001
0000
,
1000
0000
0100
0100
0000
0000
0000
0000
1000
0000
0010
0000
0100
0000
0001
0000
,
1001
0000
0000
0000
;

//---------------dance-single - ----------------
#NOTEDATA:;
#CHARTNAME:;
#STEPSTYPE:dance-single;
#DESCRIPTION:;
#CHARTSTYLE:;
#DIFFICULTY:Beginner;
#METER:6;
#RADARVALUES:0.168951,0.306279,0.106136,0.000000,0.000000,156.000000,142.000000,14.000000,0.000000,0.000000,0.000000,0.000000,0.000000,0.000000,0.168951,0.306279,0.106136,0.000000,0.000000,156.000000,142.000000,14.000000,0.000000,0.000000,0.000000,0.000000,0.000000,0.000000;
#CREDIT:Pandemonium X;
#NOTES:
0000
0000
0000
0000
,
0000
0000
0000
1000
,
0000
0000
0000
0001
,
0000
0000
0000
0100
,
0000
0010
0000
0100
,
0000
0000
0000
0010
,
0000
0000
0000
0010
,
0000
0000
0000
1000
,
0000
0100
0000
1000
,
0000
0010
0000
0100
,
0000
0000
0000
0010
,
0000
0000
0000
0100
,
0000
0001
0000
1000
,
0000
0000
0000
1001
,
0000
0000
0000
0010
,
0000
0100
0000
0010
,
0000
0000
0000
1000
,
0000
0000
0000
0000
,
0000
0000
0000
0000
,
0000
0110
0000
0000
,
0000
0010
0000
0010
,
0000
0010
0000
0000
,
0000
1000
0000
1000
,
0000
1000
0000
0000
,
0000
0001
0000
0001
,
0000
0100
0000
0000
,
0000
0010
0000
0010
,
0000
0100
0000
0100
,
0000
0100
0100
0100
,
0000
0010
0000
0010
,
0000
0010
0010
0010
,
0000
1000
1000
1000
,
0000
0001
0001
0001
,
0000
1000
0001
1000
,
0001
1000
0000
0000
,
0010
0010
0000
0000
,
0000
0000
0000
0000
,
1000
0100
0000
0000
,
0000
0000
0000
0000
,
1000
0001
0000
0000
,
0000
0000
0000
0000
,
0100
0010
0000
0000
,
0000
0000
0000
0000
,
1000
0100
0000
0000
,
0000
0000
0000
0000
,
1000
0010
0000
0000
,
0000
0000
0000
0000
,
1000
0001
0000
1000
,
0000
0010
0010
0010
,
0000
0100
0000
0010
,
0000
1000
0000
0001
,
0000
1001
0000
0000
,
0000
0010
0000
0000
,
0000
0100
0000
0010
,
0000
1000
0000
0000
,
0000
1001
0000
0000
,
0000
0001
0000
0000
,
0000
0010
0000
0001
,
0000
0100
0000
0010
,
0000
1000
0000
0100
,
0000
1000
0001
1000
,
0100
0010
0000
0100
,
1000
0010
0000
0100
,
0000
0000
0000
1001
,
0000
0000
0000
0000
,
0000
0000
0010
1001
,
0000
0000
0000
0000
,
0000
0000
0000
0110
,
0000
0000
0000
1001
,
0000
0000
0000
0110
,
0000
1001
0000
0110
,
0000
0000
0000
1000
,
0000
0000
0000
0000
,
0000
0000
0000
0001
,
0000
0000
0000
0000
,
0000
0000
0000
0100
,
0000
0010
0000
1000
,
0000
0001
0000
1000
,
0000
1000
0000
0000
1000
0000
0000
0000
,
0000
0000
1001
0000
,
0000
0000
0000
0000
,
0000
0000
0010
0000
,
0000
0000
0100
0000
,
0000
0000
0001
0000
,
0000
0000
1000
0000
,
0000
0000
0000
0001
0000
0000
0000
0000
,
0000
1000
0000
0000
,
0000
0010
0000
0000
,
0000
0000
0100
0000
0000
0000
0000
0010
,
1000
0000
0000
0000
,
1000
0000
0000
0000
,
0001
0000
0000
0000
,
1000
0000
0000
0000
0000
0000
0000
0001
,
0100
0000
0000
0010
,
0000
0000
0000
1000
,
0000
0010
0000
0100
,
0000
0001
0000
1001
,
0000
0000
0000
0000
,
0000
0000
0000
0000
,
0000
0000
1000
0000
,
1000
0000
1000
0001
,
0110
0000
0000
0000
;
