#TITLE:Incognito;
#SUBTITLE:;
#ARTIST:Inspector K;
#TITLETRANSLIT:;
#SUBTITLETRANSLIT:;
#ARTISTTRANSLIT:;
#GENRE:STEALTH;
#CREDIT:;
#BANNER:banner.png;
#BACKGROUND:background.png;
#LYRICSPATH:;
#CDTITLE:CDTITLE.png;
#MUSIC:Incognito.ogg;
#OFFSET:-0.350000;
#SAMPLESTART:13.150000;
#SAMPLELENGTH:19.199999;
#SELECTABLE:YES;
#BPMS:0.000000=150.000000
;
#STOPS:
;
#BGCHANGES:;
#KEYSOUNDS:;
#ATTACKS:;

//---------------dance-single - ----------------
#NOTES:
     dance-single:
     :
     Hard:
     12:
     0.457029,0.516600,0.092853,0.464264,0.084412,379.000000,368.000000,11.000000,55.000000,0.000000,0.000000,0.457029,0.516600,0.092853,0.464264,0.084412,379.000000,368.000000,11.000000,55.000000,0.000000,0.000000:
// measure 0
0000
0000
0000
0000
,  // measure 1
0000
0000
0000
0000
,  // measure 2
0000
0000
0000
0000
,  // measure 3
0000
0000
0000
0000
,  // measure 4
1000
0200
0000
2300
0000
3020
0000
0130
,  // measure 5
0000
0200
0000
0320
0000
0230
0000
0301
,  // measure 6
0000
0200
0000
0302
0000
0023
0000
0130
,  // measure 7
1001
0000
0000
0000
0000
0000
0000
0000
0010
0000
0010
0100
0010
0000
0100
0000
,  // measure 8
1001
0000
1000
0001
0000
0010
0100
1000
,  // measure 9
0000
0000
0000
0001
0100
0001
1000
0100
,  // measure 10
0010
0000
0001
0010
0000
0001
0010
0000
,  // measure 11
0000
0000
0000
0100
0010
0001
1000
0010
,  // measure 12
0100
0000
0001
0100
0000
0010
0000
1000
,  // measure 13
0000
0000
0000
0001
0010
0001
1000
0100
,  // measure 14
0010
0000
0100
1000
0000
1000
0010
0000
,  // measure 15
0100
0001
0100
0001
0100
0000
0001
0000
0010
0000
0100
0000
1000
0000
0001
0000
,  // measure 16
0100
0000
0001
0010
0000
0010
0001
1000
,  // measure 17
0000
0000
0000
0001
0100
0001
0010
0100
,  // measure 18
1000
0000
1000
0010
0000
1000
0010
0000
,  // measure 19
0000
0000
0000
0100
0010
1000
0100
1000
,  // measure 20
0001
0000
0100
0001
0000
0010
0000
0001
,  // measure 21
0000
0000
0000
0010
0100
0010
0001
1000
,  // measure 22
0010
0000
0100
0001
0000
0001
0010
0000
,  // measure 23
0100
1000
0100
1000
0100
0000
0010
0000
0001
0000
0100
0000
0001
0000
1000
0000
,  // measure 24
1001
0000
1000
0010
0000
0100
0001
0010
,  // measure 25
0000
0000
0000
0000
,  // measure 26
1001
0000
1000
0010
0000
0100
0001
0010
,  // measure 27
0000
0000
0000
0000
,  // measure 28
0100
1000
0100
0010
0001
0100
0010
0000
,  // measure 29
0100
0001
0000
0010
0200
0000
1300
0000
,  // measure 30
0100
1000
0010
0100
0001
0010
0100
0000
,  // measure 31
1001
0000
0000
0000
0000
0000
0010
0100
0010
0000
0010
0000
0010
0000
0000
0000
,  // measure 32
0100
0001
0010
1000
0010
0100
1000
0000
,  // measure 33
0100
0010
0000
0100
2000
0000
3010
0000
,  // measure 34
0100
1000
0100
0001
0010
0001
1000
0000
,  // measure 35
0100
0010
0001
1000
0100
0001
1100
0000
,  // measure 36
1010
2000
0000
3002
0000
0023
0000
0130
,  // measure 37
0000
0020
0000
0032
0000
0203
0000
0310
,  // measure 38
0000
0200
0000
0320
0000
2030
0000
3100
,  // measure 39
0000
2000
0000
3002
0000
0203
0000
0310
,  // measure 40
1000
0002
0000
0023
0000
0230
0000
1300
,  // measure 41
0000
0200
0000
2300
0000
3020
0000
0130
,  // measure 42
0000
0020
0000
0230
0000
0302
0000
1003
,  // measure 43
1001
0000
0000
0000
0000
0000
0000
0000
0010
0000
0100
0010
0100
0000
0010
0000
,  // measure 44
1001
0000
1000
0100
0000
1000
0001
0100
,  // measure 45
0000
0000
0000
0010
1000
0001
0010
0100
,  // measure 46
0010
0000
0100
1000
0000
0100
1000
0000
,  // measure 47
0000
0000
0000
0100
1000
0010
0100
0001
,  // measure 48
0010
0000
0100
0010
0000
0001
0000
1000
,  // measure 49
0000
0000
0000
0001
0010
0001
0100
0010
,  // measure 50
1000
0000
0001
0010
0000
0010
0100
0000
,  // measure 51
1000
0001
1000
0001
1000
0000
0010
0000
0100
0000
0001
0000
0010
0000
0100
0000
,  // measure 52
1000
0000
0000
0010
0000
0000
0100
0000
0001
0000
0000
0010
0000
0000
0100
0000
,  // measure 53
0010
0000
0000
0001
0000
0000
1000
0000
0001
0000
0100
0000
0001
0000
0010
0000
,  // measure 54
0100
0000
1000
0100
0000
1000
0100
0000
,  // measure 55
0000
0000
0000
1000
0010
1000
0001
0010
,  // measure 56
0100
0000
0010
0001
0000
1000
0000
0001
,  // measure 57
0000
0000
0000
0100
0001
0010
0100
1000
,  // measure 58
0001
0000
1000
0001
0000
0001
0010
0000
,  // measure 59
0100
0010
0100
0010
0100
0000
0010
0000
0001
0000
0100
0000
0001
0000
1000
0000
,  // measure 60
0010
0000
0000
1000
0000
0000
0100
0000
0010
0000
0000
0100
0000
0000
1000
0000
,  // measure 61
0001
0000
0000
0100
0000
0000
0001
0000
0010
0000
0000
0000
0100
0000
0000
0000
,  // measure 62
1001
0000
0001
0100
0000
1000
0100
0010
,  // measure 63
0100
0001
0100
0001
0100
0000
0000
0000
0010
0000
0000
0000
1000
0000
0000
0000
,  // measure 64
1001
0002
0000
2003
0000
3020
0000
1030
,  // measure 65
0000
2000
0000
3020
0000
0230
0000
0301
,  // measure 66
0000
0020
0000
0230
0000
2300
0000
3001
,  // measure 67
0000
2000
0000
3002
0000
0203
0000
0310
,  // measure 68
1000
0200
0000
0302
0000
0203
0000
2300
,  // measure 69
0000
3020
0000
0032
0000
0023
0000
2030
,  // measure 70
0000
3020
0000
0230
0000
0302
0000
1003
,  // measure 71
0001
0000
0010
0000
0100
0000
1000
0000
0100
0000
0100
0000
0100
0000
0010
0001
,  // measure 72
1000
0000
0000
0000
;

//---------------dance-single - ----------------
#NOTES:
     dance-single:
     :
     Challenge:
     14:
     0.658411,0.698929,0.202588,0.405176,0.637308,546.000000,522.000000,24.000000,48.000000,0.000000,0.000000,0.658411,0.698929,0.202588,0.405176,0.637308,546.000000,522.000000,24.000000,48.000000,0.000000,0.000000:
// measure 0
0000
0000
0000
0000
,  // measure 1
0000
0000
0000
0000
,  // measure 2
0000
0000
0000
0000
,  // measure 3
0000
0000
0000
0000
,  // measure 4
1000
0200
0000
2300
0000
3020
0000
0130
,  // measure 5
1001
0002
0000
0023
0000
0230
0000
0310
,  // measure 6
1001
2000
0000
3020
0000
2030
0000
3001
,  // measure 7
1001
0000
0010
0000
0010
0000
0100
0000
1001
0000
0010
0100
0110
0000
0110
0000
,  // measure 8
0001
1000
0000
0000
0010
0100
1000
0000
0000
0000
0100
0010
0001
0000
1000
0000
,  // measure 9
0000
0000
0000
0000
0000
0000
0001
0100
0010
0000
0100
0001
0010
0000
0100
0000
,  // measure 10
1000
0100
0000
0000
0100
1000
0001
0000
0000
0000
0100
0010
0100
0000
0000
0000
,  // measure 11
0000
0000
0000
0000
0000
0000
0010
1000
0100
0000
0010
0100
1000
0000
0001
0000
,  // measure 12
1000
0010
0000
0000
0010
1000
0100
0000
0000
0000
0010
0100
1000
0000
0001
0000
,  // measure 13
0000
0000
0000
0000
0000
0000
1000
0001
0010
0000
0100
0010
0001
0000
1000
0000
,  // measure 14
0001
0100
0000
0000
0010
1000
0001
0000
0000
0000
0010
0100
1000
0000
0000
0000
,  // measure 15
0001
0100
1000
0100
0001
0000
0010
0100
1000
0000
1000
0100
0010
0001
1000
0000
,  // measure 16
0001
0100
0000
0000
0001
1000
0100
0000
0000
0000
0010
0001
1000
0000
0010
0000
,  // measure 17
0000
0000
0000
0000
0000
0000
0100
0001
0010
0000
0100
0010
0001
0000
1000
0000
,  // measure 18
0100
0010
0000
0000
0010
0100
1000
0000
0000
0000
0100
0010
0100
0000
0000
0000
,  // measure 19
0000
0000
0000
0000
0000
0000
1000
0010
0100
0000
0001
0010
0100
0000
1000
0000
,  // measure 20
0001
1000
0000
0000
1000
0001
0010
0000
0000
0000
0100
1000
0010
0000
0100
0000
,  // measure 21
0000
0000
0000
0000
0000
0000
0010
1000
0100
0000
1000
0001
0010
0000
0001
0000
,  // measure 22
1000
0010
0000
0000
0010
0100
0001
0000
0000
0000
0010
0100
1000
0000
0000
0000
,  // measure 23
0001
1000
0010
1000
0001
0000
1000
0100
0010
0000
0100
1000
0010
0100
0001
0000
,  // measure 24
1000
0010
0000
0000
0100
0001
0010
0000
0000
0000
0100
1000
0010
0000
1001
0000
,  // measure 25
0000
0010
0020
0000
1000
0000
0130
0000
,  // measure 26
0001
1000
0000
0000
0001
0010
0100
0000
0000
0000
0010
0001
1000
0000
0100
0000
,  // measure 27
0000
0010
0020
0000
0001
0000
0130
0000
,  // measure 28
0001
1000
1000
0001
1000
1000
0001
0000
,  // measure 29
1000
0001
0000
0001
2000
0000
3010
0000
,  // measure 30
1000
0001
0001
1000
0001
0001
1000
0000
,  // measure 31
1001
0000
0000
0000
0000
0000
1000
0001
1001
0000
0110
0000
1001
0000
0000
0000
,  // measure 32
0001
0100
1000
0100
0001
0100
0010
0000
,  // measure 33
0100
0001
0000
0010
0210
0000
1300
0000
,  // measure 34
1000
0010
0001
0010
1000
0010
0100
0000
,  // measure 35
0010
0020
0001
0032
0100
0103
1001
0000
,  // measure 36
1001
0000
0001
0010
0000
0000
0010
0100
0000
0000
0100
1000
0000
0000
1000
0010
,  // measure 37
0000
0000
0010
0100
0000
0000
0100
0001
0000
0000
0001
0010
0000
0000
0010
0100
,  // measure 38
0000
0000
0100
1000
0000
0000
1000
0001
0000
0000
0001
0100
0000
0000
0100
0010
,  // measure 39
0000
0000
0010
1000
0000
0000
1000
0100
0000
0000
0100
0010
0000
0000
0010
0001
,  // measure 40
1000
0000
0001
0100
0000
0000
0010
1000
0000
0000
0100
0010
0000
0000
0100
1000
,  // measure 41
0000
0000
0010
1000
0000
0000
0001
0100
0000
0000
0001
0010
0000
0000
0100
1000
,  // measure 42
0000
0000
0100
0010
0000
0000
0100
1000
0000
0000
0010
0100
0000
0000
0001
0010
,  // measure 43
0100
0000
0200
0000
1000
0000
1300
0000
1001
0000
0010
0100
0110
0000
1001
0000
,  // measure 44
0001
0100
0000
0000
0001
0100
1000
0000
0000
0000
1000
0100
0010
0000
1000
0000
,  // measure 45
0000
0000
0000
0000
0000
0000
1000
0100
0010
0000
0100
0010
0001
0000
0010
0100
,  // measure 46
1000
0000
0000
0000
0001
0010
0100
0000
0000
0000
0010
0001
1000
0000
0000
0000
,  // measure 47
0000
0000
0000
0000
0000
0000
0001
0100
0010
0000
0100
0001
0010
0000
0100
0000
,  // measure 48
1000
0100
0000
0000
0010
0001
0100
0000
0000
0000
0100
0001
1000
0000
0001
0000
,  // measure 49
0000
0000
0000
0000
0000
0000
1000
0100
0010
0000
0100
1000
0010
0000
0100
0000
,  // measure 50
0010
0100
0000
0000
0010
1000
0001
0000
0000
0000
0010
0100
1000
0000
0000
0000
,  // measure 51
1000
0100
0010
0001
1000
0000
0010
0100
0001
0000
0010
0100
1000
0000
0001
0000
,  // measure 52
2000
0000
0000
0001
0000
3001
0010
0000
0200
0000
0000
0010
0000
0310
0100
0000
,  // measure 53
0020
0000
0000
0001
0000
0031
0100
0000
0020
0000
0000
1000
0000
1030
0100
0000
,  // measure 54
0010
0001
0000
0000
1000
0001
0100
0000
0000
0000
0010
1000
0001
0000
0000
0000
,  // measure 55
0000
0000
0000
0000
0000
0000
1000
0100
0010
0000
0100
0010
0001
0000
0010
0000
,  // measure 56
0001
0100
0000
0000
0010
1000
0100
0000
0000
0000
0010
0100
1000
0000
0001
0000
,  // measure 57
0000
0000
0000
0000
0000
0000
1000
0001
0010
0000
0001
0010
0100
0000
0010
0000
,  // measure 58
0001
0010
0000
0000
0100
0010
0001
0000
0000
0000
0010
0100
1000
0000
0000
0000
,  // measure 59
0001
0010
0100
1000
0001
0000
0010
0100
1000
0000
1000
0100
0010
0000
0001
0000
,  // measure 60
2000
0000
0000
0010
3000
0001
0100
0000
0020
0000
0000
1000
0030
0100
0001
0000
,  // measure 61
2000
0000
0000
0100
3000
0010
0001
0000
0200
0000
0000
0010
0300
1000
0001
0000
,  // measure 62
0010
0100
0000
0000
0010
0001
0100
0000
0000
0000
0010
1000
0001
0000
1001
0000
,  // measure 63
1000
0100
0001
0100
1000
0000
0100
0010
0000
0010
0001
0000
0100
0000
0010
0000
,  // measure 64
0100
0002
0000
0203
0000
2000
3300
0210
,  // measure 65
0000
0302
0000
0023
0000
2000
3030
0210
,  // measure 66
0000
0320
0000
0230
0000
2300
3000
0012
,  // measure 67
0000
0203
0000
0320
0000
2030
0000
3001
,  // measure 68
1001
2000
0000
3002
0000
0023
0000
0130
,  // measure 69
0110
0020
0000
0230
0000
2300
0000
3001
,  // measure 70
0010
0100
0010
0100
0010
0100
0010
0100
2000
0000
0000
0000
3100
0000
0000
0000
,  // measure 71
0010
0000
0020
0000
0100
0000
0230
0000
1300
0000
0001
1000
0001
0000
1000
0001
,  // measure 72
1001
0000
0000
0000
;

//---------------dance-single - ----------------
#NOTES:
     dance-single:
     :
     Medium:
     8:
     0.361764,0.455823,0.101294,0.160382,0.000000,300.000000,288.000000,12.000000,19.000000,0.000000,0.000000,0.361764,0.455823,0.101294,0.160382,0.000000,300.000000,288.000000,12.000000,19.000000,0.000000,0.000000:
// measure 0
0000
0000
0000
0000
,  // measure 1
0000
0000
0000
0000
,  // measure 2
0000
0000
0000
0000
,  // measure 3
0000
0000
0000
0000
,  // measure 4
1000
0100
0000
0001
0000
0100
0000
1000
,  // measure 5
0010
0001
0000
0010
0000
1000
0000
0100
,  // measure 6
0001
0100
0000
0010
0000
0100
0000
0010
,  // measure 7
2002
0000
0000
3003
,  // measure 8
0001
0000
1000
0010
0000
1000
0010
0100
,  // measure 9
0000
0000
0000
0010
0100
0000
0001
0000
,  // measure 10
1000
0000
0100
1000
0000
0100
1000
0000
,  // measure 11
0000
0000
0000
0100
0010
0000
0001
0000
,  // measure 12
1000
0000
0001
0100
0000
0001
0000
1000
,  // measure 13
0000
0000
0000
0100
1000
0000
0010
0000
,  // measure 14
0100
0000
0001
0100
0000
0100
0010
0000
,  // measure 15
0000
0000
0000
0100
0010
1000
0001
0010
,  // measure 16
0100
0000
0010
0001
0000
0010
0100
1000
,  // measure 17
0000
0000
0000
0100
1000
0000
0010
0000
,  // measure 18
0100
0000
0001
0100
0000
0100
0001
0000
,  // measure 19
0000
0000
0000
0100
0001
0000
0010
0000
,  // measure 20
0100
0000
0010
0001
0000
1000
0000
0100
,  // measure 21
0000
0000
0000
1000
0100
0000
1000
0000
,  // measure 22
0010
0000
0100
0010
0000
1000
0001
0000
,  // measure 23
0000
0000
0000
1000
0100
0100
1000
0100
,  // measure 24
0010
0000
0100
0010
0000
0001
1000
0001
,  // measure 25
0000
0000
0000
0000
,  // measure 26
0001
0000
0010
0100
0000
1000
0001
1000
,  // measure 27
0000
0000
0000
0000
,  // measure 28
0001
0100
0010
1000
,  // measure 29
0001
0100
0000
0100
0002
0000
1003
0000
,  // measure 30
0100
0010
0001
0010
,  // measure 31
0110
0000
0000
0000
0100
0010
1001
0000
,  // measure 32
1000
0010
1000
0010
1000
0010
1000
0000
,  // measure 33
0010
0100
0000
0100
0002
0000
0013
0000
,  // measure 34
0100
0010
0100
0010
0100
0010
0100
0000
,  // measure 35
0020
0032
0203
0320
,  // measure 36
1030
0100
0000
1000
0000
0010
0000
0100
,  // measure 37
0000
0001
0000
0010
0000
0100
0000
0010
,  // measure 38
0000
0001
0000
1000
0000
0100
0000
1000
,  // measure 39
0000
0010
0000
0100
0000
0001
0000
1000
,  // measure 40
0100
0010
0000
0100
0000
1000
0000
0010
,  // measure 41
0000
0001
0000
0010
0000
1000
0000
0010
,  // measure 42
0000
0100
0000
0001
0000
1000
0000
0010
,  // measure 43
2002
0000
0000
3003
,  // measure 44
1001
0000
0001
1000
0000
0001
0100
0010
,  // measure 45
0000
0000
0000
0100
0010
0000
1000
0000
,  // measure 46
0100
0000
1000
0010
0000
0010
1000
0000
,  // measure 47
0000
0000
0000
0010
0100
0000
0001
0000
,  // measure 48
1000
0000
0100
1000
0000
0010
0100
0001
,  // measure 49
0000
0000
0000
0010
0100
0000
0010
0000
,  // measure 50
0001
0000
1000
0001
0000
0001
1000
0000
,  // measure 51
0010
0010
0010
0000
0100
0000
0001
0000
,  // measure 52
2000
3100
0200
0310
,  // measure 53
0012
0013
2100
3100
,  // measure 54
1000
0000
0100
1000
0000
1000
0100
0000
,  // measure 55
0000
0000
0000
0010
0001
0000
0100
0000
,  // measure 56
0020
0130
0002
1003
,  // measure 57
1020
0130
0021
0130
,  // measure 58
0110
0000
0100
1000
0000
1000
0010
0000
,  // measure 59
0100
0100
0100
0010
1000
0001
0010
0100
,  // measure 60
1000
0000
0001
0100
0000
0001
0010
0100
,  // measure 61
0000
0000
0000
0000
,  // measure 62
1100
0000
0100
1000
0000
0100
1000
0010
,  // measure 63
0000
0000
0000
0000
,  // measure 64
0100
0010
0000
0010
0000
0100
0000
0100
,  // measure 65
0000
0001
0000
0001
0000
1000
0000
1000
,  // measure 66
0000
0100
0000
0100
0000
0010
0000
0010
,  // measure 67
0000
0001
0000
0001
0000
0001
0000
0001
,  // measure 68
1000
0100
0000
0001
0000
0100
0000
1000
,  // measure 69
0010
0001
0000
0010
0000
1000
0000
0010
,  // measure 70
0100
0001
0000
0010
0000
1000
0000
0010
,  // measure 71
0200
0000
0000
0300
,  // measure 72
1001
0000
0000
0000
;

//---------------dance-single - ----------------
#NOTES:
     dance-single:
     :
     Easy:
     5:
     0.189323,0.303882,0.025324,0.118176,0.000000,157.000000,154.000000,3.000000,14.000000,0.000000,0.000000,0.189323,0.303882,0.025324,0.118176,0.000000,157.000000,154.000000,3.000000,14.000000,0.000000,0.000000:
// measure 0
0000
0000
0000
0000
,  // measure 1
0000
0000
0000
0000
,  // measure 2
0000
0000
0000
0000
,  // measure 3
0000
0000
0000
0000
,  // measure 4
1000
0000
0000
0000
,  // measure 5
0001
0000
0000
0000
,  // measure 6
0100
0000
0000
0000
,  // measure 7
0020
0000
0000
0030
,  // measure 8
1000
0000
0000
0001
0000
0000
1000
0000
,  // measure 9
0000
0000
0010
1000
,  // measure 10
0100
0000
0000
0010
0000
0000
0100
0000
,  // measure 11
0000
0000
0010
0001
,  // measure 12
0100
0000
0000
0010
0000
1000
0000
0001
,  // measure 13
0000
0000
1000
0001
,  // measure 14
0100
0000
0000
0010
0000
0000
1000
0000
,  // measure 15
0001
0100
0001
0000
0100
0000
0001
0000
,  // measure 16
1000
0000
0000
0100
0000
0000
1000
0000
,  // measure 17
0000
0000
0010
1000
,  // measure 18
0100
0000
0000
1000
0000
0000
0001
0000
,  // measure 19
0000
0000
0100
0001
,  // measure 20
0010
0000
0000
0001
0000
1000
0000
0001
,  // measure 21
0000
0000
1000
0010
,  // measure 22
0100
0000
0000
0010
0000
0000
1000
0000
,  // measure 23
0100
1000
0100
0000
1000
0000
0010
0000
,  // measure 24
0100
0000
0000
0010
0000
0000
1000
0001
,  // measure 25
0000
0000
0000
0000
,  // measure 26
0100
0000
0000
0010
0000
0000
1000
0001
,  // measure 27
0000
0000
0000
0000
,  // measure 28
1000
0000
0001
0000
,  // measure 29
0100
0000
0020
1030
,  // measure 30
0010
0000
0100
0000
,  // measure 31
1001
0000
0000
0000
0010
0010
0010
0000
,  // measure 32
1000
0001
0010
0001
,  // measure 33
1000
0100
0020
0130
,  // measure 34
0010
0001
1000
0010
,  // measure 35
0200
0000
0000
0300
,  // measure 36
1002
0000
0000
0003
,  // measure 37
2000
0000
0000
3000
,  // measure 38
0020
0000
0000
0030
,  // measure 39
0200
0000
0000
0300
,  // measure 40
0002
0000
0000
0003
,  // measure 41
0200
0000
0000
0300
,  // measure 42
0020
0000
0000
0030
,  // measure 43
2000
0000
0000
3000
,  // measure 44
0001
0000
0000
1000
0000
0000
0010
0000
,  // measure 45
0000
0000
1000
0100
,  // measure 46
0010
0000
0000
0100
0000
0000
0010
0000
,  // measure 47
0000
0000
0100
0010
,  // measure 48
0001
0000
0000
1000
0000
0001
0000
0100
,  // measure 49
0000
0000
0010
1000
,  // measure 50
0100
0000
0000
1000
0000
0000
0001
0000
,  // measure 51
0100
0010
0100
0000
0010
0000
1000
0000
,  // measure 52
0001
0000
1000
0000
,  // measure 53
0020
0000
1000
0000
,  // measure 54
0130
0000
0010
0000
,  // measure 55
1000
0000
0001
1000
,  // measure 56
0100
0000
1000
0000
,  // measure 57
0002
0000
0100
0000
,  // measure 58
1003
0000
0000
0001
0000
0000
0100
0000
,  // measure 59
0010
1000
0010
0000
1000
0000
0001
0000
,  // measure 60
1000
0000
0000
0001
0000
0000
0100
0001
,  // measure 61
0000
0000
0000
0000
,  // measure 62
1000
0000
0000
0001
0000
0000
0100
0001
,  // measure 63
0000
0000
0000
0000
,  // measure 64
0100
0000
0000
0000
,  // measure 65
0010
0000
0000
0000
,  // measure 66
1000
0000
0000
0000
,  // measure 67
0001
0000
0000
0000
,  // measure 68
0010
0000
0000
0000
,  // measure 69
0001
0000
0000
0000
,  // measure 70
1000
0000
0000
0000
,  // measure 71
0100
0000
0000
0000
,  // measure 72
1001
0000
0000
0000
;

//---------------dance-single - ----------------
#NOTES:
     dance-single:
     :
     Beginner:
     3:
     0.100088,0.182329,0.059088,0.000000,0.000000,83.000000,76.000000,7.000000,0.000000,0.000000,0.000000,0.100088,0.182329,0.059088,0.000000,0.000000,83.000000,76.000000,7.000000,0.000000,0.000000,0.000000:
// measure 0
0000
0000
0000
0000
,  // measure 1
0000
0000
0000
0000
,  // measure 2
0000
0000
0000
0000
,  // measure 3
0000
0000
0000
0000
,  // measure 4
1000
0000
0000
0000
,  // measure 5
0001
0000
0000
0000
,  // measure 6
0100
0000
0000
0000
,  // measure 7
0110
0000
0000
0000
,  // measure 8
0010
0000
0000
0000
,  // measure 9
1000
0000
0000
0000
,  // measure 10
0100
0000
0000
0000
,  // measure 11
1000
0000
0000
0000
,  // measure 12
0001
0000
0000
0000
,  // measure 13
0100
0000
0000
0000
,  // measure 14
0010
0000
0000
0000
,  // measure 15
1000
0000
0001
0000
,  // measure 16
1000
0000
0000
0000
,  // measure 17
0100
0000
0000
0000
,  // measure 18
1000
0000
0000
0000
,  // measure 19
0010
0000
0000
0000
,  // measure 20
0100
0000
0000
0000
,  // measure 21
0001
0000
0000
0000
,  // measure 22
1000
0000
0000
0000
,  // measure 23
0010
0000
0100
0000
,  // measure 24
0010
0000
0000
0000
,  // measure 25
0000
0000
0000
0000
,  // measure 26
0010
0000
0000
0000
,  // measure 27
0000
0000
0000
0000
,  // measure 28
1000
0000
0000
0000
,  // measure 29
0001
0000
0000
0000
,  // measure 30
1000
0000
0000
0000
,  // measure 31
0001
0000
1000
1000
,  // measure 32
0010
0000
0000
0000
,  // measure 33
0100
0000
0000
0000
,  // measure 34
0010
0000
0000
0000
,  // measure 35
1000
0000
0000
0000
,  // measure 36
1001
0000
0000
0000
,  // measure 37
0001
0000
0000
0000
,  // measure 38
0100
0000
0000
0000
,  // measure 39
0001
0000
0000
0000
,  // measure 40
1001
0000
0000
0000
,  // measure 41
0010
0000
0000
0000
,  // measure 42
1001
0000
0000
0000
,  // measure 43
0100
0000
0010
0000
,  // measure 44
1000
0000
0000
0000
,  // measure 45
0100
0000
0000
0000
,  // measure 46
1000
0000
0000
0000
,  // measure 47
0010
0000
0000
0000
,  // measure 48
0100
0000
0000
0000
,  // measure 49
0001
0000
0000
0000
,  // measure 50
0010
0000
0000
0000
,  // measure 51
0100
0100
0010
0000
,  // measure 52
0100
0000
1000
0000
,  // measure 53
0001
0000
0100
0000
,  // measure 54
0010
0000
0000
0000
,  // measure 55
1000
0000
0000
0000
,  // measure 56
0001
0000
1000
0000
,  // measure 57
0010
0000
1000
0000
,  // measure 58
0100
0000
0000
0000
,  // measure 59
1000
0000
0000
0000
,  // measure 60
1001
0000
0000
0000
,  // measure 61
0000
0000
0000
0000
,  // measure 62
0110
0000
0000
0000
,  // measure 63
0000
0000
0000
0000
,  // measure 64
1000
0000
0000
0000
,  // measure 65
0100
0000
0000
0000
,  // measure 66
0010
0000
0000
0000
,  // measure 67
0001
0000
0000
0000
,  // measure 68
0010
0000
0000
0000
,  // measure 69
0001
0000
0000
0000
,  // measure 70
1000
0000
0000
0000
,  // measure 71
0100
0000
0000
0000
,  // measure 72
1001
0000
0000
0000
;
