#TITLE:Hasse Mich;
#SUBTITLE:;
#ARTIST:Onyx;
#TITLETRANSLIT:;
#SUBTITLETRANSLIT:;
#ARTISTTRANSLIT:;
#GENRE:;
#CREDIT:;
#BANNER:banner.png;
#BACKGROUND:background.png;
#LYRICSPATH:;
#CDTITLE:CDTITLE.png;
#MUSIC:Hasse Mich.ogg;
#OFFSET:-0.297000;
#SAMPLESTART:70.585724;
#SAMPLELENGTH:13.928574;
#SELECTABLE:YES;
#BPMS:0.000000=280.000000
,320.000000=140.000000
,324.000000=280.000000
,379.000000=140.000000
,383.000000=280.000000
,439.000000=140.000000
,443.000000=280.000000
;
#STOPS:354.500000=0.214000
;
#BGCHANGES:;
#KEYSOUNDS:;
#ATTACKS:;

//---------------dance-single - ----------------
#NOTES:
     dance-single:
     :
     Hard:
     15:
     0.779324,0.956285,0.387203,0.086045,0.060232,634.000000,589.000000,45.000000,10.000000,0.000000,0.000000,0.779324,0.956285,0.387203,0.086045,0.060232,634.000000,589.000000,45.000000,10.000000,0.000000,0.000000:
// measure 0
0000
0000
0000
0000
,  // measure 1
0000
0000
0000
0000
,  // measure 2
0000
0000
0000
0000
,  // measure 3
0000
0000
0000
0000
,  // measure 4
0000
0000
0000
0000
,  // measure 5
0000
0000
0000
0000
,  // measure 6
0000
0000
0000
0000
,  // measure 7
0001
0100
0010
1000
0001
0100
0010
1000
,  // measure 8
0001
0010
0001
0010
0100
1000
0100
1000
,  // measure 9
0100
0010
0001
1000
0100
0010
0001
1000
,  // measure 10
0001
0100
0001
0100
0010
1000
0010
1000
,  // measure 11
0001
0000
1000
0010
0000
0100
0001
0000
,  // measure 12
0010
0100
0010
0100
1000
0100
1000
0100
,  // measure 13
0010
0001
0010
0001
1000
0001
0010
0001
,  // measure 14
1000
0001
1000
0001
0100
0010
0100
0010
,  // measure 15
1000
0010
0100
0001
0010
0000
0001
0000
,  // measure 16
1000
0010
1000
0001
0100
0001
0010
0100
,  // measure 17
0010
0100
1000
0100
1000
0010
1000
0010
,  // measure 18
0100
0010
0100
0001
0100
0001
0010
0001
,  // measure 19
1000
0100
0010
0001
1000
0100
0010
0001
,  // measure 20
1000
0010
1000
0010
0100
0001
0100
0001
,  // measure 21
0010
0001
0010
0001
1000
0100
1000
0100
,  // measure 22
1000
0001
0100
0001
1000
0010
1000
0001
,  // measure 23
0010
0100
0010
0001
1000
0100
0010
0001
,  // measure 24
1000
0000
0001
0000
0100
0001
0000
0010
,  // measure 25
0100
0010
0001
0010
,  // measure 26
0001
0000
0100
0000
0010
0100
0000
0001
,  // measure 27
0000
0010
0100
0000
1000
0000
0100
0000
,  // measure 28
0001
0000
0100
0000
0010
0001
0000
0010
,  // measure 29
0000
1000
0010
0000
0001
0000
0100
0000
,  // measure 30
0010
0000
1000
0000
0010
1000
0000
0001
,  // measure 31
0010
0000
0000
0100
0000
0000
0010
0000
0000
0100
0000
0000
0010
0000
0000
0000
0001
0000
0000
0000
0100
0000
0000
0000
,  // measure 32
0010
1000
1010
1000
,  // measure 33
0001
0010
0110
0010
,  // measure 34
0001
0100
0101
0001
,  // measure 35
1000
0000
1000
0000
1000
0000
0001
0010
,  // measure 36
0001
0010
0110
0100
,  // measure 37
1000
0010
1010
1000
,  // measure 38
0010
0100
0101
0001
,  // measure 39
0010
0000
0010
0000
0010
0000
0100
1000
,  // measure 40
0100
0010
0101
0001
,  // measure 41
1000
0100
0011
0001
,  // measure 42
0100
0001
1010
1000
,  // measure 43
0100
0000
0100
0000
0010
0000
0100
0010
,  // measure 44
0100
0010
0011
0001
,  // measure 45
0100
0010
1010
0010
,  // measure 46
0100
0000
0001
0000
0100
0010
1000
0100
,  // measure 47
0010
0010
0010
0010
,  // measure 48
2002
0000
0000
3003
,  // measure 49
0001
1000
0100
0010
,  // measure 50
0000
0000
0000
0000
0000
0000
0001
0010
,  // measure 51
1000
0010
0001
0100
0001
0000
1000
0000
,  // measure 52
0000
0000
0000
0000
,  // measure 53
0001
0100
1000
0100
,  // measure 54
0000
0000
0000
1000
,  // measure 55
0010
0001
0010
1000
0010
0000
0001
0000
,  // measure 56
2002
0000
3003
0000
,  // measure 57
0001
0010
0100
1000
,  // measure 58
1100
0000
0100
0000
1000
0000
0100
0000
0000
0010
0000
0000
,  // measure 59
0100
1000
0100
0001
0100
0000
1000
0000
,  // measure 60
0220
0000
0330
0000
,  // measure 61
1000
0100
0010
0001
,  // measure 62
0101
0000
0100
0000
0001
0000
0100
0000
0000
0010
0000
0000
,  // measure 63
0100
0010
0100
0010
0100
0000
0001
0000
,  // measure 64
1000
0001
1000
0000
0010
1000
0010
0000
,  // measure 65
0100
0001
0100
0000
0001
0010
0001
0000
,  // measure 66
0010
0100
0010
0000
0100
1000
0100
0000
,  // measure 67
1000
0010
1000
0000
0010
0100
0010
0000
,  // measure 68
0100
0001
0100
0000
0001
0010
0001
0000
,  // measure 69
0010
0100
0010
0000
0100
1000
0100
0000
,  // measure 70
1000
0001
1000
0000
0001
0000
1000
0010
,  // measure 71
0100
0001
1000
0010
0100
0001
1000
0100
,  // measure 72
0010
0100
1000
0000
0100
1000
0010
0000
,  // measure 73
0100
0001
0010
0000
0100
0010
0001
0000
,  // measure 74
0010
0001
0100
0000
0010
1000
0100
0000
,  // measure 75
0010
0100
1000
0000
0100
1000
0010
0000
,  // measure 76
0100
0001
1000
0000
0001
0010
0100
0000
,  // measure 77
0010
0001
0100
0000
0010
1000
0100
0000
,  // measure 78
0010
0100
1000
0000
0100
0010
0001
0000
,  // measure 79
1000
0000
0001
0000
0100
0000
0010
0000
1000
0000
0001
0000
,  // measure 80
0210
0000
0000
0000
0000
0000
0000
0300
,  // measure 81
1001
0010
0110
0100
,  // measure 82
0001
0010
0100
0110
,  // measure 83
0100
1000
1001
1000
,  // measure 84
0001
0000
0000
1000
0100
1000
0001
0000
,  // measure 85
0010
0100
1100
0100
,  // measure 86
1000
0010
0100
0101
,  // measure 87
0001
1000
1100
0010
,  // measure 88
0001
0000
0000
0100
0010
1000
1002
0000
,  // measure 89
1003
1010
1000
0001
,  // measure 90
0010
0100
0110
0100
,  // measure 91
1000
1001
0001
0100
,  // measure 92
0000
0001
0010
0100
1000
0000
0001
0000
,  // measure 93
1000
1010
1000
0001
,  // measure 94
0010
0100
1100
1001
,  // measure 95
0010
1001
0100
0001
,  // measure 96
1000
0010
1000
0000
0010
0000
0100
0000
,  // measure 97
0001
0000
0010
0100
0010
0000
0100
0000
,  // measure 98
1000
0100
1000
0000
0100
0000
1000
0000
,  // measure 99
0010
0000
0100
0010
1000
0001
0010
0000
,  // measure 100
0100
0010
0100
0000
0010
0000
0001
0000
,  // measure 101
1000
0000
0001
0100
0001
0000
0100
0000
,  // measure 102
0010
0000
0000
1000
0000
0000
0001
0000
0000
1000
0000
0100
,  // measure 103
0000
0001
0000
0100
0000
0010
0000
0001
0000
1001
0000
0000
,  // measure 104
0010
1010
1000
0010
,  // measure 105
0100
0000
0001
0010
0100
0000
0010
0000
,  // measure 106
0001
1000
0010
0000
0100
0000
0001
0000
,  // measure 107
0000
1000
0100
0010
0100
0000
0010
0000
,  // measure 108
0001
0010
0100
0000
0010
0000
0001
0000
,  // measure 109
1000
0000
0001
0100
0010
1000
1001
0000
,  // measure 110
0010
1001
0100
0001
,  // measure 111
1000
1100
1000
0010
,  // measure 112
0000
0010
0000
0000
0010
0000
0100
0000
,  // measure 113
0001
0011
0010
0100
,  // measure 114
0000
0100
0000
0000
0100
0000
0010
0000
,  // measure 115
0001
1001
0001
1000
,  // measure 116
0000
1000
0000
0000
1000
0000
0001
0000
,  // measure 117
1000
1010
0000
1000
,  // measure 118
0001
0011
0000
0001
,  // measure 119
0100
0101
0001
1000
,  // measure 120
0000
1000
0000
0000
1000
0000
0100
0000
,  // measure 121
1000
1010
1000
0010
,  // measure 122
0000
0010
0000
0000
0010
0000
0100
0000
,  // measure 123
0001
0011
0010
0100
,  // measure 124
0000
0100
0000
0000
0100
0000
0100
0001
,  // measure 125
0100
1000
0010
0001
0010
1000
0010
0000
,  // measure 126
0000
0000
0000
2002
,  // measure 127
0000
0000
0000
0000
,  // measure 128
0000
0000
0000
0000
,  // measure 129
0000
0000
0000
0000
,  // measure 130
0000
0000
0000
3003
;

//---------------dance-single - ----------------
#NOTES:
     dance-single:
     :
     Challenge:
     18:
     0.931746,1.165482,0.929288,0.197904,0.361390,758.000000,650.000000,108.000000,23.000000,92.000000,0.000000,0.931746,1.165482,0.929288,0.197904,0.361390,758.000000,650.000000,108.000000,23.000000,92.000000,0.000000:
// measure 0
0000
0000
0000
0000
,  // measure 1
0000
0000
0000
0000
,  // measure 2
0000
0000
0000
0000
,  // measure 3
0000
0000
0000
0000
,  // measure 4
0000
0000
0000
0000
,  // measure 5
0000
0000
0000
0000
,  // measure 6
0000
0000
0000
0000
,  // measure 7
0010
0100
0010
0100
0010
0100
0010
0100
0010
0100
0010
0100
,  // measure 8
0010
1000
0010
1000
0001
0100
0001
0010
,  // measure 9
0100
1000
0100
1000
0001
0100
0001
0100
,  // measure 10
0001
0010
0001
0010
0100
1000
0100
1000
,  // measure 11
0001
0000
0100
0010
0000
1000
0010
0100
,  // measure 12
0001
0010
0001
0010
0100
1000
0100
1000
,  // measure 13
0001
1000
0001
1000
0010
0100
0001
1000
,  // measure 14
0010
1000
0001
0010
0100
0010
0001
0100
,  // measure 15
0010
0000
0000
1000
0000
0000
0100
0000
0000
0010
0000
0000
0001
0000
0100
0000
0001
0000
0100
0000
0001
0000
0100
0000
,  // measure 16
0001
0100
0001
0010
0100
1000
0100
0010
,  // measure 17
0001
1000
0001
0100
0010
1000
0010
0100
,  // measure 18
0001
0010
0100
1000
0001
1000
0001
1000
,  // measure 19
0001
0010
0100
1000
0100
0010
0001
1000
,  // measure 20
0010
1000
0001
0010
0001
1000
0010
1000
,  // measure 21
0001
0010
0100
1000
0001
0100
0001
1000
,  // measure 22
0100
0010
0100
1000
0001
0100
0010
1000
,  // measure 23
0001
1000
0000
0000
0001
1000
0000
0000
0001
1000
0000
0000
0001
1000
0000
0000
,  // measure 24
0201
0000
0310
0000
0001
0200
0000
1300
,  // measure 25
0001
0010
0110
0100
,  // measure 26
1100
0000
0011
0000
0001
0200
0000
1000
,  // measure 27
0000
0310
1000
0000
1100
0000
0011
0000
,  // measure 28
2001
0000
3010
0000
0100
0002
0000
0010
,  // measure 29
0000
0103
0010
0000
1000
0000
1001
0000
,  // measure 30
1020
0000
0130
0000
0001
0020
0000
1030
,  // measure 31
0010
0001
0010
0001
0010
0001
0010
0000
0001
0000
0100
0000
,  // measure 32
0110
0010
1010
1000
,  // measure 33
0001
0000
0000
0010
0100
1000
0001
0000
,  // measure 34
1000
0000
0001
0000
0101
0000
0001
0100
,  // measure 35
0010
0000
0010
0000
MMMM
0000
0100
0001
,  // measure 36
1000
0100
0011
0100
,  // measure 37
1001
0000
0000
0001
0100
0001
1000
0000
,  // measure 38
0001
0000
0010
0000
0110
0000
0010
0001
,  // measure 39
1000
0000
0000
1000
0000
0000
MMMM
0000
0000
0001
0100
0001
,  // measure 40
0100
0001
1100
0010
,  // measure 41
0101
0000
0000
0001
1000
0100
0010
0000
,  // measure 42
0100
0000
1000
0000
0011
0000
0001
0100
,  // measure 43
0010
0000
0010
0000
MMMM
0000
0100
0001
,  // measure 44
1000
0100
1001
0001
,  // measure 45
0010
0000
0000
0100
1000
0001
0100
0000
,  // measure 46
0001
0000
1010
0000
0001
1000
0010
0100
,  // measure 47
0001
0001
0001
0001
,  // measure 48
2002
0000
0000
3003
,  // measure 49
0001
0010
0100
MMMM
,  // measure 50
0000
0000
0000
0000
0000
0000
0000
0000
0000
0001
1000
0001
,  // measure 51
0100
0010
1000
0001
0010
0100
1000
0000
0000
MMMM
0000
0000
,  // measure 52
0000
0000
0000
0000
,  // measure 53
0001
0100
0010
MMMM
,  // measure 54
0000
0000
0000
0002
,  // measure 55
1003
0000
0000
0001
0000
0000
0100
0000
0000
0010
0000
0000
1000
0000
0100
0000
1000
0000
0100
0000
1000
0000
0100
0000
,  // measure 56
0020
0000
0000
0030
,  // measure 57
0200
0320
0031
MMMM
,  // measure 58
0110
0000
0110
0000
0110
0000
0110
0000
0000
0100
0000
0000
,  // measure 59
0010
1000
0001
0010
0001
1000
0001
0000
0000
MMMM
0000
0000
,  // measure 60
0202
0000
0000
0303
,  // measure 61
0001
1000
0100
MMMM
,  // measure 62
1100
0000
1100
0000
1100
0000
1100
0000
0000
0100
0000
0000
,  // measure 63
0010
0001
0010
0001
0010
0001
2000
0000
0000
3002
0000
0000
,  // measure 64
0103
0001
0010
0000
0100
1000
0010
0000
,  // measure 65
0100
1000
0100
0001
0010
1000
0010
0001
,  // measure 66
1000
0001
0100
0000
0010
1000
0100
0000
,  // measure 67
1000
0010
1000
0010
1000
0010
1000
0000
0000
MMMM
0000
0000
,  // measure 68
0100
0001
0010
0000
0100
1000
0010
0000
,  // measure 69
1000
0010
0001
0010
1000
0100
0001
0100
,  // measure 70
1000
0001
0100
0000
0001
1000
0100
0000
,  // measure 71
0010
0000
0001
0000
0010
0000
0001
0000
0000
0010
0000
0000
0100
0000
1000
0000
0100
0000
1000
0000
0100
0000
1000
0000
,  // measure 72
0010
0100
0001
0000
1000
0001
0010
0000
,  // measure 73
0100
1000
0100
0001
1000
0010
0001
0010
,  // measure 74
0100
0010
0001
0000
0010
0100
1000
0000
,  // measure 75
0001
0100
0001
0100
0001
0100
0001
0000
0000
MMMM
0000
0000
,  // measure 76
0001
0010
0100
0000
0010
0100
1000
0000
,  // measure 77
0001
0100
1000
0100
0001
0010
1000
0010
,  // measure 78
0001
0010
0100
0000
0010
0001
1000
0000
,  // measure 79
0101
0000
1010
0000
1100
0000
0011
0000
0110
0000
1100
0000
,  // measure 80
1001
0000
0000
0000
MMMM
0000
0000
0000
MMMM
0000
0000
0000
MMMM
0000
0000
0000
MMMM
0000
0000
0000
MMMM
0000
0000
0000
0010
0100
0010
0100
0010
0000
0000
0000
,  // measure 81
1001
0001
0110
1000
,  // measure 82
0100
0010
0001
1100
,  // measure 83
1000
1010
0101
0001
,  // measure 84
1001
0000
0000
0001
0100
0001
1000
0000
,  // measure 85
0001
0010
0110
0010
,  // measure 86
0011
0001
0100
0110
,  // measure 87
1000
1100
0011
1000
,  // measure 88
0001
0000
0000
0000
0000
0000
0100
0000
0010
0000
1000
MMMM
0021
0000
0000
0000
,  // measure 89
0130
0110
0010
0001
,  // measure 90
0100
0010
0110
0001
,  // measure 91
1000
0011
1000
0101
,  // measure 92
0000
1000
0001
0010
0100
0000
0010
0000
,  // measure 93
0001
1100
0010
0101
,  // measure 94
0010
0000
1000
0010
1000
0001
1001
0000
,  // measure 95
MMMM
0110
MMMM
1001
,  // measure 96
1100
0011
0100
1100
,  // measure 97
1000
1010
0101
0001
,  // measure 98
1001
0011
0100
1100
,  // measure 99
1000
0100
0010
0001
1000
0000
0001
0000
,  // measure 100
0100
1010
1000
0011
,  // measure 101
0010
0000
0100
0010
0001
0000
1000
0000
,  // measure 102
0101
0000
0000
1010
0000
0000
1001
0000
0000
0101
0000
0100
,  // measure 103
0000
0100
0000
0110
0000
0010
0000
0010
0000
1001
0000
0000
,  // measure 104
1010
0101
0001
1100
,  // measure 105
0100
0010
0011
1100
,  // measure 106
1001
0101
0001
1010
,  // measure 107
0000
0001
0010
0100
1000
0000
0011
0000
,  // measure 108
0010
0110
1000
1010
,  // measure 109
0101
0000
0001
1000
0010
0100
1001
0000
,  // measure 110
MMMM
0000
0110
0000
MMMM
0000
1001
0001
,  // measure 111
0100
0000
1010
0000
1000
0001
0011
0000
,  // measure 112
0010
0100
0000
0100
1000
0000
0100
0010
,  // measure 113
0011
0000
1100
0000
0001
0100
0010
0000
,  // measure 114
0010
1000
0000
0001
0100
0000
0001
0010
,  // measure 115
0110
0000
1100
0000
0100
0010
0001
0000
,  // measure 116
0010
0100
0000
0010
0001
0000
0001
0100
,  // measure 117
0110
0000
0000
0000
0000
0000
1010
0000
0000
0000
0000
0000
1000
0000
0000
0001
0000
0000
0101
0000
0000
0000
0100
0000
,  // measure 118
0000
0000
0100
0000
0000
0000
0010
0000
0000
0000
0010
0000
0000
0000
0010
0000
0000
0000
1010
0000
0000
1000
0000
0000
,  // measure 119
0100
0000
0011
0000
0010
0100
2100
0000
,  // measure 120
0000
0010
0000
3001
1000
0000
0001
0100
,  // measure 121
0110
0000
1010
0000
0100
0001
0201
0000
,  // measure 122
0000
0010
0000
0301
1000
0000
0001
0100
,  // measure 123
0110
0000
1010
0000
1000
0100
0210
0000
,  // measure 124
0000
0000
0000
0010
0000
0000
0000
0000
0000
0310
0000
0000
0001
0000
0000
0000
0000
0000
1000
0000
0010
0000
1000
0000
,  // measure 125
0010
1000
0010
1000
0010
1000
0010
1000
0010
1000
0000
0000
,  // measure 126
0000
MMMM
0000
2002
,  // measure 127
0000
0000
0000
0000
,  // measure 128
0000
0000
0000
3003
,  // measure 129
MMMM
0000
0000
0000
;

//---------------dance-single - ----------------
#NOTES:
     dance-single:
     :
     Medium:
     13:
     0.587566,0.672443,0.215113,0.172090,0.060232,478.000000,453.000000,25.000000,20.000000,0.000000,0.000000,0.587566,0.672443,0.215113,0.172090,0.060232,478.000000,453.000000,25.000000,20.000000,0.000000,0.000000:
// measure 0
0000
0000
0000
0000
,  // measure 1
0000
0000
0000
0000
,  // measure 2
0000
0000
0000
0000
,  // measure 3
0000
0000
0000
0000
,  // measure 4
0000
0000
0000
0000
,  // measure 5
0000
0000
0000
0000
,  // measure 6
0000
0000
0000
0000
,  // measure 7
0000
0000
0000
0000
,  // measure 8
1000
0010
0100
0001
,  // measure 9
0010
0100
0010
0001
,  // measure 10
1000
0010
1000
0001
,  // measure 11
0010
0000
0100
1000
0000
0010
0000
0100
,  // measure 12
0001
0010
0100
0010
,  // measure 13
0001
1000
0010
0100
,  // measure 14
0001
0010
0100
1000
,  // measure 15
0010
0000
0100
0000
0001
1000
0001
1000
,  // measure 16
0001
0010
0001
1000
,  // measure 17
0100
1000
0010
0100
,  // measure 18
0001
0010
0100
1000
,  // measure 19
0001
0000
0100
0000
0010
0000
0100
0001
,  // measure 20
0100
0001
0010
0100
,  // measure 21
0010
0001
1000
0010
,  // measure 22
0100
0001
0010
0100
,  // measure 23
1000
1000
1000
1000
,  // measure 24
1001
0000
0001
0000
1000
0010
0000
0100
,  // measure 25
0001
0000
0010
0000
,  // measure 26
0000
0000
0100
0000
0010
0001
0000
0100
,  // measure 27
0000
0010
1000
0000
0001
0000
1001
0000
,  // measure 28
0000
0000
1000
0000
0100
1000
0000
0010
,  // measure 29
0000
0100
0001
0000
0010
0000
0110
0000
,  // measure 30
0000
0000
0100
0000
0010
0001
0000
0100
,  // measure 31
0020
0000
0000
0000
0000
0000
1030
0000
0001
0000
1000
0000
,  // measure 32
0001
0100
1100
0000
,  // measure 33
1000
0100
0101
0000
,  // measure 34
0001
0010
1010
0000
,  // measure 35
0010
0010
0010
0000
,  // measure 36
0001
0010
1010
0000
,  // measure 37
1000
0010
0011
0000
,  // measure 38
0001
0100
0110
0000
,  // measure 39
0001
0001
0001
0020
,  // measure 40
0130
1000
1010
0000
,  // measure 41
0100
0001
0011
0000
,  // measure 42
0100
1000
1010
0000
,  // measure 43
0100
0100
0100
0000
,  // measure 44
0001
1000
1010
0000
,  // measure 45
1000
0001
0011
0000
,  // measure 46
0001
1000
0010
0100
,  // measure 47
0001
0001
0001
0001
,  // measure 48
2200
0000
0000
3300
,  // measure 49
1000
0100
0010
0001
,  // measure 50
0000
0000
0000
0010
,  // measure 51
0001
0100
1000
0100
,  // measure 52
0000
0000
0000
0000
,  // measure 53
0010
0100
0001
1000
,  // measure 54
0000
0000
0000
0001
,  // measure 55
0010
1000
0010
0001
,  // measure 56
2020
0000
0000
3030
,  // measure 57
1000
0100
0001
0100
,  // measure 58
1000
0000
0001
0000
1000
0000
0001
0000
0000
0010
0000
0000
,  // measure 59
0001
0100
1000
0100
,  // measure 60
0220
0000
0000
0330
,  // measure 61
0010
0100
0001
1000
,  // measure 62
0001
0000
1000
0000
0001
0000
1000
0000
0000
0001
0000
0000
,  // measure 63
0010
1000
0010
0001
,  // measure 64
0100
0010
1000
0001
,  // measure 65
0010
0100
1000
0100
,  // measure 66
1000
0010
0100
0001
,  // measure 67
1000
0100
0001
0100
,  // measure 68
1000
0010
0100
0001
,  // measure 69
0010
0100
1000
0100
,  // measure 70
1000
0010
0100
0001
,  // measure 71
1000
0000
0000
0010
1000
0000
0000
1000
,  // measure 72
0001
0010
0001
0100
,  // measure 73
0010
1000
0100
0010
,  // measure 74
0001
0010
0001
0100
,  // measure 75
0010
1000
0010
0001
,  // measure 76
0010
1000
0001
0010
,  // measure 77
0100
0010
0001
1000
,  // measure 78
0100
1000
0010
0100
,  // measure 79
0001
0000
0100
0000
0010
0000
1000
0000
0001
0000
0100
0000
,  // measure 80
0010
0000
0000
0000
,  // measure 81
1000
0100
1000
0010
,  // measure 82
0100
0001
0010
0100
,  // measure 83
0010
0001
0100
0010
,  // measure 84
1000
0000
0000
0001
0100
0001
0100
0000
,  // measure 85
0010
1000
0100
1000
,  // measure 86
0001
0010
0100
0010
,  // measure 87
0001
0100
0010
1000
,  // measure 88
0001
0000
0000
1000
0100
1000
0012
0000
,  // measure 89
0100
0103
0010
1000
,  // measure 90
0001
0010
0100
0010
,  // measure 91
0001
1000
0010
0100
,  // measure 92
0000
0010
1000
0010
1000
0000
0100
0000
,  // measure 93
1000
0010
0100
0001
,  // measure 94
0010
0100
1000
2002
,  // measure 95
3003
0220
0330
1000
,  // measure 96
0010
0001
0010
0100
,  // measure 97
0001
0010
0100
1000
,  // measure 98
0100
0001
0100
1000
,  // measure 99
0100
0000
0010
0001
0100
0000
0010
0000
,  // measure 100
0100
0001
0100
1000
,  // measure 101
0100
0010
1000
0100
,  // measure 102
0010
0000
0000
0001
0000
0000
0010
0000
0000
0100
0000
1000
,  // measure 103
0000
0100
0000
0010
0000
0001
0000
0010
0000
0200
0000
0000
,  // measure 104
1000
1300
0010
0100
,  // measure 105
0001
0010
1000
0010
,  // measure 106
0100
0010
0001
0100
,  // measure 107
0010
0000
1000
0001
1000
0000
0001
0000
,  // measure 108
0010
0001
0100
0010
,  // measure 109
1000
0000
0001
1000
0001
0000
0220
0000
,  // measure 110
0330
0000
2002
0000
3003
0000
0001
1000
,  // measure 111
0001
0100
0010
0100
,  // measure 112
0000
0100
0000
0000
0100
0000
0010
1000
,  // measure 113
0010
0100
0001
0010
,  // measure 114
0000
0010
0000
0000
0010
0000
0100
1000
,  // measure 115
0100
1000
0001
0100
,  // measure 116
0000
0100
0000
0000
0001
0000
0010
0001
,  // measure 117
0010
0000
1100
0000
0000
0000
1000
0010
,  // measure 118
1000
0000
0101
0000
0000
0000
0001
1000
,  // measure 119
0001
0100
0010
1000
,  // measure 120
0000
1000
0000
0000
1000
0000
0100
0010
,  // measure 121
0100
0010
0001
0100
,  // measure 122
0000
0100
0000
0000
0100
0000
0010
1000
,  // measure 123
0010
0100
0001
1000
,  // measure 124
0000
1000
0000
0000
1000
0000
0001
0010
,  // measure 125
0100
1000
0100
0010
0001
0100
0010
0000
,  // measure 126
0000
0000
0000
2002
,  // measure 127
0000
0000
0000
0000
,  // measure 128
0000
0000
0000
0000
,  // measure 129
0000
0000
0000
0000
,  // measure 130
0000
3003
0000
0000
;

//---------------dance-single - ----------------
#NOTES:
     dance-single:
     :
     Easy:
     9:
     0.373682,0.503364,0.395808,0.051627,0.000000,304.000000,258.000000,46.000000,6.000000,0.000000,0.000000,0.373682,0.503364,0.395808,0.051627,0.000000,304.000000,258.000000,46.000000,6.000000,0.000000,0.000000:
// measure 0
0000
0000
0000
0000
,  // measure 1
0000
0000
0000
0000
,  // measure 2
0000
0000
0000
0000
,  // measure 3
0000
0000
0000
0000
,  // measure 4
0000
0000
0000
0000
,  // measure 5
0000
0000
0000
0000
,  // measure 6
0000
0000
0000
0000
,  // measure 7
0000
0000
0000
0000
,  // measure 8
1000
0000
0001
0000
,  // measure 9
0010
0000
0100
1000
,  // measure 10
0100
0000
1000
0000
,  // measure 11
0010
0000
0110
0000
,  // measure 12
0100
0000
0001
0000
,  // measure 13
0010
0000
0100
0010
,  // measure 14
0100
0000
0010
0000
,  // measure 15
0001
0000
1000
0100
,  // measure 16
0010
0000
0100
0000
,  // measure 17
1000
0000
0001
0100
,  // measure 18
0001
0000
0010
0000
,  // measure 19
0100
0000
0010
0001
,  // measure 20
0100
0000
0010
0000
,  // measure 21
1000
0000
0001
1000
,  // measure 22
0001
0000
0100
0000
,  // measure 23
0010
1000
0001
0100
,  // measure 24
0010
0000
1000
0000
,  // measure 25
0001
0000
1001
0000
,  // measure 26
1000
0001
0100
0000
,  // measure 27
0001
0000
0011
0000
,  // measure 28
0010
0100
1000
0000
,  // measure 29
0100
0000
1100
0000
,  // measure 30
1000
0010
0100
0000
,  // measure 31
0020
0000
0230
0000
,  // measure 32
0310
0000
1010
0000
,  // measure 33
1000
0000
1010
0000
,  // measure 34
0010
0000
1010
0000
,  // measure 35
1000
0000
1001
0000
,  // measure 36
0001
0000
0011
0000
,  // measure 37
0010
0000
0011
0000
,  // measure 38
0001
0000
0011
0000
,  // measure 39
0001
0000
1001
0000
,  // measure 40
0001
0000
0101
0000
,  // measure 41
0100
0000
0101
0000
,  // measure 42
0001
0000
0101
0000
,  // measure 43
0001
0000
1001
0000
,  // measure 44
1000
0000
1100
0000
,  // measure 45
1000
0000
1100
0000
,  // measure 46
1000
0000
1100
0000
,  // measure 47
1001
0000
0000
0000
,  // measure 48
0110
0000
0000
0000
,  // measure 49
1000
0000
0100
0000
,  // measure 50
0000
0000
0000
0010
,  // measure 51
0001
0000
0100
0000
,  // measure 52
0000
0000
0000
0000
,  // measure 53
0010
0000
0100
0000
,  // measure 54
0000
0000
0000
0010
,  // measure 55
1000
0000
0001
0000
,  // measure 56
0110
0000
0000
0000
,  // measure 57
0010
0000
1000
0000
,  // measure 58
1001
0000
0110
0000
,  // measure 59
0001
0000
1000
0000
,  // measure 60
0110
0000
0000
0000
,  // measure 61
1000
0000
0001
0000
,  // measure 62
0110
0000
1001
0000
,  // measure 63
0001
0000
1000
0000
,  // measure 64
0101
0000
0000
0000
,  // measure 65
0001
0010
0100
1000
,  // measure 66
0000
0000
0000
1000
,  // measure 67
0100
0010
0001
1000
,  // measure 68
0000
0000
0000
0000
,  // measure 69
0001
0010
0001
0100
,  // measure 70
0000
0000
0000
0010
,  // measure 71
1000
0000
1000
0000
,  // measure 72
1001
0000
0000
0000
,  // measure 73
1000
0001
0100
0010
,  // measure 74
0000
0000
0000
0100
,  // measure 75
0010
1000
0001
0010
,  // measure 76
0000
0000
0000
0000
,  // measure 77
0100
0010
0001
1000
,  // measure 78
0000
0000
0000
0100
,  // measure 79
1000
0000
0010
0000
,  // measure 80
2002
0000
0000
3003
,  // measure 81
0001
0000
1000
0000
,  // measure 82
0010
0000
0100
0010
,  // measure 83
0000
0100
0001
0000
,  // measure 84
1000
0000
0001
0010
,  // measure 85
0001
0000
0010
0000
,  // measure 86
0100
0000
1000
0100
,  // measure 87
0000
1000
0010
0000
,  // measure 88
0100
0000
0001
1001
,  // measure 89
0000
0001
0000
1000
,  // measure 90
0000
0010
1000
0000
,  // measure 91
0100
1000
0000
0010
,  // measure 92
0000
0100
0001
0100
,  // measure 93
0000
0001
0000
0010
,  // measure 94
0000
0100
0010
0011
,  // measure 95
0000
1010
0000
1001
,  // measure 96
0000
0001
0000
0100
,  // measure 97
0000
0010
1000
0000
,  // measure 98
0100
0010
0000
0100
,  // measure 99
0000
0010
0001
0100
,  // measure 100
0000
0010
0000
1000
,  // measure 101
0000
0001
0010
0000
,  // measure 102
0001
0100
0000
0110
,  // measure 103
0000
1001
0000
0110
,  // measure 104
0000
0100
0000
1000
,  // measure 105
0000
0001
0010
0000
,  // measure 106
0001
0100
0000
0010
,  // measure 107
0000
0100
0001
1000
,  // measure 108
0000
0001
0000
1000
,  // measure 109
0000
0001
1000
1001
,  // measure 110
0000
0110
0000
1000
,  // measure 111
0001
0100
0000
0110
,  // measure 112
0000
0000
0000
0100
,  // measure 113
0001
1000
0000
1001
,  // measure 114
0000
0000
0000
1000
,  // measure 115
0100
0010
0000
0011
,  // measure 116
0000
0000
0000
0001
,  // measure 117
0100
0010
0000
0010
,  // measure 118
0100
0001
0000
1000
,  // measure 119
0001
0100
0000
0110
,  // measure 120
0000
0000
0000
0010
,  // measure 121
1000
0100
0000
0011
,  // measure 122
0000
0000
0000
0010
,  // measure 123
0100
1000
0000
1001
,  // measure 124
0000
0000
0000
0001
,  // measure 125
0100
0010
1000
0001
,  // measure 126
0000
0000
0000
0220
,  // measure 127
0000
0000
0000
0000
,  // measure 128
0000
0000
0000
0000
,  // measure 129
0000
0000
0000
0000
,  // measure 130
0330
0000
0000
0000
;

//---------------dance-single - ----------------
#NOTES:
     dance-single:
     :
     Beginner:
     6:
     0.186841,0.436249,0.163486,0.000000,0.000000,152.000000,133.000000,19.000000,0.000000,0.000000,0.000000,0.186841,0.436249,0.163486,0.000000,0.000000,152.000000,133.000000,19.000000,0.000000,0.000000,0.000000:
// measure 0
0000
0000
0000
0000
,  // measure 1
0000
0000
0000
0000
,  // measure 2
0000
0000
0000
0000
,  // measure 3
0000
0000
0000
0000
,  // measure 4
0000
0000
0000
0000
,  // measure 5
0000
0000
0000
0000
,  // measure 6
0000
0000
0000
0000
,  // measure 7
0000
0000
0000
0000
,  // measure 8
1001
0000
0000
0000
,  // measure 9
0000
0000
0000
0000
,  // measure 10
1000
0000
0000
0000
,  // measure 11
0001
0000
0000
0000
,  // measure 12
0100
0000
0000
0000
,  // measure 13
0000
0000
0000
0000
,  // measure 14
0010
0000
0000
0000
,  // measure 15
1000
0000
0000
0000
,  // measure 16
0100
0000
0000
0000
,  // measure 17
0000
0000
0000
0000
,  // measure 18
0010
0000
0000
0000
,  // measure 19
0100
0000
0000
0000
,  // measure 20
1000
0000
0000
0000
,  // measure 21
0000
0000
0000
0000
,  // measure 22
0001
0000
0000
0000
,  // measure 23
1000
0000
0000
0000
,  // measure 24
0110
0000
0000
0000
,  // measure 25
0010
0000
0010
0000
,  // measure 26
0100
0000
0000
0000
,  // measure 27
0010
0000
0010
0000
,  // measure 28
0000
0000
0100
0000
,  // measure 29
0010
0000
0010
0000
,  // measure 30
0000
0000
0100
0000
,  // measure 31
1001
0000
0000
0000
,  // measure 32
1000
0000
0000
0000
,  // measure 33
0001
0000
0000
0000
,  // measure 34
0100
0000
0000
0000
,  // measure 35
0010
0000
0000
0000
,  // measure 36
0100
0000
0000
0000
,  // measure 37
0001
0000
0000
0000
,  // measure 38
1000
0000
0000
0000
,  // measure 39
0100
0000
0000
0000
,  // measure 40
1000
0000
0000
0000
,  // measure 41
0010
0000
0000
0000
,  // measure 42
0100
0000
0000
0000
,  // measure 43
0001
0000
0000
0000
,  // measure 44
1000
0000
0000
0000
,  // measure 45
0100
0000
0000
0000
,  // measure 46
1000
0000
0000
0000
,  // measure 47
0001
0000
0000
0000
,  // measure 48
0110
0000
0000
0000
,  // measure 49
0001
0000
0000
0000
,  // measure 50
0000
0000
0000
0000
,  // measure 51
1000
0000
0000
0000
,  // measure 52
0000
0000
0000
0000
,  // measure 53
0001
0000
0000
0000
,  // measure 54
0000
0000
0000
0000
,  // measure 55
1000
0000
0000
0000
,  // measure 56
0110
0000
0000
0000
,  // measure 57
0000
0000
0000
0000
,  // measure 58
0010
0000
0010
0000
,  // measure 59
0000
0000
0000
0000
,  // measure 60
1001
0000
0000
0000
,  // measure 61
0000
0000
0000
0000
,  // measure 62
0100
0000
0100
0000
,  // measure 63
0000
0000
0000
0000
,  // measure 64
1001
0000
0000
0000
,  // measure 65
1000
0000
0001
0000
,  // measure 66
0000
0000
0000
0000
,  // measure 67
0100
0000
0010
1000
,  // measure 68
0000
0000
0000
0000
,  // measure 69
0010
0000
1000
0000
,  // measure 70
0000
0000
0000
0001
,  // measure 71
1000
0000
1000
0000
,  // measure 72
0001
0000
0000
0000
,  // measure 73
0010
0000
0001
0000
,  // measure 74
0000
0000
0000
1000
,  // measure 75
0100
0000
1000
0000
,  // measure 76
0000
0000
0000
0000
,  // measure 77
0010
0000
1000
0000
,  // measure 78
0000
0000
0000
0001
,  // measure 79
0100
0000
0100
0000
,  // measure 80
1001
0000
0000
0000
,  // measure 81
0010
0000
1000
0000
,  // measure 82
0000
0000
0000
0001
,  // measure 83
0000
0000
1000
0000
,  // measure 84
0000
0000
0010
0000
,  // measure 85
0100
0000
0010
0000
,  // measure 86
0000
0000
0000
1000
,  // measure 87
0000
0000
0001
0000
,  // measure 88
1000
0000
0000
0110
,  // measure 89
0000
0010
0000
0000
,  // measure 90
0000
0000
1000
0000
,  // measure 91
0000
0001
0000
0010
,  // measure 92
0000
0000
0000
0001
,  // measure 93
0000
1000
0000
0000
,  // measure 94
0000
0100
0000
1001
,  // measure 95
0000
0110
0000
1001
,  // measure 96
0000
1000
0000
0000
,  // measure 97
0000
0000
0010
0000
,  // measure 98
0000
0100
0000
0000
,  // measure 99
0000
0010
0000
1000
,  // measure 100
0000
0001
0000
0000
,  // measure 101
0000
1000
0000
0000
,  // measure 102
0000
0001
0000
1001
,  // measure 103
0000
0110
0000
1001
,  // measure 104
0000
0001
0000
0000
,  // measure 105
0000
0000
0010
0000
,  // measure 106
0000
0001
0000
1000
,  // measure 107
0000
0000
0000
0100
,  // measure 108
0000
1000
0000
0000
,  // measure 109
0000
0010
0000
1001
,  // measure 110
0000
0110
0000
0000
,  // measure 111
0001
1000
0000
0000
,  // measure 112
0000
0000
0000
0000
,  // measure 113
0001
1000
0000
0000
,  // measure 114
0000
0000
0000
0000
,  // measure 115
0001
1000
0000
0000
,  // measure 116
0000
0000
0000
0000
,  // measure 117
0001
1000
0000
0000
,  // measure 118
0001
1000
0000
0110
,  // measure 119
0100
0010
0000
0000
,  // measure 120
0000
0000
0000
0000
,  // measure 121
0100
0010
0000
0000
,  // measure 122
0000
0000
0000
0000
,  // measure 123
0100
0010
0000
0000
,  // measure 124
0000
0000
0000
0100
,  // measure 125
0000
0000
0000
0000
,  // measure 126
0000
0000
0000
1001
;
