#TITLE:HAERETICUS;
#SUBTITLE:;
#ARTIST:D.J.Amuro Vs MAX MAXIMIZER;
#TITLETRANSLIT:;
#SUBTITLETRANSLIT:;
#ARTISTTRANSLIT:;
#GENRE:ECCENTRIC;
#CREDIT:;
#BANNER:banner.png;
#BACKGROUND:background.png;
#LYRICSPATH:;
#CDTITLE:CDTITLE.png;
#MUSIC:HAERETICUS.ogg;
#OFFSET:0.000000;
#SAMPLESTART:0.000000;
#SAMPLELENGTH:11.538462;
#SELECTABLE:YES;
#BPMS:0.000000=208.000000
,32.000000=52.000000
,34.000000=208.000000
,66.000000=104.000000
,68.000000=208.000000
,136.000000=104.000000
,152.000000=208.000000
,184.000000=52.000000
,186.000000=208.000000
,250.000000=104.000000
,252.000000=52.000000
,253.000000=208.000000
;
#STOPS:
;
#BGCHANGES:;
#KEYSOUNDS:;
#ATTACKS:;

//---------------dance-single - ----------------
#NOTES:
     dance-single:
     :
     Hard:
     17:
     0.898727,1.497204,0.349505,0.122799,1.053238,666.000000,629.000000,37.000000,13.000000,0.000000,0.000000,0.898727,1.497204,0.349505,0.122799,1.053238,666.000000,629.000000,37.000000,13.000000,0.000000,0.000000:
// measure 0
0000
0000
0000
0000
,  // measure 1
0000
0000
0000
0000
,  // measure 2
0000
0000
0000
0000
,  // measure 3
0000
0000
0000
0000
,  // measure 4
0001
0010
0001
0010
0001
0010
0100
1000
,  // measure 5
0010
1000
0010
1000
0010
1000
0100
0010
,  // measure 6
0100
1000
0001
1000
0010
0100
0001
1000
,  // measure 7
0100
0000
1000
0000
0001
0000
1000
0000
0001
0000
1000
0001
1000
0000
0001
0000
,  // measure 8
0220
0000
0000
0000
0000
0000
0000
0330
1001
0000
0000
0000
1000
0000
0010
0000
,  // measure 9
0000
0010
0001
0000
0001
0010
0000
0010
,  // measure 10
1000
0000
1001
0000
0101
0000
0001
0100
,  // measure 11
0000
0100
1000
0000
1000
0100
0000
0100
,  // measure 12
0001
0000
1001
0000
1100
0000
0100
0010
,  // measure 13
0000
0010
0001
0000
0001
0010
0000
0010
,  // measure 14
0100
0000
1000
0000
1100
0000
1000
0010
,  // measure 15
1010
0000
0001
0100
0101
0000
0011
0000
,  // measure 16
0010
0100
1000
0001
1001
0000
0000
0000
,  // measure 17
0001
0100
1000
0100
0020
0000
1030
0100
,  // measure 18
1000
0001
0100
0001
1000
0100
1000
0001
0100
0001
1000
0100
,  // measure 19
1000
0000
0001
0000
0100
0000
0001
0000
1000
0000
0100
0000
1000
0000
0000
1000
0000
0000
0001
0000
0000
1000
0000
0000
,  // measure 20
0001
1000
0010
1000
0001
0010
0001
1000
0010
1000
0001
0010
,  // measure 21
0001
0000
1000
0000
0010
0000
1000
0000
0001
0000
0010
0000
0001
0000
0000
0001
0000
0000
1000
0000
0000
0001
0000
0000
,  // measure 22
0100
0010
1000
0010
0100
0010
1000
0010
0100
0010
1000
0010
,  // measure 23
0100
0000
0010
0000
1000
0000
0010
0000
0100
0000
0010
0000
1000
0000
0000
1000
0000
0000
0100
0000
0000
0010
0000
0000
,  // measure 24
0001
0000
0010
0001
0100
0000
0010
0000
0100
0010
1000
0000
0001
0000
1000
0001
,  // measure 25
0010
0000
0100
0010
0001
0010
0001
0010
0001
0000
0000
0000
1100
0000
0000
0000
,  // measure 26
1000
0001
0100
0001
0010
0100
1000
0100
1000
0001
0010
0100
,  // measure 27
1000
0000
0100
0000
1000
0000
0001
0000
0010
0000
0100
0000
1000
0000
0000
1000
0000
0000
0001
0000
0000
1000
0000
0000
,  // measure 28
0100
1000
0001
1000
0100
0010
0001
1000
0001
1000
0100
0010
,  // measure 29
0001
0000
1000
0000
0010
0000
1000
0000
0100
0000
0010
0000
0001
0000
0000
0001
0000
0000
1000
0000
0000
0001
0000
0000
,  // measure 30
0010
0001
1000
0100
0010
0001
1000
0010
0100
0001
0010
0100
,  // measure 31
1000
0000
0001
0000
0010
0000
0100
0000
1000
0000
0001
0000
0100
0000
0000
0100
0000
0000
0010
0000
0000
1000
0000
0000
,  // measure 32
0001
1000
0001
1000
0001
0000
1000
0010
0100
0000
0010
0000
1000
0100
0010
0000
,  // measure 33
0100
0000
0010
0001
0100
0000
0010
0000
1000
0000
0100
0000
0010
0000
0001
0000
,  // measure 34
2100
0000
0100
0000
0000
0000
0000
0000
3010
0000
0000
0000
0000
0000
0000
0000
0100
0010
1000
0001
0010
0100
0010
0001
1000
0100
0010
0001
1000
0001
0100
0001
,  // measure 35
0010
0000
0200
0000
0000
0000
0000
0000
1300
0000
0000
0000
0000
0000
0000
0000
0100
0000
0000
0000
1000
0000
0000
0000
0001
0100
1000
0000
1000
0100
0001
0000
,  // measure 36
0010
0100
1000
0100
0010
0100
1000
0010
0100
0000
0010
0000
1000
0000
0001
0000
0010
0100
0010
0001
1000
0010
0100
0001
0010
0000
0100
0000
0010
0000
0001
0000
,  // measure 37
1000
0001
0100
1000
0100
0020
0000
0000
0030
0100
0002
2000
0000
0000
3003
0000
,  // measure 38
1001
1002
0000
0000
0013
0000
0000
0000
,  // measure 39
0100
0100
1000
0100
0100
0010
0001
0001
,  // measure 40
1001
2001
0000
0000
3010
0000
0000
0000
,  // measure 41
0100
0100
0001
0010
0010
0001
1000
1000
,  // measure 42
1001
2001
0000
0000
3010
0000
0000
0000
,  // measure 43
0100
0100
0010
1000
1000
0001
0010
0100
,  // measure 44
0010
1000
0010
0001
0100
1000
0100
0010
,  // measure 45
1000
1100
0001
0101
1000
1010
0001
0011
,  // measure 46
1001
0000
1000
0100
,  // measure 47
0001
0100
1000
0010
,  // measure 48
1001
0000
0001
0010
,  // measure 49
1000
0010
0100
0010
,  // measure 50
0011
0000
1100
0000
1001
0000
0000
0001
,  // measure 51
0010
0010
0001
0001
1000
0010
1000
0100
,  // measure 52
0010
0000
0000
0001
0000
0000
1000
0000
0000
0100
0000
0000
0010
0000
0100
0000
1000
0000
0010
0000
0100
0000
0001
0000
,  // measure 53
0010
0100
0010
0001
1000
0100
0010
0001
0010
0100
0010
0001
,  // measure 54
0100
0010
1000
0001
0010
0100
1000
0000
0000
0010
0000
0000
,  // measure 55
0100
0000
0000
0000
0000
0000
0010
1000
0010
0100
0010
1000
,  // measure 56
0010
0100
0001
0010
0100
1000
0001
0010
0100
0010
0001
0010
,  // measure 57
0100
1000
0100
1000
0010
0100
0001
0010
0100
1000
0001
0100
,  // measure 58
0010
1000
0100
0010
0001
1000
0100
1000
0010
0100
0010
0100
,  // measure 59
0001
0000
1001
0000
,  // measure 60
1010
0000
0000
0000
0000
0000
0001
0100
0001
0010
0100
0010
,  // measure 61
0001
0000
1100
0000
,  // measure 62
0011
0000
1001
0000
,  // measure 63
0020
0000
0000
0130
0001
0010
0100
0010
0001
1000
0010
0100
,  // measure 64
0010
0000
1000
0000
0100
0000
0010
0000
0001
0000
0010
0000
0100
0000
0010
0000
0001
0000
1000
0000
0000
1000
0000
0000
,  // measure 65
0001
0000
0000
0010
0000
0000
0100
0000
0010
0000
0001
0000
0100
0000
0010
0000
1000
0000
0001
0000
0010
0000
0100
0000
,  // measure 66
0010
0000
0001
0000
1000
0000
0100
0000
0010
0000
0100
0000
1000
0000
0010
0000
0100
0000
0001
0000
0000
0001
0000
0000
,  // measure 67
0010
0000
0000
0001
0000
0000
0010
0000
0100
0000
0010
0000
0001
0000
0100
0000
0010
0000
1000
0000
0100
0000
0010
0000
,  // measure 68
0100
0000
1000
0000
0010
0000
0100
0000
0001
0000
0010
0000
0100
0000
0010
0000
0001
0000
0100
0000
0000
0100
0000
0000
,  // measure 69
0001
0000
0100
0000
0010
0000
1000
0010
0100
0000
0001
0000
0010
0100
1000
0000
,  // measure 70
0100
0000
1000
0010
0100
0000
0010
0000
0100
0001
1000
0000
1001
0000
0000
0000
,  // measure 71
0000
0000
0001
0100
1000
0100
0010
1000
,  // measure 72
0001
0010
1000
0010
0001
0010
0110
0000
,  // measure 73
1100
0000
0100
0001
0100
1000
0010
0100
,  // measure 74
0001
0000
0000
1000
0000
0000
0001
0000
0010
0000
0100
0000
1000
0000
0000
0001
0000
0000
1000
0000
0100
0000
0010
0000
,  // measure 75
0001
1000
0000
0001
0100
1000
0100
0010
,  // measure 76
1000
0001
0010
0100
0010
0001
0100
0000
,  // measure 77
1001
0000
0000
0000
0000
0000
0001
0000
0010
0000
0100
0000
1000
0000
0000
0100
0000
0000
0010
0000
0001
0000
0010
0000
,  // measure 78
0100
0000
0000
1000
0000
0000
0100
0000
0010
0000
0001
0000
1000
0000
0000
0001
0000
0000
0100
0000
0010
0000
1000
0000
,  // measure 79
0002
0003
0000
0000
;

//---------------dance-single - ----------------
#NOTES:
     dance-single:
     :
     Easy:
     9:
     0.365698,0.522368,0.207814,0.103907,0.000000,271.000000,249.000000,22.000000,11.000000,0.000000,0.000000,0.365698,0.522368,0.207814,0.103907,0.000000,271.000000,249.000000,22.000000,11.000000,0.000000,0.000000:
// measure 0
0000
0000
0000
0000
,  // measure 1
0000
0000
0000
0000
,  // measure 2
0000
0000
0000
0000
,  // measure 3
0000
0000
0000
0000
,  // measure 4
0110
0000
0010
0000
,  // measure 5
0110
0000
0100
0000
,  // measure 6
0110
0000
0110
0000
,  // measure 7
0110
0110
0110
1001
,  // measure 8
0110
0000
0000
0000
1000
0000
0000
0100
,  // measure 9
0000
0000
1000
0000
0000
0100
0000
0000
,  // measure 10
1000
0000
0100
0000
0010
0000
0000
0001
,  // measure 11
0000
0000
0010
0000
0000
0001
0000
0000
,  // measure 12
0010
0000
0001
0000
1000
0000
0000
0001
,  // measure 13
0000
0000
1000
0000
0000
0001
0000
0000
,  // measure 14
0100
0000
0010
0000
0100
0000
0000
0010
,  // measure 15
0000
0000
0100
0000
0000
0010
0000
0000
,  // measure 16
0100
0010
1001
0000
,  // measure 17
0020
0000
0000
0030
,  // measure 18
1000
0001
1000
0010
,  // measure 19
1000
0001
1000
1000
,  // measure 20
0001
0100
0001
1000
,  // measure 21
0001
0010
0001
0001
,  // measure 22
0100
0001
0100
0010
,  // measure 23
0100
0001
0100
0100
,  // measure 24
0001
0000
1000
0000
0000
0100
0000
0000
,  // measure 25
0010
0000
0000
0001
0000
0000
0000
0000
,  // measure 26
0010
0100
1000
0100
,  // measure 27
0010
0001
1000
1000
,  // measure 28
0001
0100
0010
1000
,  // measure 29
0100
0010
0100
0100
,  // measure 30
0010
0001
1000
0100
,  // measure 31
0010
0100
1000
1000
,  // measure 32
0100
0000
1000
0000
0000
0010
0000
0000
,  // measure 33
0100
0000
0000
0001
0000
0000
1000
0000
,  // measure 34
0002
0000
0103
0000
0010
1000
0100
0010
,  // measure 35
0002
0000
0013
0000
0100
1000
0010
0100
,  // measure 36
0002
0000
1003
0000
0100
0010
0100
1000
,  // measure 37
0020
0000
0130
0000
0010
1000
0001
0000
,  // measure 38
1000
0001
0000
0000
0110
0000
0000
0000
,  // measure 39
0001
0100
0010
1000
,  // measure 40
0001
1000
0000
0000
0110
0000
0000
0000
,  // measure 41
1000
0100
0010
0001
,  // measure 42
0010
0100
0000
0000
1100
0000
0000
0000
,  // measure 43
0100
1000
0010
0100
,  // measure 44
0010
0100
0000
0010
0000
1000
0000
0001
,  // measure 45
0000
0010
0000
0100
0000
1000
0000
0100
,  // measure 46
0000
0000
0010
0000
,  // measure 47
0001
0000
0100
0001
,  // measure 48
1000
0000
0100
0000
,  // measure 49
1000
0000
0010
0100
,  // measure 50
0001
0010
0100
0000
,  // measure 51
0010
0000
0001
0010
,  // measure 52
0100
0000
0010
0000
,  // measure 53
0001
0000
1000
0100
,  // measure 54
0010
0000
0100
0000
,  // measure 55
1000
0000
0010
0100
,  // measure 56
0001
0000
1000
0100
,  // measure 57
0010
0000
0100
1000
,  // measure 58
0010
0000
0100
0000
,  // measure 59
1001
0000
0110
0000
,  // measure 60
1001
0000
0001
0000
,  // measure 61
0101
0000
1000
0000
,  // measure 62
1100
0000
1001
0000
,  // measure 63
0110
0100
0001
0100
,  // measure 64
0010
0100
0001
1000
,  // measure 65
1000
0100
0010
0100
,  // measure 66
1000
0100
0010
0100
,  // measure 67
0100
0010
0001
0100
,  // measure 68
0001
0010
0100
0010
,  // measure 69
0010
0000
0100
0000
0010
0000
0000
0001
,  // measure 70
0000
0000
1000
0000
0000
0010
0000
0000
,  // measure 71
0000
0000
0100
0010
,  // measure 72
1000
0001
0010
0110
,  // measure 73
1100
0000
0100
1000
,  // measure 74
0010
0200
0301
0200
,  // measure 75
0301
0000
0100
0001
,  // measure 76
1000
0100
0010
0001
,  // measure 77
1000
0020
0130
0020
,  // measure 78
1030
0020
0130
0020
,  // measure 79
1030
0000
0000
0000
;

//---------------dance-single - ----------------
#NOTES:
     dance-single:
     :
     Medium:
     12:
     0.573512,0.858177,0.368397,0.103907,0.056676,425.000000,386.000000,39.000000,11.000000,0.000000,0.000000,0.573512,0.858177,0.368397,0.103907,0.056676,425.000000,386.000000,39.000000,11.000000,0.000000,0.000000:
// measure 0
0000
0000
0000
0000
,  // measure 1
0000
0000
0000
0000
,  // measure 2
0000
0000
0000
0000
,  // measure 3
0000
0000
0000
0000
,  // measure 4
1000
1000
1000
1000
,  // measure 5
0001
0001
0001
0001
,  // measure 6
1000
1000
0001
0001
,  // measure 7
1000
0001
1001
0110
,  // measure 8
1002
0000
0000
0000
0103
0000
0001
0010
,  // measure 9
0000
0001
1000
0000
0001
0100
0000
0001
,  // measure 10
1000
0000
0001
0000
1000
0000
1000
0010
,  // measure 11
0000
1000
0001
0000
1000
0100
0000
1000
,  // measure 12
0001
0000
1000
0000
0110
0000
1000
0010
,  // measure 13
0000
0100
0001
0000
0001
0010
0000
0100
,  // measure 14
1000
0001
0110
1000
,  // measure 15
0110
0001
1010
1010
,  // measure 16
0101
0101
1001
0000
,  // measure 17
1000
0100
0010
0001
1000
0000
0110
0000
,  // measure 18
0001
1000
0100
0000
1000
0001
0100
0000
,  // measure 19
0001
1000
0100
0000
0010
0000
0110
0000
,  // measure 20
0010
0001
0100
0000
0010
1000
0100
0000
,  // measure 21
0010
0001
0100
0000
0010
0000
1001
0000
,  // measure 22
1000
0001
0010
0000
0001
1000
0010
0000
,  // measure 23
1000
0001
0010
0000
0100
0000
1001
0000
,  // measure 24
0001
0100
0010
0000
1000
0100
0000
0100
,  // measure 25
1000
0000
1000
0001
0000
0001
0100
0000
,  // measure 26
0010
1000
0100
0000
0010
0100
1000
0000
,  // measure 27
0010
0001
0100
0000
0010
0000
1001
0000
,  // measure 28
0001
0010
0100
0000
0010
0001
0100
0000
,  // measure 29
0010
1000
0100
0000
0010
0000
1100
0000
,  // measure 30
0010
0001
1000
0000
0010
1000
0100
0000
,  // measure 31
1000
0001
0010
0000
0100
0000
0011
0000
,  // measure 32
0001
0100
0010
0000
1000
0001
0000
0010
,  // measure 33
0100
0000
0010
0001
0000
0010
0100
1000
,  // measure 34
0020
0000
0000
0000
1000
0000
0000
0000
0130
0001
0100
0001
0010
0001
0010
0001
,  // measure 35
1000
0000
0000
0000
2001
0000
0000
0000
0010
0000
0000
0000
3001
1000
0100
0010
,  // measure 36
0001
0010
0100
1000
1001
0000
0000
0000
0010
0000
1000
0000
0001
0000
1000
0000
,  // measure 37
0001
0100
0010
1000
0100
0000
0000
0000
0000
0010
0100
2000
0000
0000
0000
0000
,  // measure 38
3100
0100
0000
0000
0011
0000
0000
0000
,  // measure 39
0001
0100
0001
1000
0001
0010
0100
1000
,  // measure 40
0100
0100
0000
0000
1100
0000
0000
0000
,  // measure 41
1000
0001
0100
0001
0010
0100
0010
0001
,  // measure 42
0100
0100
0000
0000
0101
0000
0000
0000
,  // measure 43
0001
1000
0010
1000
0001
0010
0100
1000
,  // measure 44
0001
1001
0000
0110
0000
1001
0000
0110
,  // measure 45
1000
0001
0010
1000
0010
0001
0100
0010
,  // measure 46
1000
0000
1000
0100
,  // measure 47
0001
0100
1000
0010
,  // measure 48
0100
0000
1000
0100
,  // measure 49
0001
0100
1000
0100
,  // measure 50
0010
0000
1000
0000
0010
0000
0000
1000
,  // measure 51
0010
0100
0010
1000
,  // measure 52
0001
0010
0100
0010
,  // measure 53
0001
1000
0100
0010
,  // measure 54
0001
1000
1001
0001
,  // measure 55
0100
0000
0001
0100
,  // measure 56
1000
0100
0001
0010
,  // measure 57
1000
0010
0001
0010
,  // measure 58
0100
1000
0100
0010
,  // measure 59
0011
0000
0101
0000
,  // measure 60
0110
0000
0100
0010
,  // measure 61
1001
0000
1010
0000
,  // measure 62
0101
0000
1001
0000
,  // measure 63
0020
0000
0130
0001
0100
0001
0100
0001
,  // measure 64
0100
0001
0100
0001
0100
0001
0100
0000
,  // measure 65
1010
0000
1000
0100
1000
0100
1000
0100
,  // measure 66
1000
0100
1000
0100
1000
0100
1000
0000
,  // measure 67
0011
0000
1000
0001
1000
0001
1000
0001
,  // measure 68
1000
0001
1000
0001
1000
0001
1000
0000
,  // measure 69
0110
0000
0100
0001
0010
0000
0100
0010
,  // measure 70
0000
0001
0100
0000
0010
1000
0000
0000
,  // measure 71
0000
0000
0000
0100
0010
0100
1000
0010
,  // measure 72
0100
0001
1000
0100
0010
0100
1000
0000
,  // measure 73
1001
0000
0000
0001
0010
0100
0010
0001
,  // measure 74
0100
0010
2000
0000
3001
0000
0020
0000
,  // measure 75
0130
0000
0000
0010
0001
1000
0100
1000
,  // measure 76
0010
0100
0001
0010
0100
1000
0000
0001
,  // measure 77
0000
0100
0020
0000
1030
0000
0002
0000
,  // measure 78
0103
0002
0013
0200
,  // measure 79
1300
0000
0000
0000
;

//---------------dance-single - ----------------
#NOTES:
     dance-single:
     :
     Beginner:
     7:
     0.206464,0.373120,0.122799,0.000000,0.000000,153.000000,140.000000,13.000000,0.000000,0.000000,0.000000,0.206464,0.373120,0.122799,0.000000,0.000000,153.000000,140.000000,13.000000,0.000000,0.000000,0.000000:
// measure 0
0000
0000
0000
0000
,  // measure 1
0000
0000
0000
0000
,  // measure 2
0000
0000
0000
0000
,  // measure 3
0000
0000
0000
0000
,  // measure 4
1000
0000
0000
0000
,  // measure 5
1000
0000
0000
0000
,  // measure 6
0001
0000
0001
0000
,  // measure 7
1000
0000
0001
0000
,  // measure 8
0110
0000
1000
0000
,  // measure 9
0000
0000
0000
0000
,  // measure 10
0000
0000
0001
0000
,  // measure 11
0000
0000
0000
0000
,  // measure 12
0000
0000
0110
0000
,  // measure 13
0000
0000
0000
0000
,  // measure 14
0000
0000
1001
0000
,  // measure 15
1000
0000
0001
0000
,  // measure 16
1000
0000
0010
0000
,  // measure 17
0100
0000
0000
0000
,  // measure 18
0010
0000
0010
0000
,  // measure 19
0010
0000
0010
0010
,  // measure 20
1000
0000
1000
0000
,  // measure 21
1000
0000
1000
1000
,  // measure 22
0001
0000
0001
0000
,  // measure 23
0001
0000
0001
0001
,  // measure 24
0100
0000
0000
0000
,  // measure 25
0010
0000
0000
0000
,  // measure 26
1000
0000
1000
0000
,  // measure 27
1000
0000
0001
0001
,  // measure 28
1000
0000
1000
0000
,  // measure 29
1000
0000
0001
0001
,  // measure 30
0100
0000
0100
0000
,  // measure 31
0100
0000
0100
0010
,  // measure 32
1000
0000
0001
0000
,  // measure 33
1000
0000
0000
0000
,  // measure 34
0010
1001
0100
0000
,  // measure 35
1000
0110
0001
0000
,  // measure 36
1000
1001
0001
0000
,  // measure 37
0001
0110
1000
0000
,  // measure 38
0100
0000
1001
0000
,  // measure 39
1000
0000
0000
0000
,  // measure 40
0110
0000
0001
0000
,  // measure 41
1000
0000
0000
0000
,  // measure 42
1001
0000
0010
0000
,  // measure 43
1000
0000
0000
0000
,  // measure 44
0100
0000
1000
0000
,  // measure 45
0010
0100
0001
1000
,  // measure 46
0000
0000
1000
0000
,  // measure 47
0000
0000
0100
0000
,  // measure 48
0000
0000
0001
0000
,  // measure 49
0000
0000
0100
0000
,  // measure 50
0000
0000
1000
0000
,  // measure 51
0000
0000
0010
0000
,  // measure 52
0000
0000
0001
0000
,  // measure 53
0000
0000
0010
0000
,  // measure 54
0000
0000
1000
0000
,  // measure 55
0000
0000
0001
0000
,  // measure 56
0000
0000
0100
0000
,  // measure 57
0000
0000
0010
0000
,  // measure 58
0000
0000
1000
0000
,  // measure 59
0001
0000
0010
0000
,  // measure 60
0100
0000
1000
0000
,  // measure 61
0010
0000
0100
0000
,  // measure 62
0001
0000
1000
0000
,  // measure 63
0110
1000
0000
1000
,  // measure 64
0000
1000
0000
1000
,  // measure 65
1000
0001
0000
0001
,  // measure 66
0000
0001
0000
0001
,  // measure 67
0001
0100
0000
0100
,  // measure 68
0000
0100
0000
0100
,  // measure 69
0100
0010
0100
0000
,  // measure 70
0000
0010
0000
0000
,  // measure 71
0000
1001
0000
1000
,  // measure 72
0000
0001
0000
0100
,  // measure 73
0000
1001
0000
0001
,  // measure 74
0000
1000
0001
1000
,  // measure 75
0001
1000
0000
0001
,  // measure 76
0000
0010
0000
0001
,  // measure 77
0000
1000
0100
0010
,  // measure 78
0001
1000
0100
0010
,  // measure 79
0001
0000
0000
0000
;
