#TITLE:Gray clouds;
#SUBTITLE:;
#ARTIST:Trick Trap;
#TITLETRANSLIT:;
#SUBTITLETRANSLIT:;
#ARTISTTRANSLIT:;
#GENRE:;
#CREDIT:;
#BANNER:banner.png;
#BACKGROUND:background.png;
#LYRICSPATH:;
#CDTITLE:;
#MUSIC:Gray clouds.ogg;
#OFFSET:0.000000;
#SAMPLESTART:0.000000;
#SAMPLELENGTH:12.000000;
#SELECTABLE:YES;
#BPMS:0.000000=150.000000
;
#STOPS:
;
#BGCHANGES:;
#KEYSOUNDS:;
#ATTACKS:;

//---------------dance-single - ----------------
#NOTES:
     dance-single:
     :
     Hard:
     15:
     0.755919,0.952234,0.636766,0.125559,0.735419,590.000000,519.000000,71.000000,14.000000,0.000000,0.000000,0.755919,0.952234,0.636766,0.125559,0.735419,590.000000,519.000000,71.000000,14.000000,0.000000,0.000000:
// measure 0
0000
0000
0000
0000
,  // measure 1
0000
0000
0000
0000
,  // measure 2
0000
0000
0000
0000
,  // measure 3
0000
0000
0000
0000
,  // measure 4
0000
0000
0000
0000
,  // measure 5
0000
0000
0000
0000
,  // measure 6
1000
0000
0000
0100
0000
0000
1000
0000
0000
0011
0000
0000
0010
0000
0000
0110
,  // measure 7
0000
0000
1100
0000
0000
1001
0000
0000
0001
0000
0000
0100
0000
0000
1010
0000
,  // measure 8
0000
1000
0000
0000
1100
0000
0000
0110
0000
0000
0011
0000
0000
1001
0000
0000
,  // measure 9
0001
0000
0000
0100
0000
0000
0011
0000
0000
0010
0000
0000
0100
0000
0000
1000
,  // measure 10
0000
0000
1001
0000
0000
0101
0000
0000
0001
0000
0000
1000
0000
0000
1100
0000
,  // measure 11
0000
1000
0000
0000
0011
0000
0000
0110
0000
0000
1100
0000
0000
1010
0000
0000
,  // measure 12
1001
0000
1000
0000
0100
0000
0010
0000
0100
0000
1000
0001
0000
0001
0100
0000
,  // measure 13
0010
0000
1000
0000
0001
0010
0001
1000
0100
0000
0010
0000
0100
0000
1000
0000
,  // measure 14
0001
0000
0010
0001
0000
0001
0100
0000
0010
0000
1000
0000
0001
0010
0001
1000
,  // measure 15
0100
0000
0010
0000
0100
0000
1000
0000
0010
0000
0100
0010
0000
0010
1000
0000
,  // measure 16
0001
0000
1000
0000
0010
1000
0100
0010
0100
0000
0100
0000
0010
0000
0001
0000
,  // measure 17
0100
0000
0010
0100
0000
0100
0001
0000
1000
0000
0001
0000
0100
0001
0010
0100
,  // measure 18
0010
0000
0000
0001
0000
0000
0011
0000
0000
0100
0000
0000
1000
0000
0000
0110
,  // measure 19
0000
0000
0101
0000
0000
1001
0000
0000
0001
0000
0000
0010
0000
0000
1100
0000
,  // measure 20
0000
0010
0000
0000
0011
0000
0000
0110
0000
0000
1010
0000
0000
0110
0000
0000
,  // measure 21
1001
0000
0000
1000
0000
0000
0110
0000
0000
0001
0000
0000
1001
0000
0000
0110
,  // measure 22
0000
0000
1100
0000
0000
1001
0000
0000
0001
0000
0000
0100
0000
0000
1001
0000
,  // measure 23
0000
1010
0000
0000
1100
0000
0000
0101
0000
0000
1010
0000
0000
1001
0000
0000
,  // measure 24
0001
1000
0100
0010
0010
0100
1000
0001
,  // measure 25
0100
0010
0010
0100
0001
1000
0001
0010
,  // measure 26
0010
0001
1000
0100
1000
0010
0010
0100
,  // measure 27
0002
0000
0000
0000
1003
0000
0100
1000
0010
0000
0000
0100
0010
1000
0001
0010
,  // measure 28
0100
1100
1100
1000
0002
0000
0003
0110
,  // measure 29
0110
0100
0001
0010
0100
1100
0110
0011
,  // measure 30
1000
0100
0001
0100
1000
0010
0200
0000
0000
0000
0300
0000
0010
0001
0010
1000
,  // measure 31
0100
0010
0002
0000
0000
0000
0003
0000
1000
0100
0010
0100
1000
0000
0001
0010
,  // measure 32
0100
0010
0001
0000
2000
0000
0000
0000
3000
0000
0000
0000
0001
0000
0000
0000
,  // measure 33
0110
0010
1000
1001
0001
0010
1100
1000
,  // measure 34
0010
0000
0101
0000
0001
0000
1000
0000
0001
0100
0010
1000
0001
1000
0100
0010
,  // measure 35
0001
1000
0100
0010
0100
1000
0010
0100
0001
0010
0100
0010
0001
1000
0010
0100
,  // measure 36
0001
0000
0010
0000
0100
0000
1000
0000
0100
0000
0010
0000
0100
0000
1000
0001
,  // measure 37
0100
0010
1000
0001
0010
0100
1000
0010
1000
0000
0001
0010
0001
0010
0100
1000
,  // measure 38
0100
0010
0002
0003
0200
0000
0320
0000
,  // measure 39
0130
0000
0100
0000
0010
0000
0100
0010
0000
0000
0000
0000
1100
0000
1000
0000
,  // measure 40
0001
0000
0100
0001
0010
0001
1000
0100
0010
0000
0100
0000
1000
0000
0001
0000
,  // measure 41
0001
0000
1000
0000
0002
0000
0000
0000
0103
0010
0100
0000
0010
0000
1000
0000
,  // measure 42
0001
0000
0010
0000
1000
0000
0010
0000
0001
0000
0010
0000
0100
0000
0010
0001
,  // measure 43
1000
0010
0100
0000
0001
0000
0010
0000
0100
0000
0010
0001
1000
0010
0100
0000
,  // measure 44
0000
0000
0001
1000
0100
0000
0000
0000
1000
0100
1000
0000
0001
0000
0100
0010
,  // measure 45
1000
0000
0000
0000
1000
0001
1000
0001
1000
0001
1000
0000
0001
0000
0000
0000
,  // measure 46
0010
0000
0000
0000
0100
0000
0000
0000
1000
0100
0001
0100
1000
0010
0200
0000
,  // measure 47
0001
0000
0301
0000
1000
0010
0001
0010
0100
0010
0002
0000
1000
0000
1003
0000
,  // measure 48
0100
0010
0100
1000
0001
0100
0010
1000
0001
0010
0100
0010
0001
0000
0000
0000
,  // measure 49
0000
0000
1000
0000
0100
0000
0010
0000
0001
0000
0000
0000
0010
0001
1000
0000
,  // measure 50
0000
0000
0010
1000
0001
0000
0010
0100
0010
0001
1000
0000
0001
0100
0010
0000
,  // measure 51
1000
0010
1000
0001
1000
0100
1000
0010
1000
0001
1000
0001
1000
0100
1000
0010
,  // measure 52
1000
0001
1000
0100
1000
0010
1000
0001
1000
0000
0000
0000
0001
0000
0100
0000
,  // measure 53
1000
0000
0100
0000
0010
0000
0100
0010
0100
0000
0010
1000
0010
0000
0000
0000
,  // measure 54
1001
0000
0000
1000
0000
0000
1100
0000
0000
0100
0000
0000
1000
0000
0000
0010
,  // measure 55
0000
0000
0100
0000
0000
0001
0000
0000
0010
0000
0000
0100
0000
0000
1000
0000
,  // measure 56
0000
0001
0000
0000
1001
0000
0000
1010
0000
0000
1001
0000
0000
0011
0000
0000
,  // measure 57
0100
0000
0000
0010
0000
0000
0101
0000
0000
0001
0000
0000
1010
0000
0000
1000
,  // measure 58
0000
0000
0001
0000
0000
0010
0000
0000
0110
0000
0000
1100
0000
0000
1010
0000
,  // measure 59
0000
0101
0000
0000
0011
0000
0000
0110
0000
0000
1100
0000
0000
1010
0000
0000
,  // measure 60
0001
0000
1000
0000
0010
0000
1000
0000
0100
0000
0010
0100
0000
0100
1000
0000
,  // measure 61
0001
0000
0100
0000
0010
1000
0100
0010
0001
0000
1000
0000
0010
0000
1000
0000
,  // measure 62
0100
0000
0010
0100
0000
0100
1000
0000
0001
0000
0100
0000
0010
1000
0100
0010
,  // measure 63
0001
0000
1000
0000
0010
0000
1000
0000
0001
0000
0010
0001
0000
0001
0100
0000
,  // measure 64
0010
0000
1000
0000
0001
1000
0010
1000
0001
0000
1000
0000
0010
0000
1000
0000
,  // measure 65
0001
0000
0010
0001
0000
0001
0100
0000
0010
0000
1000
0000
0001
1000
0010
1000
,  // measure 66
0002
0000
0000
0000
0000
0000
0000
0000
0000
0000
0000
0000
1003
0100
0000
0001
,  // measure 67
0100
0000
1000
0100
0000
0001
0100
0000
1100
0000
0011
0000
1100
0000
0000
0000
,  // measure 68
0000
2002
3003
0000
;

//---------------dance-single - ----------------
#NOTES:
     dance-single:
     :
     Medium:
     11:
     0.468926,0.552910,0.143496,0.143496,0.269056,366.000000,350.000000,16.000000,16.000000,0.000000,0.000000,0.468926,0.552910,0.143496,0.143496,0.269056,366.000000,350.000000,16.000000,16.000000,0.000000,0.000000:
0000
0000
0000
0000
,
0000
0000
0000
0000
,
0000
0000
0000
0000
,
0000
0000
0000
0000
,
0000
0000
0000
0000
,
0000
0000
0000
0000
,
1000
0000
0000
0010
0000
0000
0100
0000
0000
0001
0000
0000
0010
0000
0000
0100
,
0000
0000
0010
0000
0000
0001
0000
0000
1000
0000
0000
0010
0000
0000
1000
0000
,
0000
0001
0000
0000
0010
0000
0000
0010
0000
0000
0100
0000
0000
0100
0000
0000
,
0010
0000
0000
0001
0000
0000
0100
0000
0000
1000
0000
0000
0100
0000
0000
0010
,
0000
0000
1000
0000
0000
0001
0000
0000
0010
0000
0000
1000
0000
0000
0010
0000
,
0000
0001
0000
0000
1000
0000
0000
1000
0000
0000
0001
0000
0000
0001
0000
0000
,
1000
0000
0000
0000
0001
0000
0000
0000
0100
0000
0000
0001
0000
0000
0010
0000
,
0100
0000
0010
0001
0100
0000
0010
0000
,
1000
0000
0000
0001
0000
0000
0010
0000
0001
0000
0000
0000
0010
0000
0100
0000
,
1000
0000
0000
0000
0100
0000
0000
0000
1000
0000
0000
0010
0000
0000
0100
0000
,
0001
0000
0010
0001
1000
0000
0010
0000
,
0100
0000
0000
0001
0000
0000
0010
0000
0001
0000
0000
0000
1000
0000
0001
0000
,
0100
0000
0000
0010
0000
0000
1000
0000
0000
0001
0000
0000
0010
0000
0000
1000
,
0000
0000
0010
0000
0000
0001
0000
0000
0100
0000
0000
1000
0000
0000
0100
0000
,
0000
0010
0000
0000
1000
0000
0000
1000
0000
0000
0010
0000
0000
0010
0000
0000
,
0100
0000
0000
0010
0000
0000
1000
0000
0000
0001
0000
0000
0010
0000
0000
1000
,
0000
0000
0010
0000
0000
0100
0000
0000
0010
0000
0000
0001
0000
0000
1000
0000
,
0000
0010
0000
0000
0100
0000
0000
0100
0000
0000
0010
0000
0000
0010
0000
0000
,
1000
0000
0000
0001
0001
0001
0100
0000
,
0000
0010
0010
1000
0001
0000
0000
0001
,
0001
0100
0010
0000
0000
0010
0010
1000
,
0100
0000
0000
0010
0001
0100
0010
0000
,
0000
0100
0100
0010
1000
0000
0000
1000
,
1000
0100
0010
0000
0000
0100
0100
1000
,
0001
0100
0001
0020
0000
0000
0130
1000
,
0001
0020
0000
0000
0130
1000
0001
0100
,
0001
0010
0200
0000
0000
0310
0010
0001
,
1000
0000
0001
0200
0000
0310
2000
0000
,
3100
0020
0000
0130
1000
0001
1000
0001
,
1000
0001
0100
0010
0100
0010
0100
0010
,
1000
0000
0010
0000
0100
0000
0001
0010
,
0100
1000
0001
0010
0100
0000
0010
0001
,
1000
1001
0110
1001
,
1000
0001
0010
0001
0000
0000
1100
0000
,
0101
0000
1001
0000
1000
0001
0010
0100
,
0010
0001
1000
0000
1000
0100
0000
1000
,
0010
0100
0010
0100
0001
1000
0100
0000
,
1000
0001
0000
0100
0010
1000
0001
0010
,
0000
0010
0001
0000
1001
0000
0110
0000
,
1000
0000
0001
0010
0100
0010
0011
0000
,
1100
0000
1001
0000
0001
1000
0100
0020
,
0000
0000
0130
0010
0001
0020
0000
0000
,
0130
0001
0100
1000
0010
0001
0020
0000
,
0030
0100
0001
0010
0100
0000
0010
0002
,
0000
1003
0020
0000
0130
0002
0000
0013
,
0100
0010
0100
0010
0100
0010
0001
1000
,
0001
1000
0001
1000
0100
0000
1000
0100
,
1000
0001
0100
1000
0100
0001
1000
0000
,
0001
0000
0000
0100
0000
0000
0010
0000
0000
1000
0000
0000
0100
0000
0000
1000
,
0000
0000
0010
0000
0000
0100
0000
0000
0001
0000
0000
1000
0000
0000
0100
0000
,
0000
0010
0000
0000
0001
0000
0000
0001
0000
0000
0010
0000
0000
0010
0000
0000
,
0100
0000
0000
0010
0000
0000
0001
0000
0000
0100
0000
0000
1000
0000
0000
0100
,
0000
0000
0001
0000
0000
0100
0000
0000
0010
0000
0000
1000
0000
0000
0001
0000
,
0000
0010
0000
0000
0100
0000
0000
0100
0000
0000
1000
0000
0000
1000
0000
0000
,
0001
0000
0000
0000
0100
0000
0000
0000
0010
0000
0000
1000
0000
0000
0100
0000
,
0010
0000
0100
1000
0001
0000
0100
0000
,
0001
0000
0000
0010
0000
0000
0100
0000
1000
0000
0000
0000
0100
0000
0010
0000
,
0001
0000
0000
0000
1000
0000
0000
0000
0010
0000
0000
1000
0000
0000
0001
0000
,
0010
0000
0100
0010
0001
0000
1000
0000
,
0010
0000
0000
1000
0000
0000
0010
0000
0100
0000
0000
0000
0010
0000
1000
0000
,
2002
0000
0000
0000
0000
0000
0000
0000
3003
0000
0000
0000
1000
0010
0000
0100
,
0001
0000
1000
0010
0000
0100
0001
0000
1001
0000
1001
0000
1001
0000
0000
0000
,
0000
0220
0330
0000
;

//---------------dance-single - ----------------
#NOTES:
     dance-single:
     :
     Easy:
     7:
     0.303649,0.397866,0.089685,0.089685,0.008969,237.000000,227.000000,10.000000,10.000000,0.000000,0.000000,0.303649,0.397866,0.089685,0.089685,0.008969,237.000000,227.000000,10.000000,10.000000,0.000000,0.000000:
0000
0000
0000
0000
,
0000
0000
0000
0000
,
0000
0000
0000
0000
,
0000
0000
0000
0000
,
0000
0000
0000
0000
,
0000
0000
0000
0000
,
1000
0000
0000
0010
0000
0000
0100
0000
,
0000
0010
0000
0000
1000
0000
0000
0001
,
0000
0000
1000
0000
0000
0001
0000
0000
,
0010
0000
0000
0100
0000
0000
0010
0000
,
0000
0001
0000
0000
1000
0000
0000
0010
,
0000
0000
0100
0000
0000
0010
0000
0000
,
1000
0100
1000
0010
,
0100
0000
0001
1000
0001
0000
0010
0000
,
0001
0000
0100
0000
0010
0000
1000
0010
,
0100
0010
1000
0001
,
0010
0000
0100
0010
0001
0000
0010
0000
,
0100
0000
1000
0000
0100
0000
1000
0010
,
0100
0000
0000
0010
0000
0000
1000
0000
,
0000
0001
0000
0000
0010
0000
0000
0001
,
0000
0000
1000
0000
0000
0100
0000
0000
,
1000
0000
0000
0010
0000
0000
0100
0000
,
0000
0001
0000
0000
0010
0000
0000
0100
,
0000
0000
1000
0000
0000
0001
0000
0000
,
1000
0000
0000
0010
0100
0000
0000
0000
,
0000
0100
0001
0000
0000
0000
0000
0010
,
0100
0000
0000
0000
0000
1000
0100
0010
,
0001
0000
0000
1000
0010
0000
0000
0000
,
0000
0100
0010
0000
0000
0000
0000
1000
,
0100
0000
0000
0000
0000
0010
0001
0000
,
1000
0001
1000
0002
0000
0000
1003
0001
,
1000
0001
0000
0000
1000
0001
1000
0001
,
1000
0001
2000
0000
0000
0000
3100
0000
,
0010
0000
0000
0011
0000
0000
0100
0000
,
0000
1100
0000
0000
1000
0000
0000
0001
,
0000
0000
0100
0000
0000
0010
0000
0000
,
1000
0100
0010
0200
,
0000
0000
0310
0002
,
0000
1003
0001
0110
,
0100
0001
0020
0031
,
1000
0020
0130
0001
,
0010
0001
1000
0100
,
0010
0100
1000
0001
,
0100
0001
1000
0100
,
0010
0100
1000
1001
,
0001
0000
0000
1000
0000
0000
0100
0000
,
0010
0000
1001
0000
0010
0100
0010
0200
,
0000
0000
0310
0100
0010
0200
0000
0000
,
0310
0100
0010
0100
0010
0100
0020
0000
,
0000
1030
0100
0010
0001
0000
0000
1100
,
0000
0000
0010
0000
0000
0101
0000
0000
,
0001
0000
0000
0010
0000
0000
0100
0000
,
0000
0010
0000
0000
0001
0000
0000
1000
,
0100
0010
0001
0000
1000
0000
0110
0000
,
1000
0000
0000
0010
0000
0000
0100
0000
,
0000
0001
0000
0000
0010
0000
0000
1000
,
0000
0000
0010
0000
0000
0001
0000
0000
,
0100
0000
0000
0010
0000
0000
1000
0000
,
0000
0001
0000
0000
0010
0000
0000
0100
,
0000
0000
0010
0000
0000
0001
0000
0000
,
1000
0001
0100
0001
,
0010
0000
0100
1000
0100
0000
1000
0000
,
0010
0000
0100
0000
0001
0000
1000
0010
,
1000
0010
0100
0001
,
0010
0000
0100
0010
0100
0000
0010
0000
,
0001
0000
1000
0000
0010
0000
0100
0001
,
2001
0000
0000
0000
0000
0000
0000
0000
0000
0000
0000
0000
3001
0000
0000
0100
,
0000
0000
0010
0000
0000
1000
0000
0000
0001
0000
0001
0000
0001
0000
0000
0000
,
0000
0110
0000
0000
;

//---------------dance-single - ----------------
#NOTES:
     dance-single:
     :
     Beginner:
     3:
     0.128122,0.183631,0.035874,0.000000,0.000000,100.000000,96.000000,4.000000,0.000000,0.000000,0.000000,0.128122,0.183631,0.035874,0.000000,0.000000,100.000000,96.000000,4.000000,0.000000,0.000000,0.000000:
0000
0000
0000
0000
,
0000
0000
0000
0000
,
0000
0000
0000
0000
,
0000
0000
0000
0000
,
0000
0000
0000
0000
,
0000
0000
0000
0000
,
0010
0000
0000
1000
,
0000
0000
0001
0000
,
0000
0010
0000
0000
,
0001
0000
0000
1001
,
0000
0000
1000
0000
,
0000
0010
0000
0000
,
0100
0000
0000
0000
,
0001
0000
1000
0000
,
0000
0000
0010
0000
,
0100
0000
0000
0000
,
0001
0000
0010
0000
,
0000
0000
0100
0000
,
1000
0000
0000
0100
,
0000
0000
1000
0000
,
0000
0010
0000
0000
,
0100
0000
0000
1001
,
0000
0000
0001
0000
,
0000
0010
0000
0000
,
0001
0000
0000
1000
,
0000
0000
0010
0000
,
0000
0100
0000
0000
,
0010
0000
0000
1000
,
0000
0000
0100
0000
,
0000
0010
0000
0000
,
0001
0000
0000
0001
0000
0000
1000
0000
,
0000
1000
0000
0000
0010
0000
0000
0010
,
0000
0010
0000
0000
,
0100
0000
0000
0010
,
0000
0000
1000
0000
,
0000
0001
0000
0000
,
0100
0000
0000
0010
,
0000
0000
1000
0000
,
0000
0001
0001
0001
,
1000
0000
0000
0001
,
0000
0000
0100
0000
,
0000
0010
0000
0000
,
1000
0000
0000
0010
,
0000
0000
1000
0000
,
0000
0001
1000
0001
,
1000
0000
0000
0010
,
0000
0000
0100
0000
,
0000
0010
0000
0000
,
1000
0000
0000
0001
0000
0000
1000
0000
,
0000
0010
0000
0000
0100
0000
0000
0000
,
0000
0010
0000
0000
,
1000
0000
0000
0100
0000
0000
0010
0000
,
0000
0001
0000
0000
1000
0000
0000
0000
,
0000
0001
0000
0000
,
0100
0000
0000
0010
,
0000
0000
1000
0000
,
0000
0100
0000
0000
,
1000
0000
0000
0010
,
0000
0000
0100
0000
,
0000
0001
0000
0000
,
0010
0000
0000
0000
,
0001
0000
1000
0000
,
0000
0000
0010
0000
,
0100
0000
0000
0000
,
0010
0000
1000
0000
,
0000
0000
0001
0000
,
1001
0000
0000
0010
,
0000
0100
0000
0000
0010
0000
0000
0000
,
0000
0110
0000
0000
;
