#VERSION:0.83;
#TITLE:GOODWORLD;
#SUBTITLE:;
#ARTIST:EBIMAYO;
#TITLETRANSLIT:;
#SUBTITLETRANSLIT:;
#ARTISTTRANSLIT:;
#GENRE:GOODMUSIC;
#ORIGIN:;
#CREDIT:;
#BANNER:banner.png;
#BACKGROUND:background.png;
#PREVIEWVID:;
#JACKET:jacket.png;
#CDIMAGE:;
#DISCIMAGE:;
#LYRICSPATH:;
#CDTITLE:CDTITLE.png;
#MUSIC:GOODWORLD.ogg;
#OFFSET:-0.200000;
#SAMPLESTART:104.927269;
#SAMPLELENGTH:11.636368;
#SELECTABLE:YES;
#BPMS:0.000=165.000;
#STOPS:;
#DELAYS:;
#WARPS:;
#TIMESIGNATURES:0.000=4=4;
#TICKCOUNTS:0.000=4;
#COMBOS:0.000=1;
#SPEEDS:0.000=1.000=0.000=0;
#SCROLLS:0.000=1.000;
#FAKES:;
#LABELS:0.000=Song Start;
#BGCHANGES:0.000=GOODWORLD.avi=1.000=1=0=1===CrossFade==,
99999=-nosongbg-=1.000=0=0=0 // don't automatically add -songbackground-
;
#KEYSOUNDS:;
#ATTACKS:
;

//---------------dance-single - ----------------
#NOTEDATA:;
#CHARTNAME:;
#STEPSTYPE:dance-single;
#DESCRIPTION:;
#CHARTSTYLE:;
#DIFFICULTY:Hard;
#METER:13;
#RADARVALUES:0.537976,0.707812,0.366653,0.274990,0.301725,493.000000,445.000000,48.000000,36.000000,0.000000,0.000000,0.000000,0.000000,0.000000,0.537976,0.707812,0.366653,0.274990,0.301725,493.000000,445.000000,48.000000,36.000000,0.000000,0.000000,0.000000,0.000000,0.000000;
#CREDIT:Pandemonium X;
#NOTES:
// measure 0
0000
0000
0000
0000
,  // measure 1
0000
0000
0000
0000
,  // measure 2
0000
0000
0000
0000
,  // measure 3
0000
0000
0000
0000
,  // measure 4
0000
0000
0000
0000
,  // measure 5
0000
0000
0000
0000
,  // measure 6
0000
0000
0000
0000
,  // measure 7
0000
0000
0000
0000
,  // measure 8
1000
0010
0100
0000
0001
0010
0100
0000
,  // measure 9
0010
0001
1000
0000
0100
0010
0001
0000
,  // measure 10
1100
1000
0010
0000
0100
0001
0010
0000
,  // measure 11
0001
1000
0100
0000
1000
0001
0010
0100
,  // measure 12
0010
0001
1000
0000
0010
0100
0001
0000
,  // measure 13
0010
0100
1000
0000
0100
0010
0001
0000
,  // measure 14
0101
0001
0010
0000
0100
1000
0010
0000
,  // measure 15
1001
0000
0000
0000
,  // measure 16
0002
0000
0103
0000
0010
0000
1000
0200
,  // measure 17
0010
0310
0001
1000
,  // measure 18
0020
0000
0130
0000
0001
0000
1000
0100
,  // measure 19
0000
0010
0100
1000
0002
0000
0203
0000
,  // measure 20
0302
0000
0013
0000
0100
0000
0010
0002
,  // measure 21
1000
1003
0001
0100
,  // measure 22
0010
0000
0000
0010
0000
0000
0010
0000
,  // measure 23
0000
0000
0100
0000
0000
0000
0000
0000
0100
0000
0000
0000
0010
0000
1000
0001
,  // measure 24
1000
0000
0000
1000
0000
0000
0001
0000
0101
0000
0000
0000
0010
0000
0000
0000
,  // measure 25
0000
0100
1001
0000
,  // measure 26
0001
0000
0000
0001
0000
0000
0010
0000
0110
0000
0000
0000
0100
0000
0000
0000
,  // measure 27
0000
0010
1001
0000
,  // measure 28
1000
0000
0000
0010
0000
0000
0100
0000
0101
0000
0000
0000
0001
0000
0000
0000
,  // measure 29
0000
1000
0011
0000
,  // measure 30
0001
0000
0000
0100
0000
0000
0010
0000
1010
0000
0000
0000
0100
0000
0000
0000
,  // measure 31
0000
0000
0010
0000
1001
0000
0200
0300
,  // measure 32
1001
0000
0000
0000
0101
0000
0000
0101
0000
0000
0101
0000
0001
1000
0000
0000
,  // measure 33
0000
0000
0000
0000
1100
0000
0000
1100
0000
0000
1000
0000
0100
0000
0000
0000
,  // measure 34
0000
0000
0000
0000
1010
0000
0000
1010
0000
0000
1010
0000
1000
0001
0000
0000
,  // measure 35
0000
0000
0000
0000
0011
0000
0000
0011
0000
0000
0010
0000
0100
0000
0000
0000
,  // measure 36
0021
0000
0000
0130
0000
0000
1000
0010
0200
0000
0000
0301
0000
0000
1000
0000
,  // measure 37
0002
0000
0000
0013
0000
0000
0100
1000
0020
0000
0000
0000
0130
0000
0001
0000
,  // measure 38
1000
0000
0100
0000
0010
0000
0001
0000
1000
0010
1000
0010
0100
0001
0100
0001
,  // measure 39
0000
0000
0000
0000
,  // measure 40
2000
0000
0002
0000
3003
0000
1000
0001
0000
0000
0010
0100
0000
0000
0100
1000
,  // measure 41
0000
0000
1000
0001
0000
0000
0001
0100
0000
0000
0010
0000
1000
0000
0100
0000
,  // measure 42
0020
0000
0200
0000
0330
0000
0010
0100
0000
0000
0100
1000
0000
0000
1000
0001
,  // measure 43
1000
0001
0100
0001
0010
0000
0000
0000
,  // measure 44
0020
0000
0002
0000
0033
0000
1000
0010
0000
0000
0010
0100
0000
0000
0100
0001
,  // measure 45
0000
0000
0001
1000
0000
0000
0100
0010
0000
0000
0001
0000
1000
0000
0010
0000
,  // measure 46
2000
0000
0200
0000
3300
0000
0010
0001
0000
0000
0001
0100
0000
0000
0100
0010
,  // measure 47
1000
0001
0010
0001
1000
0010
0100
0000
,  // measure 48
0001
0001
0000
1000
0100
0001
0100
1000
,  // measure 49
0100
0000
0001
0000
0100
0000
1000
0000
0100
0000
0000
0100
0000
0000
0100
0000
,  // measure 50
0010
0001
0000
0010
1000
0010
0001
0010
,  // measure 51
1000
0010
0001
0010
1000
0000
0001
0000
,  // measure 52
1000
0010
0000
0100
1000
0100
0001
0010
,  // measure 53
1000
0000
0010
0000
0100
0000
1000
0000
0001
0100
0000
0001
0010
0000
0100
0000
,  // measure 54
0010
0000
0001
0000
0000
1000
0010
0100
0000
0010
1000
0001
0000
0010
0100
1000
,  // measure 55
0002
0000
0000
0100
0000
0000
0100
0000
0000
0000
0000
0000
0010
0000
0000
0000
,  // measure 56
0000
1003
1001
0000
,  // measure 57
2000
0000
0000
0010
0000
0000
0010
0000
0000
0000
0000
0000
0100
0000
0000
0000
,  // measure 58
0000
3001
1001
0000
,  // measure 59
0200
0000
0000
0010
0000
0000
0010
0000
0000
0000
0000
0000
0001
0000
0000
0000
,  // measure 60
0000
0310
1001
0000
,  // measure 61
0020
0000
0000
0100
0000
0000
0100
0000
0000
0000
0000
0000
1000
0000
0000
0000
,  // measure 62
0000
0130
1001
0000
,  // measure 63
0011
0000
0000
0010
0000
0000
0001
0000
1001
0000
0000
0000
0110
0000
0000
0000
,  // measure 64
0000
1010
0101
0000
,  // measure 65
0011
0000
0000
0010
0000
0000
0100
0000
1100
0000
0000
0000
0101
0000
0000
0000
,  // measure 66
0000
0110
1010
0000
,  // measure 67
1001
0000
0000
0001
0000
0000
0010
0000
0110
0000
0000
0000
0011
0000
0000
0000
,  // measure 68
0000
1100
0101
0000
,  // measure 69
1002
0000
0003
0002
0000
0003
2000
0000
,  // measure 70
3000
0000
2000
0000
0000
0000
3000
0000
2000
0000
0000
0000
3001
0100
0010
1000
,  // measure 71
0000
0000
0001
0000
0000
0010
0000
0000
1000
0000
0010
0000
0002
0000
0103
0000
,  // measure 72
0010
0000
1000
0000
0010
0100
0010
0000
0100
0000
0001
1000
0000
0000
0001
0000
,  // measure 73
0000
1000
0000
0000
0010
0000
0100
0000
0001
0000
0010
0000
0001
0000
1000
0000
,  // measure 74
0001
0000
0100
0000
0001
0000
0100
0010
0000
0000
0100
0000
0010
0000
1000
0000
,  // measure 75
0001
0000
0000
0001
0000
0000
0001
0000
0010
0000
0000
0010
0000
0000
0010
0000
,  // measure 76
0100
0000
0010
0000
0001
1000
0001
0000
1000
0000
0100
0010
0000
0000
0100
0000
,  // measure 77
0000
1000
0000
0000
0001
0000
0100
0000
0001
0000
1000
0000
0010
0000
1000
0000
,  // measure 78
0100
0000
1000
0000
0010
0000
0100
0001
0000
0000
0010
0000
0100
0000
1000
0000
,  // measure 79
0002
2000
3003
0000
0002
2000
3003
0000
0001
0000
0010
0100
0000
1000
0001
0000
,  // measure 80
0100
0000
0001
0000
0010
0100
0010
0000
0001
0000
1000
0100
0000
0000
1000
0000
,  // measure 81
0000
0010
0000
0000
0100
0000
0001
0000
0010
0000
0001
0000
1000
0000
0100
0000
,  // measure 82
0010
0000
0100
0000
1000
0000
0001
0100
0000
0000
0010
0000
1000
0000
0001
0000
,  // measure 83
0010
0000
0000
0010
0000
0000
0010
0000
0100
0000
0000
0100
0000
0000
0100
0000
,  // measure 84
0010
0000
0001
0000
1000
0010
1000
0000
0001
0000
1000
0001
0000
0000
0010
0000
,  // measure 85
0000
0001
0000
0000
0100
0000
0010
0000
1000
0000
0000
0100
0000
0000
0010
0000
,  // measure 86
1001
1001
1001
1001
,  // measure 87
1000
0100
0001
0010
1000
0000
0001
0000
,  // measure 88
0220
0330
0000
0000
;

//---------------dance-single - ----------------
#NOTEDATA:;
#CHARTNAME:;
#STEPSTYPE:dance-single;
#DESCRIPTION:;
#CHARTSTYLE:;
#DIFFICULTY:Easy;
#METER:6;
#RADARVALUES:0.255348,0.403318,0.282628,0.129856,0.000000,234.000000,197.000000,37.000000,17.000000,0.000000,0.000000,0.000000,0.000000,0.000000,0.255348,0.403318,0.282628,0.129856,0.000000,234.000000,197.000000,37.000000,17.000000,0.000000,0.000000,0.000000,0.000000,0.000000;
#CREDIT:Pandemonium X;
#NOTES:
// measure 0
0000
0000
0000
0000
,  // measure 1
0000
0000
0000
0000
,  // measure 2
0000
0000
0000
0000
,  // measure 3
0000
0000
0000
0000
,  // measure 4
0000
0000
0000
0000
,  // measure 5
0000
0000
0000
0000
,  // measure 6
1001
0000
0000
0000
,  // measure 7
0010
0010
0010
0100
,  // measure 8
0001
0000
1000
0000
,  // measure 9
0010
0000
1000
0000
,  // measure 10
1001
0000
0001
0000
,  // measure 11
0010
0000
0100
0000
,  // measure 12
0010
0000
0001
0000
,  // measure 13
1000
0000
0010
0000
,  // measure 14
1001
0000
0001
0000
,  // measure 15
0100
0000
0000
0000
,  // measure 16
0020
0000
0000
0030
,  // measure 17
2000
0000
0000
3000
,  // measure 18
0002
0000
0000
0003
,  // measure 19
0010
0000
0100
0000
,  // measure 20
0020
0000
0000
0030
,  // measure 21
0002
0000
0000
0003
,  // measure 22
1000
0000
0000
1000
0000
0000
1000
0000
,  // measure 23
0000
1000
0000
0000
1000
0000
0000
0000
,  // measure 24
1001
0000
0110
0000
,  // measure 25
0000
0010
1001
0000
,  // measure 26
0110
0000
1001
0000
,  // measure 27
0000
0010
1001
0000
,  // measure 28
0110
0000
1001
0000
,  // measure 29
0000
0100
1001
0000
,  // measure 30
0010
0000
0000
0010
0000
0000
0100
0000
,  // measure 31
0000
0100
0000
0000
0010
0000
0100
0000
,  // measure 32
0000
1001
0000
0000
,  // measure 33
0000
0101
0000
0000
,  // measure 34
0000
0011
0000
0000
,  // measure 35
0000
1100
0000
0000
,  // measure 36
1010
0000
0101
0000
,  // measure 37
1001
0000
1100
0000
,  // measure 38
0110
0000
0011
0000
,  // measure 39
0000
0000
0000
0000
,  // measure 40
1001
0000
0001
1000
,  // measure 41
0010
1000
0001
0010
,  // measure 42
0110
0000
0100
0010
,  // measure 43
0001
1000
0010
0000
,  // measure 44
1001
0000
1000
0001
,  // measure 45
0010
0001
1000
0100
,  // measure 46
0110
0000
0010
0001
,  // measure 47
1000
0010
0100
0000
,  // measure 48
0010
1000
0000
1000
,  // measure 49
0000
1000
0000
1000
,  // measure 50
0000
0001
0000
0001
,  // measure 51
0000
0001
0000
0001
,  // measure 52
0000
0100
0000
0010
,  // measure 53
0000
1000
0000
0001
,  // measure 54
0010
0001
1000
0100
,  // measure 55
0020
0000
0000
0000
,  // measure 56
0230
0000
0000
0300
,  // measure 57
2000
0000
0000
0000
,  // measure 58
3002
0000
0000
0003
,  // measure 59
0200
0000
0000
0000
,  // measure 60
0302
0000
0000
0003
,  // measure 61
0020
0000
0000
0000
,  // measure 62
0230
0000
0000
0300
,  // measure 63
1100
0000
0010
0000
,  // measure 64
0000
0001
1001
0000
,  // measure 65
0101
0000
0010
0000
,  // measure 66
0000
1000
1100
0000
,  // measure 67
0110
0000
0100
0000
,  // measure 68
0000
0010
0011
0000
,  // measure 69
0001
0000
0000
0001
0000
0000
0001
0000
,  // measure 70
0000
0001
0000
0000
0001
0000
1000
0000
,  // measure 71
0000
0000
0000
0110
,  // measure 72
0001
1000
0010
1000
,  // measure 73
0001
0010
0100
0010
,  // measure 74
0001
1000
0100
0010
,  // measure 75
0200
1300
0200
0310
,  // measure 76
0100
1000
0010
0100
,  // measure 77
0001
0010
0100
0010
,  // measure 78
0001
1000
0001
0100
,  // measure 79
1001
0110
0001
1000
,  // measure 80
0110
0010
1000
0010
,  // measure 81
0100
0001
0010
0100
,  // measure 82
0010
0001
1000
0010
,  // measure 83
0200
0301
0200
0310
,  // measure 84
0100
0010
1000
0001
,  // measure 85
0010
0100
0010
0001
,  // measure 86
1000
1000
1000
1000
,  // measure 87
0001
0010
0100
1000
0010
0000
0100
0000
,  // measure 88
1001
0000
0000
0000
;

//---------------dance-single - ----------------
#NOTEDATA:;
#CHARTNAME:;
#STEPSTYPE:dance-single;
#DESCRIPTION:;
#CHARTSTYLE:;
#DIFFICULTY:Medium;
#METER:10;
#RADARVALUES:0.423397,0.604977,0.389569,0.022916,0.095483,388.000000,337.000000,51.000000,3.000000,0.000000,0.000000,0.000000,0.000000,0.000000,0.423397,0.604977,0.389569,0.022916,0.095483,388.000000,337.000000,51.000000,3.000000,0.000000,0.000000,0.000000,0.000000,0.000000;
#CREDIT:Pandemonium X;
#NOTES:
// measure 0
0000
0000
0000
0000
,  // measure 1
0000
0000
0000
0000
,  // measure 2
0000
0000
0000
0000
,  // measure 3
0000
0000
0000
0000
,  // measure 4
0000
0000
0000
0000
,  // measure 5
0000
0000
0000
0000
,  // measure 6
1001
0001
1000
0001
,  // measure 7
0010
0010
0010
1100
,  // measure 8
0101
0001
0010
0001
,  // measure 9
1000
0100
0010
0001
,  // measure 10
1001
1000
0001
0010
,  // measure 11
0001
0100
0001
0010
,  // measure 12
0100
0010
0001
1000
,  // measure 13
0010
0100
0001
1000
,  // measure 14
1001
0001
0010
0001
,  // measure 15
0100
0000
0000
0000
,  // measure 16
0010
0000
0000
0000
,  // measure 17
1000
0000
0000
0000
,  // measure 18
0001
0000
0000
0000
0000
0000
0000
0010
,  // measure 19
0000
0001
0010
0100
1000
0000
0001
0000
,  // measure 20
1000
0000
0000
0000
,  // measure 21
0010
0000
0000
0000
,  // measure 22
0100
0000
0000
0100
0000
0000
0100
0000
,  // measure 23
0000
0100
0000
0000
0100
0000
0010
0100
,  // measure 24
0010
0000
0000
1000
0000
0000
0001
0000
1000
0000
0000
0000
0001
0000
0000
0000
,  // measure 25
0000
1000
1100
0000
,  // measure 26
0100
0000
0000
1000
0000
0000
0010
0000
0100
0000
0000
0000
0001
0000
0000
0000
,  // measure 27
0000
0010
0011
0000
,  // measure 28
0010
0000
0000
0100
0000
0000
0010
0000
0001
0000
0000
0000
1000
0000
0000
0000
,  // measure 29
0000
0001
0101
0000
,  // measure 30
0001
0000
0000
0001
0000
0000
0001
0000
,  // measure 31
0000
0001
0000
0000
0001
0000
1000
0000
,  // measure 32
0000
0000
0000
0000
0001
0000
0000
0100
0000
0000
0010
0000
0000
1000
0000
0000
,  // measure 33
0000
0000
0000
0000
0010
0000
0000
0100
0000
0000
0001
0000
1000
0000
0000
0000
,  // measure 34
0000
0000
0000
0000
0100
0000
0000
1000
0000
0000
0010
0000
0000
0100
0000
0000
,  // measure 35
0000
0000
0000
0000
0010
0000
0000
0100
0000
0000
0001
0000
1000
0000
0000
0000
,  // measure 36
0001
0000
0000
0001
0000
0000
0001
0000
1000
0000
0000
1000
0000
0000
1000
0000
,  // measure 37
0010
0000
0000
0010
0000
0000
0010
0000
0100
0000
0000
0100
0000
0000
0100
0000
,  // measure 38
0010
0000
0100
0000
0010
0100
0001
1000
,  // measure 39
0000
0000
0000
0000
,  // measure 40
0001
1000
0000
1100
0000
1100
0000
1100
,  // measure 41
0000
1100
0000
1000
0100
0001
0100
1000
,  // measure 42
0100
0010
0000
0011
0000
0011
0000
0001
,  // measure 43
0010
0000
0001
1000
0100
0000
0000
0000
,  // measure 44
0100
1000
0000
1001
0000
1010
0000
1001
,  // measure 45
0000
0011
0000
0001
0010
1000
0010
0001
,  // measure 46
1000
0001
0000
1001
0000
0011
0000
1001
,  // measure 47
0002
0103
0020
1030
0200
0310
1001
0000
,  // measure 48
1000
0101
1000
0101
,  // measure 49
1000
0101
1000
0101
,  // measure 50
0001
1100
0001
1100
,  // measure 51
0001
1100
0101
1100
,  // measure 52
0001
1000
0000
0010
0100
0010
0100
0010
,  // measure 53
0100
0010
0100
0010
0100
0010
1000
0001
,  // measure 54
1000
0001
0100
0010
1000
0001
0100
0010
,  // measure 55
1000
0000
0000
1000
0000
0000
1000
0000
0000
0000
0000
0000
0001
0000
0000
0000
,  // measure 56
0000
1000
1001
0000
,  // measure 57
0001
0000
0000
0001
0000
0000
0001
0000
0000
0000
0000
0000
1000
0000
0000
0000
,  // measure 58
0000
0001
1001
0000
,  // measure 59
0010
0000
0000
0010
0000
0000
0010
0000
0000
0000
0000
0000
0100
0000
0000
0000
,  // measure 60
0000
0010
0110
0000
,  // measure 61
0100
0000
0000
0100
0000
0000
0100
0000
0000
0000
0000
0000
0010
0000
0000
0000
,  // measure 62
0000
0100
0110
0000
,  // measure 63
0010
0000
0000
1000
0000
0000
0010
0000
0100
0000
0000
0000
0001
0000
0000
0000
,  // measure 64
0000
1000
1001
0000
,  // measure 65
0001
0000
0000
1000
0000
0000
0100
0000
1000
0000
0000
0000
0010
0000
0000
0000
,  // measure 66
0000
0100
0101
0001
,  // measure 67
1000
0000
0000
0100
0000
0000
1000
0000
0010
0000
0000
0000
0100
0000
0000
0000
,  // measure 68
0000
0001
0011
0000
,  // measure 69
0100
0000
0000
0100
0000
0000
0100
0000
,  // measure 70
0000
0100
0000
0000
0100
0000
0000
0000
,  // measure 71
0000
0000
0010
0000
0000
0001
0000
0000
0010
0000
0100
0000
1001
0000
0000
0000
,  // measure 72
1000
0100
1000
0000
0010
0000
0100
0000
,  // measure 73
0001
0000
0100
0010
1000
0000
0001
0000
,  // measure 74
1000
0100
0010
0000
0100
0000
1000
0000
,  // measure 75
0001
0000
0000
1000
0000
0000
0010
0000
1000
0000
0000
0001
0000
0000
0010
0000
,  // measure 76
0100
0000
0010
0001
0010
0000
0100
0000
,  // measure 77
1000
0000
0100
1000
0010
0000
0100
0000
,  // measure 78
0001
1000
0010
0000
1000
0000
0001
0000
,  // measure 79
1001
0110
1001
0110
,  // measure 80
0001
0000
1000
0010
0100
0000
0110
0000
,  // measure 81
0010
0000
0100
0001
0010
0000
1100
0000
,  // measure 82
0100
1000
0100
0000
1000
0100
0010
0000
,  // measure 83
0100
0000
0000
0100
0000
0000
0100
0000
1000
0000
0000
1000
0000
0000
1000
0000
,  // measure 84
0001
1000
0010
0000
1000
0000
1001
0000
,  // measure 85
0001
0010
0100
0000
1000
0000
0100
0000
,  // measure 86
1100
0101
1100
0101
,  // measure 87
1000
0100
0001
0100
1000
0000
0001
0000
,  // measure 88
0110
0000
0000
0000
;

//---------------dance-single - ----------------
#NOTEDATA:;
#CHARTNAME:;
#STEPSTYPE:dance-single;
#DESCRIPTION:;
#CHARTSTYLE:;
#DIFFICULTY:Beginner;
#METER:4;
#RADARVALUES:0.141860,0.268879,0.145133,0.000000,0.000000,130.000000,111.000000,19.000000,0.000000,0.000000,0.000000,0.000000,0.000000,0.000000,0.141860,0.268879,0.145133,0.000000,0.000000,130.000000,111.000000,19.000000,0.000000,0.000000,0.000000,0.000000,0.000000,0.000000;
#CREDIT:Pandemonium X;
#NOTES:
// measure 0
0000
0000
0000
0000
,  // measure 1
0000
0000
0000
0000
,  // measure 2
0000
0000
0000
0000
,  // measure 3
0000
0000
0000
0000
,  // measure 4
0000
0000
0000
0000
,  // measure 5
0000
0000
0000
0000
,  // measure 6
1001
0000
0000
0000
,  // measure 7
0000
0000
0000
0000
,  // measure 8
0010
0000
0000
0000
,  // measure 9
1000
0000
0000
0000
,  // measure 10
1001
0000
0000
0000
,  // measure 11
0001
0000
0000
0000
,  // measure 12
0010
0000
0000
0000
,  // measure 13
0001
0000
0000
0000
,  // measure 14
1001
0000
0000
0000
,  // measure 15
0010
0000
0000
0000
,  // measure 16
0100
0000
0000
0000
,  // measure 17
0010
0000
0000
0000
,  // measure 18
0100
0000
0000
0000
,  // measure 19
0001
0000
0000
0000
,  // measure 20
1000
0000
0000
0000
,  // measure 21
0100
0000
0000
0000
,  // measure 22
1000
0000
0000
1000
,  // measure 23
0000
0000
1000
0001
,  // measure 24
1001
0000
0000
0010
,  // measure 25
0000
0000
0100
0000
,  // measure 26
0110
0000
0000
0001
,  // measure 27
0000
0000
1000
0000
,  // measure 28
1001
0000
0000
0010
,  // measure 29
0000
0000
0100
0000
,  // measure 30
0001
0000
0000
0001
,  // measure 31
0000
0000
0001
0000
,  // measure 32
0110
0000
0000
0000
,  // measure 33
1001
0000
0000
0000
,  // measure 34
0110
0000
0000
0000
,  // measure 35
1001
0000
0000
0000
,  // measure 36
1000
0000
0001
0000
,  // measure 37
0100
0000
0010
0000
,  // measure 38
1000
0000
0001
0000
,  // measure 39
0000
0000
0000
0000
,  // measure 40
1001
0000
0000
0000
,  // measure 41
0000
0000
0010
0000
,  // measure 42
1001
0000
0000
0000
,  // measure 43
0100
0000
0110
0000
,  // measure 44
1001
0000
0000
0000
,  // measure 45
0100
0000
0000
0010
,  // measure 46
1001
0000
0000
0000
,  // measure 47
0100
0000
0010
0000
,  // measure 48
1000
0000
0000
0000
,  // measure 49
0001
0000
0000
0000
,  // measure 50
1000
0000
0000
0000
,  // measure 51
0001
0000
0000
0000
,  // measure 52
0100
0000
0000
0000
,  // measure 53
0010
0000
0000
0000
,  // measure 54
0100
0000
0000
0000
,  // measure 55
1001
0000
0000
0000
,  // measure 56
0010
0000
0000
0000
,  // measure 57
1000
0000
0000
0000
,  // measure 58
0100
0000
0000
0000
,  // measure 59
1000
0000
0000
0000
,  // measure 60
0001
0000
0000
0000
,  // measure 61
0100
0000
0000
0000
,  // measure 62
0001
0000
0000
0000
,  // measure 63
0010
0000
0001
0000
,  // measure 64
0000
1000
0001
0000
,  // measure 65
0100
0000
0010
0000
,  // measure 66
0000
1000
0100
0000
,  // measure 67
1000
0000
0001
0000
,  // measure 68
0000
0100
0010
0000
,  // measure 69
1000
0000
0000
0001
,  // measure 70
0000
0000
1000
0000
,  // measure 71
0001
0000
0000
0110
,  // measure 72
1001
0000
1000
0000
,  // measure 73
0010
0000
0000
0000
,  // measure 74
1000
0000
0100
0000
,  // measure 75
0010
0000
0000
0000
,  // measure 76
0100
0000
1000
0000
,  // measure 77
0001
0000
0000
0000
,  // measure 78
0100
0000
0000
0000
,  // measure 79
0010
0000
0000
0000
,  // measure 80
1000
0000
0001
0000
,  // measure 81
0010
0000
0000
0000
,  // measure 82
0001
0000
1000
0000
,  // measure 83
0100
0000
0000
0000
,  // measure 84
1000
0000
0010
0000
,  // measure 85
1000
0000
0000
0000
,  // measure 86
0001
0000
1000
0000
,  // measure 87
0001
1000
0010
0100
,  // measure 88
1001
0000
0000
0000
;
