#TITLE:Feel Your Light;
#SUBTITLE:;
#ARTIST:Costa & Ellem;
#TITLETRANSLIT:;
#SUBTITLETRANSLIT:;
#ARTISTTRANSLIT:;
#GENRE:VOCAL TRANCE;
#CREDIT:;
#BANNER:banner.png;
#BACKGROUND:background.png;
#LYRICSPATH:;
#CDTITLE:CDTITLE.png;
#MUSIC:Feel Your Light.ogg;
#OFFSET:-0.161000;
#SAMPLESTART:93.910995;
#SAMPLELENGTH:15.000000;
#SELECTABLE:YES;
#BPMS:0.000000=128.000000
;
#STOPS:100.000000=1.406000
;
#BGCHANGES:;
#KEYSOUNDS:;
#ATTACKS:;

//---------------dance-single - ----------------
#NOTES:
     dance-single:
     :
     Hard:
     11:
     0.372779,0.460180,0.360465,0.219413,0.058771,333.000000,287.000000,46.000000,28.000000,0.000000,0.000000,0.372779,0.460180,0.360465,0.219413,0.058771,333.000000,287.000000,46.000000,28.000000,0.000000,0.000000:
// measure 0
0000
0000
0000
0000
,  // measure 1
1000
0001
0010
0001
,  // measure 2
1000
0010
1000
0001
,  // measure 3
1000
0000
0010
1000
0000
1000
0002
0000
,  // measure 4
0013
0100
1000
0100
,  // measure 5
0010
0001
0010
0100
,  // measure 6
1000
0010
0100
0001
,  // measure 7
0000
1000
0000
1000
,  // measure 8
0001
0000
0000
1000
0001
0000
0000
0001
1000
0000
0000
0010
1000
0000
0001
0000
,  // measure 9
0200
0000
0301
0010
0100
1000
0100
0010
,  // measure 10
0001
1000
0010
0100
0001
1000
0100
1000
,  // measure 11
0001
0100
0000
1100
0000
0101
0000
0011
,  // measure 12
0000
1010
0000
2001
0000
3000
0000
0000
,  // measure 13
0002
0000
0013
0001
0100
0010
1000
0100
,  // measure 14
0010
0001
0010
0001
0100
0010
0100
0010
,  // measure 15
1000
0001
0000
0011
0000
1100
0000
0101
,  // measure 16
0000
1010
0000
2001
0000
0000
3000
0000
,  // measure 17
0001
0000
0000
1000
0010
0000
0000
0000
0100
0000
0001
0000
0010
0000
0000
0000
,  // measure 18
0100
0000
0000
1000
0001
0000
0000
0000
0010
0000
0100
0000
1000
0000
0001
0000
,  // measure 19
0100
0001
0000
0011
0000
0101
0000
1010
,  // measure 20
0000
1001
0000
1200
0000
0000
0000
0000
,  // measure 21
0310
0000
0000
0100
1000
0000
0000
0000
0010
0000
1000
0000
0100
0000
0000
0000
,  // measure 22
1000
0000
0000
0001
0010
0000
0000
0000
0100
0000
0010
0000
0001
0000
1000
0000
,  // measure 23
0001
0100
0000
1020
0000
0000
0130
0001
,  // measure 24
0000
1001
0000
0210
0000
0000
0000
0300
,  // measure 25
0000
0000
1000
0001
0000
0010
0000
0100
,  // measure 26
0000
0010
0000
0001
0000
1000
0000
0010
,  // measure 27
0000
0200
0010
0000
0000
0001
0000
0000
,  // measure 28
0020
0000
0000
0000
,  // measure 29
0330
0000
0100
0010
0000
1000
0000
0001
,  // measure 30
0000
0010
0000
0001
0000
1000
0000
0010
,  // measure 31
0000
2000
0100
0000
0000
0010
0000
0000
,  // measure 32
0002
0000
0000
0000
,  // measure 33
3003
0000
0001
0100
0000
0101
0000
1100
,  // measure 34
0000
2001
0000
0000
0000
0000
0000
0000
,  // measure 35
3000
0001
0010
0100
0000
1010
0000
0101
,  // measure 36
0000
0021
0000
0000
0000
0230
0000
0000
,  // measure 37
0300
0000
1000
0100
0000
1100
0000
0011
,  // measure 38
0000
0101
0000
1010
0000
1001
0000
0110
,  // measure 39
0000
1002
1000
0000
0000
0010
0000
0000
,  // measure 40
0200
0000
0000
0000
,  // measure 41
0303
0000
1000
0000
0001
0000
0010
0100
,  // measure 42
0010
0000
0100
0000
1000
0000
0001
0100
,  // measure 43
0001
0000
0010
0000
0001
0000
1000
0010
,  // measure 44
1000
0000
0001
0000
0010
0000
0100
1000
,  // measure 45
0100
0000
1000
0000
0001
0000
0100
0010
,  // measure 46
0100
0000
0010
0000
1000
0000
0001
0010
,  // measure 47
0001
0000
0010
0000
0100
0000
1000
0001
,  // measure 48
1000
0000
0001
0000
0100
0000
0010
1000
,  // measure 49
0010
0000
0000
0000
1000
0000
0000
0000
0011
0000
0000
0010
0100
0000
1000
0000
,  // measure 50
0010
0000
0100
0000
0001
0000
0000
0000
1001
0000
0000
0001
0100
0000
0001
0000
,  // measure 51
0010
0000
0100
0000
1000
0000
0000
0000
1001
0000
0000
1000
0010
0000
1000
0000
,  // measure 52
0001
0000
0010
0000
0100
0000
0000
0000
0011
0000
0000
1000
0100
0000
0010
0000
,  // measure 53
0001
0000
1000
0000
0001
0000
0000
0000
1010
0000
0000
0001
0010
0000
0001
0000
,  // measure 54
0100
0000
0010
0000
1000
0000
0000
0000
1010
0000
0000
1000
0010
0000
1000
0000
,  // measure 55
0001
0000
0010
0000
0001
0000
0000
0000
1100
0000
0000
0001
0100
0000
0001
0000
,  // measure 56
0010
0000
0001
0000
1000
0000
0000
0000
0110
0000
0000
0100
0010
0000
1000
0000
,  // measure 57
0001
0010
0100
2000
0000
3020
0000
0230
,  // measure 58
0000
0002
0000
0000
0000
0000
0000
0000
,  // measure 59
0303
0001
0010
2000
0000
3020
0000
0032
,  // measure 60
0000
2003
0000
0000
0000
0002
0000
0000
,  // measure 61
3003
0000
0001
0100
0000
0101
0000
1010
,  // measure 62
0000
1100
0000
0011
0000
1001
0000
0110
,  // measure 63
0000
2001
0001
0000
0000
0010
0000
0000
,  // measure 64
0200
0000
0000
0000
,  // measure 65
0000
3300
0000
0000
;

//---------------dance-single - ----------------
#NOTES:
     dance-single:
     :
     Medium:
     7:
     0.292178,0.434615,0.250758,0.321284,0.000000,261.000000,229.000000,32.000000,41.000000,0.000000,0.000000,0.292178,0.434615,0.250758,0.321284,0.000000,261.000000,229.000000,32.000000,41.000000,0.000000,0.000000:
// measure 0
0000
0000
0000
0000
,  // measure 1
1000
0001
0010
0001
,  // measure 2
1000
0010
1000
0100
,  // measure 3
0020
0000
0000
0032
0000
0000
0200
0000
,  // measure 4
0000
0000
0000
0303
,  // measure 5
0010
1000
0100
1000
,  // measure 6
0001
0010
0001
1000
,  // measure 7
0000
0001
0000
0100
,  // measure 8
1001
0010
1001
0100
,  // measure 9
1001
0000
0001
1000
0010
0000
1000
0100
,  // measure 10
0000
0001
0000
0200
0000
0000
0310
0000
,  // measure 11
0001
0100
0000
1000
0000
0100
0000
0110
,  // measure 12
0000
1010
0000
0102
0000
0000
0003
0000
,  // measure 13
0000
1000
0001
0010
0100
0000
0010
0001
,  // measure 14
0000
1000
0000
0200
0000
0000
1300
0000
,  // measure 15
0010
0100
0000
1001
0000
0011
0000
0110
,  // measure 16
0000
1100
0000
2001
0000
0000
3000
0000
,  // measure 17
0001
0100
0020
1000
,  // measure 18
0230
0000
0001
0000
0310
0000
0100
0001
,  // measure 19
0010
0100
0000
0010
0000
0001
0000
1000
,  // measure 20
0000
0010
0000
0200
0000
0000
0000
0000
,  // measure 21
0310
1000
0002
0013
,  // measure 22
0200
0000
1000
0000
0010
0000
1300
0010
,  // measure 23
0100
0001
0000
2000
0000
0000
3000
0110
,  // measure 24
0000
1001
0000
0210
0000
0000
0300
0000
,  // measure 25
0000
0000
1000
0000
0010
1000
0000
1000
,  // measure 26
0010
0000
0100
0000
0001
0100
0000
0100
,  // measure 27
0001
0000
0020
0000
0130
2000
0000
3001
,  // measure 28
0200
0000
0000
0000
,  // measure 29
0000
0000
0301
0000
0001
0100
0000
0100
,  // measure 30
0010
0000
0010
0000
0010
0100
0000
0100
,  // measure 31
0001
0000
1000
0000
0001
0100
0000
0010
,  // measure 32
2000
0000
0000
0000
,  // measure 33
3000
0000
0001
0100
0000
0010
0000
1000
,  // measure 34
0000
0200
0000
0000
0000
0000
0000
0000
,  // measure 35
0300
0010
0001
0100
0000
0010
0000
1000
,  // measure 36
0000
0002
0000
0000
0000
2000
0000
0000
,  // measure 37
3003
0000
1000
0001
0000
0010
0000
0001
,  // measure 38
0000
1000
0000
0001
0000
1001
0000
0110
,  // measure 39
0000
1001
0002
0000
0000
0203
0000
0000
,  // measure 40
0020
0000
0000
0000
,  // measure 41
0330
0000
0100
0000
0010
0000
1000
0010
,  // measure 42
1000
0000
0001
0000
0010
0000
0100
0010
,  // measure 43
0100
0000
0010
0000
0001
0000
1000
0010
,  // measure 44
1000
0000
0010
0000
0100
0000
0001
0010
,  // measure 45
0100
1000
0100
0000
1000
0000
0010
0100
,  // measure 46
0010
0000
0100
0000
0001
0000
0010
0100
,  // measure 47
0010
0000
0100
0000
1000
0000
0001
0100
,  // measure 48
0001
0000
0100
0000
0010
0000
0100
0010
,  // measure 49
1000
0001
0010
0100
0000
1100
0000
0011
,  // measure 50
0000
1100
0000
0011
0000
1100
0000
0011
,  // measure 51
0000
0001
2000
0000
0000
3020
0000
0000
,  // measure 52
0200
0000
0000
0000
,  // measure 53
0330
0000
0100
0010
0000
1010
0000
0101
,  // measure 54
0000
1010
0000
0101
0000
1010
0000
0101
,  // measure 55
0000
0001
2000
0000
0000
3200
0000
0000
,  // measure 56
2300
0000
0000
0000
,  // measure 57
3000
0000
0001
0200
0000
2300
0000
3200
,  // measure 58
0000
0320
0000
0000
0000
0000
0000
0000
,  // measure 59
0030
0100
0001
2000
0000
3200
0000
0302
,  // measure 60
0000
0203
0000
0000
0000
2000
0000
0000
,  // measure 61
3300
0000
1000
0001
0000
0100
0000
0010
,  // measure 62
0000
1000
0000
0001
0000
1001
0000
0110
,  // measure 63
0000
2002
0000
0000
0000
0000
0000
0000
,  // measure 64
0000
0000
0000
0000
,  // measure 65
0000
3003
0000
0000
;

//---------------dance-single - ----------------
#NOTES:
     dance-single:
     :
     Easy:
     3:
     0.104109,0.178959,0.023509,0.054853,0.000000,93.000000,90.000000,3.000000,7.000000,0.000000,0.000000,0.104109,0.178959,0.023509,0.054853,0.000000,93.000000,90.000000,3.000000,7.000000,0.000000,0.000000:
// measure 0
0000
0000
0000
0000
,  // measure 1
1000
0000
0000
0000
,  // measure 2
0010
0000
0000
0000
,  // measure 3
1000
0000
0000
0000
,  // measure 4
0100
0000
0000
0000
,  // measure 5
0010
0000
0000
0000
,  // measure 6
0001
0000
0000
0000
,  // measure 7
1000
0000
0000
0000
,  // measure 8
0010
0000
0100
0000
,  // measure 9
1001
0001
0000
0000
,  // measure 10
1000
0000
0000
0000
,  // measure 11
0010
0000
1000
0000
,  // measure 12
0100
0100
0100
0000
,  // measure 13
1000
0000
0000
0000
,  // measure 14
0001
0000
0000
0000
,  // measure 15
0100
0000
0010
0000
,  // measure 16
1000
1000
1000
0000
,  // measure 17
0000
0000
0002
0000
,  // measure 18
0000
0000
0003
0100
,  // measure 19
0010
0000
1000
0000
,  // measure 20
0100
0000
1000
0000
,  // measure 21
0000
0000
0002
0000
,  // measure 22
0000
0000
0000
0003
,  // measure 23
1000
0000
0001
0000
,  // measure 24
0100
0010
0100
0000
,  // measure 25
0000
1000
0000
0000
,  // measure 26
0000
0001
0000
0000
,  // measure 27
0000
1000
0000
0000
,  // measure 28
0000
0010
0000
0000
,  // measure 29
0000
0100
0000
0000
,  // measure 30
0000
0010
0000
0000
,  // measure 31
0000
1000
0000
0000
,  // measure 32
0000
0100
0000
0000
,  // measure 33
0000
1000
0000
0000
,  // measure 34
0000
0001
0000
0000
,  // measure 35
0000
0010
0000
0000
,  // measure 36
0000
0001
0000
0000
,  // measure 37
0000
0100
0000
0000
,  // measure 38
0000
0010
0000
0000
,  // measure 39
0000
1000
0000
0000
,  // measure 40
0000
0001
0000
0000
,  // measure 41
0000
0100
0000
0000
,  // measure 42
0000
0010
0000
0000
,  // measure 43
0000
1000
0000
0000
,  // measure 44
0000
0001
0000
0000
,  // measure 45
0000
0010
0000
0000
,  // measure 46
0000
0001
0000
0000
,  // measure 47
0000
1000
0000
0000
,  // measure 48
0000
0001
0000
1000
,  // measure 49
0000
0110
0000
0100
,  // measure 50
0000
0010
0000
1000
,  // measure 51
0001
0200
0000
0000
,  // measure 52
0000
0300
0000
0000
,  // measure 53
0000
0010
0000
1000
,  // measure 54
0000
0100
0000
0010
,  // measure 55
0001
2000
0000
0000
,  // measure 56
0000
3000
0000
0000
,  // measure 57
0000
0001
1000
0010
,  // measure 58
0100
0002
0000
0000
,  // measure 59
0003
0010
0100
1000
,  // measure 60
0100
0020
0000
0000
,  // measure 61
0030
0100
0000
0010
,  // measure 62
0000
0001
0000
1000
,  // measure 63
0001
2000
0000
0000
,  // measure 64
0000
0000
0000
3000
,  // measure 65
0000
0110
0000
0000
;

//---------------dance-single - ----------------
#NOTES:
     dance-single:
     :
     Beginner:
     1:
     0.060451,0.102262,0.000000,0.000000,0.000000,54.000000,54.000000,0.000000,0.000000,0.000000,0.000000,0.060451,0.102262,0.000000,0.000000,0.000000,54.000000,54.000000,0.000000,0.000000,0.000000,0.000000:
// measure 0
0000
0000
0000
0000
,  // measure 1
0000
0000
0000
0000
,  // measure 2
0000
0000
0000
0000
,  // measure 3
0000
0000
0000
0000
,  // measure 4
0000
0000
0000
0000
,  // measure 5
0001
0000
0000
0000
,  // measure 6
1000
0000
0000
0000
,  // measure 7
0010
0000
0000
0000
,  // measure 8
0100
0000
0000
0000
,  // measure 9
0000
0001
0000
0000
,  // measure 10
0000
0000
0000
0000
,  // measure 11
1000
0000
0000
0000
,  // measure 12
0000
0000
0000
0000
,  // measure 13
0010
0000
0000
0000
,  // measure 14
0000
0000
0000
0000
,  // measure 15
1000
0000
0000
0000
,  // measure 16
0001
0000
0000
0000
,  // measure 17
0000
0000
0010
0000
,  // measure 18
0000
0000
0000
0100
,  // measure 19
0001
0000
0000
0000
,  // measure 20
1000
0000
0000
0000
,  // measure 21
0000
0000
0010
0000
,  // measure 22
0000
0000
0000
1000
,  // measure 23
0001
0000
0000
0000
,  // measure 24
1000
0000
0000
0000
,  // measure 25
0000
0010
0000
0000
,  // measure 26
0000
0100
0000
0000
,  // measure 27
0000
0001
0000
0000
,  // measure 28
0000
0000
0000
0000
,  // measure 29
0000
1000
0000
0000
,  // measure 30
0000
0100
0000
0000
,  // measure 31
0000
0010
0000
0000
,  // measure 32
0000
0000
0000
0000
,  // measure 33
0000
0001
0000
0000
,  // measure 34
0000
1000
0000
0000
,  // measure 35
0000
0010
0000
0000
,  // measure 36
0000
1000
0000
0000
,  // measure 37
0000
0100
0000
0000
,  // measure 38
0000
1000
0000
0000
,  // measure 39
0000
0010
0000
0000
,  // measure 40
0000
0000
0000
0000
,  // measure 41
0000
0100
0000
0000
,  // measure 42
0000
0001
0000
0000
,  // measure 43
0000
1000
0000
0000
,  // measure 44
0000
0010
0000
0000
,  // measure 45
0000
1000
0000
0000
,  // measure 46
0000
0001
0000
0000
,  // measure 47
0000
0010
0000
0000
,  // measure 48
0000
0100
0000
0000
,  // measure 49
0000
1000
0000
0000
,  // measure 50
0000
0001
0000
0000
,  // measure 51
0000
0100
0000
0000
,  // measure 52
0000
0000
0000
0000
,  // measure 53
0000
0010
0000
0000
,  // measure 54
0000
1000
0000
0000
,  // measure 55
0000
0100
0000
0000
,  // measure 56
0000
0000
0000
0000
,  // measure 57
0000
1000
0000
0001
,  // measure 58
0000
1000
0000
0000
,  // measure 59
0000
0010
0000
0100
,  // measure 60
0000
0010
0000
0000
,  // measure 61
0000
1000
0000
0000
,  // measure 62
0000
0001
0000
0000
,  // measure 63
0000
0100
0000
0000
,  // measure 64
0000
0000
0000
0000
,  // measure 65
0000
0010
0000
0000
;
