#VERSION:0.83;
#TITLE:Euphoric Lagoon;
#SUBTITLE:;
#ARTIST:TAG;
#TITLETRANSLIT:;
#SUBTITLETRANSLIT:;
#ARTISTTRANSLIT:;
#GENRE:J-DANCE FUSION;
#ORIGIN:;
#CREDIT:;
#BANNER:banner.png;
#BACKGROUND:background.png;
#PREVIEWVID:;
#JACKET:jacket.png;
#CDIMAGE:;
#DISCIMAGE:;
#LYRICSPATH:;
#CDTITLE:CDTITLE.png;
#MUSIC:Euphoric Lagoon.ogg;
#OFFSET:1.560000;
#SAMPLESTART:14.564694;
#SAMPLELENGTH:24.563759;
#SELECTABLE:YES;
#BPMS:0.000=149.000;
#STOPS:;
#DELAYS:;
#WARPS:;
#TIMESIGNATURES:0.000=4=4;
#TICKCOUNTS:0.000=4;
#COMBOS:0.000=1;
#SPEEDS:0.000=1.000=0.000=0;
#SCROLLS:0.000=1.000;
#FAKES:;
#LABELS:0.000=Song Start;
#BGCHANGES:4.000=Euphoric Lagoon.avi=1.000=1=0=1===CrossFade==,
99999=-nosongbg-=1.000=0=0=0 // don't automatically add -songbackground-
;
#KEYSOUNDS:;
#ATTACKS:
;

//---------------dance-single - ----------------
#NOTEDATA:;
#CHARTNAME:;
#STEPSTYPE:dance-single;
#DESCRIPTION:;
#CHARTSTYLE:;
#DIFFICULTY:Hard;
#METER:14;
#RADARVALUES:0.503612,0.706674,0.315335,0.444703,0.545772,436.000000,397.000000,39.000000,55.000000,0.000000,0.000000,2.000000,0.000000,0.000000,0.503612,0.706674,0.315335,0.444703,0.545772,436.000000,397.000000,39.000000,55.000000,0.000000,0.000000,2.000000,0.000000,0.000000;
#CREDIT:Pandemonium X;
#NOTES:
0000
0000
0000
0000
,
0000
0000
0000
0000
,
0000
0000
0000
0000
,
0000
0000
0000
0000
,
0000
0000
0000
0000
,
0010
0000
0000
0000
,
0010
0000
1000
0000
,
0001
0000
0000
0000
,
1000
0000
0000
0000
,
0001
0000
0000
0000
0000
0000
0000
0000
0000
0000
0000
0100
0010
1000
0010
0100
,
0001
0000
0000
0010
0000
0000
0200
0000
0000
0000
0310
0000
0001
1000
0001
0100
,
0001
0000
0000
1000
0000
0000
0200
0000
0000
0000
0310
0000
0001
0000
1000
0000
,
0010
0000
0000
1000
0000
0000
0002
0000
0000
0000
0003
0000
0000
0000
1000
0001
,
0100
0000
0010
1000
0000
0010
0000
1000
0000
0100
0010
0000
0100
0000
1000
0000
,
0001
0000
0000
1000
0000
0000
0020
0000
0000
0000
0130
0000
0001
1000
0001
0100
,
0001
0000
0000
0010
0000
0000
0002
0000
0000
0000
1003
0000
0010
0000
1000
0200
,
0000
0000
0000
0000
0000
0000
0000
0000
0300
0000
0020
0000
0000
0032
0000
0000
,
0203
0000
0000
0320
0000
0000
2030
0000
3002
0000
0000
2003
0000
0000
3200
0000
,
0310
0000
0000
0100
0000
0000
2000
0000
0000
0000
3001
0000
1000
0010
0100
0010
,
1000
0000
0000
0001
0000
0000
0020
0000
0000
0000
0130
0000
1000
0000
0010
0000
,
0100
0000
0000
0001
0000
0000
2000
0000
0000
0000
0000
0000
3000
0000
0001
1000
,
0001
0000
0010
0100
0000
0010
0000
0100
0000
0010
0001
0000
0100
0000
0010
0000
,
1000
0000
0000
0100
0000
0000
0020
0000
0000
0000
0130
0000
0010
0001
1000
0010
,
1000
0000
0000
0001
0000
0000
0020
0000
0000
0000
0130
0000
1000
0000
0010
0200
,
0000
0000
0000
0000
,
0300
0000
1001
0000
0000
1001
0000
0000
0110
0000
0000
0110
0000
0000
1010
0000
,
0110
0000
0000
0000
0100
0001
0100
0001
0100
0000
0001
0010
0000
0100
0000
0010
,
0000
0000
0100
0000
0000
0100
0000
0000
0100
0010
0000
1001
0000
0000
0000
0000
,
1000
0000
0000
0000
0001
0000
0010
0000
0001
0000
1000
0001
0000
0100
0000
0010
,
2000
3200
0320
0032
,
0103
0000
0010
0000
1000
0001
0000
0001
0000
0010
0001
0010
0001
1000
0001
0000
,
0100
0000
0010
0000
1000
0001
0000
0010
0000
0100
0010
0001
1000
0010
0100
0000
,
0010
0000
0000
1000
0000
0000
0200
0000
0000
0000
0310
0001
1000
0100
0010
0001
,
2000
0000
0000
0000
3020
0000
0000
0000
0230
0000
0002
0000
0300
0000
0013
0100
,
2000
0000
0000
0000
3000
0000
0000
0000
0001
0000
0000
0100
0000
0000
0010
0000
,
0200
0000
0000
0000
0300
0000
0010
0000
1000
0000
0000
0001
0000
0000
0100
0000
,
0002
0000
0000
0000
0003
0000
1000
0000
0001
0000
0000
0010
0000
0000
0001
0000
,
0200
0320
0230
0302
,
2003
0000
0000
0000
3000
0000
0001
0000
0010
0000
0000
0001
0000
0000
0100
0000
,
0020
0030
0200
0320
,
2030
0000
0000
0000
0000
0000
3002
0000
0000
0000
1003
0010
0100
0001
1000
0010
,
0100
0000
0000
1001
0000
0000
0110
0000
1001
0000
0000
0000
1001
0000
0000
0000
,
0101
0000
0000
1010
0000
0000
1000
0000
0001
0000
0010
0100
0000
0010
0000
0001
,
0000
1000
0001
0000
0100
0000
0010
0000
1000
0000
0100
0010
0000
0100
0000
1000
,
0010
0000
0000
0110
0000
0000
0100
0000
0010
0000
1000
0000
0001
0000
0010
0000
,
0004
4000
0000
0000
0000
0000
0000
0000
0000
0000
0000
0000
0000
0000
3003
0000
,
0010
1000
0000
0010
0000
0100
0001
0000
0010
0100
0000
0010
0000
0100
1000
0000
,
0010
0100
0000
0001
0000
1000
0001
0000
0010
0100
0000
0010
0000
0001
1000
0000
,
0100
0000
0000
0000
1000
0100
1000
0000
0001
0100
0001
0000
0100
0010
0100
0000
,
1001
0000
0000
0101
0000
0000
1001
0000
0000
1100
0000
0000
1001
0000
1001
0000
,
0001
0000
0100
0000
,
0001
0000
0010
0000
,
0001
0000
1000
0000
,
0100
0000
1000
0000
,
0010
0000
0100
0000
,
0001
0000
0010
0000
,
0001
0000
1000
0000
,
0100
0000
0000
0000
0000
0000
0000
0000
1000
0000
0000
0001
0010
0100
0010
0001
,
1000
0000
0000
0001
0000
0000
0200
0000
0000
0000
0310
0000
0100
0010
1000
0010
,
0100
0000
0000
0001
0000
0000
0020
0000
0000
0000
0130
0000
1000
0000
0001
0000
,
1000
0000
0000
0001
0000
0000
0020
0000
0000
0000
0030
0000
0000
0000
0100
0010
,
0001
0000
0010
0001
0000
0100
0000
0010
0000
0100
0001
0000
1000
0000
0100
0000
,
0010
0000
0000
0100
0000
0000
2000
0000
0000
0000
3001
0000
0100
0001
0010
0001
,
0100
0000
0000
0001
0000
0000
0020
0000
0000
0000
0130
0000
0010
0000
0100
2000
,
0000
0000
0000
0000
,
3000
0000
0011
0000
0000
1010
0000
0000
1001
0000
0000
1010
0000
0000
0101
0000
,
1001
0000
0000
0000
0110
0000
0000
0000
2010
0000
0000
0010
0000
0000
0001
0000
,
3002
0000
0000
0100
0000
0000
2003
0000
0000
0000
3001
0000
1000
0010
0000
1001
,
0000
0000
0001
0000
1000
0010
0000
0101
0000
0000
1000
0000
0001
0100
0000
0011
,
0000
0100
0000
0010
0001
1000
0001
0010
,
0110
0000
0000
0000
1100
0000
0000
0000
0021
0000
0000
0100
0000
0000
0031
0000
,
2000
0000
0000
0010
0000
0000
3002
0000
0000
0000
0103
0000
0010
1000
0000
1001
,
0000
0000
0100
0000
0010
1000
0000
1001
0000
0000
0100
0000
0010
1000
0000
0000
,
1001
0000
0000
0011
0000
0000
0110
0000
0100
0000
0100
0000
0100
0000
0100
0000
,
0020
0000
0000
0000
,
0000
0000
0000
0000
,
0030
0000
0000
0000
;

//---------------dance-single - ----------------
#NOTEDATA:;
#CHARTNAME:;
#STEPSTYPE:dance-single;
#DESCRIPTION:;
#CHARTSTYLE:;
#DIFFICULTY:Easy;
#METER:5;
#RADARVALUES:0.179036,0.239331,0.024257,0.105112,0.000000,155.000000,152.000000,3.000000,13.000000,0.000000,0.000000,0.000000,0.000000,0.000000,0.179036,0.239331,0.024257,0.105112,0.000000,155.000000,152.000000,3.000000,13.000000,0.000000,0.000000,0.000000,0.000000,0.000000;
#CREDIT:Pandemonium X;
#NOTES:
0000
0000
0000
0000
,
0000
0000
0000
0000
,
0000
0000
0000
0000
,
0000
0000
0000
0000
,
0000
0000
0000
0000
,
1000
0000
0000
0000
,
1000
0000
0010
0000
,
0100
0000
0000
0000
,
0010
0000
0000
0000
,
0100
0000
0000
0001
,
1001
0000
0001
0000
,
1000
0010
1000
0000
,
0010
0000
0100
0000
,
0001
0010
0100
1000
,
0100
0000
1000
0000
,
0010
1000
0010
0000
,
0200
0000
0000
0000
,
0300
0000
0000
0000
,
0010
0000
1000
0000
,
0001
0010
0001
0000
,
0100
0000
0010
0000
,
1000
0001
1000
0100
,
1000
0000
0010
0000
,
0100
0001
0010
0100
,
0020
0000
0000
0000
,
0030
0000
0000
0000
,
0100
0000
1000
0000
,
0010
0000
0100
0000
,
0001
0000
0010
0000
,
0100
0010
0001
1000
,
0100
0000
0000
1000
,
0010
0000
0000
0100
,
0001
0000
1000
0000
,
0010
0100
0001
0000
,
2000
3000
0001
1000
,
0020
0030
1000
0100
,
0020
0030
0100
1000
,
0001
1000
0010
0100
,
0002
0003
0010
0001
,
2000
3000
0001
1000
,
0010
0000
0000
0200
0000
0000
0000
0000
,
0310
0000
1001
0000
,
2000
3000
0000
0000
,
0000
0000
0000
0000
,
0002
0003
0000
0000
,
0200
0000
0000
0300
,
0010
0000
1000
0000
,
0100
0000
0010
0000
,
0001
0010
0001
0100
,
0010
0000
0000
0100
0000
0000
0001
0000
,
1000
0000
0100
0000
,
1000
0000
0010
0000
,
1000
0000
0001
0000
,
0010
0000
0001
0000
,
0100
0000
0001
0000
,
1000
0000
0100
0000
,
1000
0000
0010
0000
,
1000
0000
0010
0000
,
0100
0000
0010
0000
,
1000
0001
0010
0000
,
0100
0000
0010
0000
,
0001
1000
0100
1000
,
0001
0000
0100
0000
,
0001
0010
0100
0010
,
0200
0000
0000
0300
,
0000
1001
0000
0000
0000
0000
0000
0000
,
1000
0000
0001
0000
,
0100
0001
0010
0000
,
0100
0000
1000
0000
,
0010
0000
0100
0010
,
1000
0001
0010
0001
,
1000
0000
0000
0001
,
0000
0100
0000
0010
,
2000
0000
0000
0000
,
3000
0000
0000
0000
;

//---------------dance-single - ----------------
#NOTEDATA:;
#CHARTNAME:;
#STEPSTYPE:dance-single;
#DESCRIPTION:;
#CHARTSTYLE:;
#DIFFICULTY:Medium;
#METER:8;
#RADARVALUES:0.315335,0.418830,0.097026,0.121283,0.076812,273.000000,261.000000,12.000000,15.000000,0.000000,0.000000,0.000000,0.000000,0.000000,0.315335,0.418830,0.097026,0.121283,0.076812,273.000000,261.000000,12.000000,15.000000,0.000000,0.000000,0.000000,0.000000,0.000000;
#CREDIT:Pandemonium X;
#NOTES:
0000
0000
0000
0000
,
0000
0000
0000
0000
,
0000
0000
0000
0000
,
0000
0000
0000
0000
,
0000
0000
0000
0000
,
1000
0000
0000
0000
,
1000
0000
0010
0000
,
0100
0000
0000
0000
,
0010
0000
0000
0000
,
0100
0000
0000
0000
0000
0000
0001
1000
,
0100
0000
1000
0000
0010
0000
1000
0010
,
0100
0000
0010
0000
1000
0000
0001
0010
,
0100
0010
0001
0000
,
1000
0000
0001
0000
0100
0000
0010
0100
,
0001
0000
1000
0000
0100
0000
0010
0100
,
1000
0000
0100
0000
1000
0000
0010
0100
,
0002
0000
0000
0000
,
0003
0000
0000
0000
,
1000
0000
0001
0000
0010
0000
0100
0010
,
0001
0000
0010
0000
0100
0000
1000
0100
,
0010
0100
1000
0000
,
0010
0000
0100
0000
0001
0000
1000
0001
,
1000
0000
0001
0000
0010
0000
0100
0010
,
0001
0000
0010
0000
0001
0000
0100
0010
,
2000
0000
0000
0000
,
3000
0000
0001
0000
0000
0001
0000
0000
1000
0000
0000
1000
0000
0000
0001
0000
,
1000
0001
0100
0001
,
0020
0000
0000
0030
,
0100
0010
0001
1000
,
0002
2003
3020
0230
,
0301
0000
1000
0000
0010
0100
0010
0000
,
0100
0000
0010
0000
1000
0001
1000
0000
,
0001
0000
0010
0000
0001
0000
0010
0100
,
2000
0000
3200
0000
0310
0200
0000
0000
,
0310
0000
0000
0000
0000
0000
0000
0000
0100
0000
0000
1000
0000
0000
0010
0000
,
0100
0000
0000
0000
0000
0000
0010
0000
0100
0000
0000
0010
0000
0000
1000
0000
,
0001
0000
0000
0000
0000
0000
1000
0000
0100
0000
0000
1000
0000
0000
0010
0000
,
0200
0301
0200
0310
,
1000
0000
0000
0000
0000
0000
0001
0000
0010
0000
0000
0001
0000
0000
0010
0000
,
0200
0300
0010
0001
,
1000
0000
0000
0001
0000
1000
0100
0010
,
0001
0000
0000
0010
0000
0000
0100
0000
1000
0000
0000
0000
1001
0000
0000
0000
,
0110
0000
0000
0110
0000
0000
0000
0000
0000
0000
0000
0000
0000
0000
0000
0000
,
0000
0000
0000
0000
,
1010
0000
0000
0101
0000
0000
0000
0000
0000
0000
0000
0000
0000
0000
0000
0000
,
0020
0000
0000
0000
0000
0100
0030
0000
,
0011
0000
1100
0000
,
1010
0000
0011
0000
,
1001
0001
0100
0010
,
1000
0000
0000
0010
0000
0000
1000
0000
0000
0001
0000
0000
0010
0000
0100
0000
,
1000
0000
0010
0000
,
1000
0000
0001
0000
,
0010
0000
0001
0000
,
0100
0000
0001
0000
,
1000
0001
0100
0001
,
0010
0001
1000
0100
,
1000
0010
0100
0010
,
1000
0000
0001
0000
0010
0000
0100
0010
,
0001
0000
0010
0000
0001
0000
0100
0010
,
0100
0000
0010
0000
1000
0000
0001
1000
,
0100
1000
0010
0000
,
0100
0000
0010
0000
1000
0000
0001
0010
,
0100
0000
0010
0000
0001
0000
1000
0001
,
0100
0000
0001
0000
0010
0000
0001
0010
,
0200
0000
0000
0000
,
0300
0000
1000
0000
0000
0001
0000
0000
0010
0000
0000
0100
0000
0000
1000
0000
,
1100
1010
0001
1000
,
0001
0000
0000
0000
0010
0000
0000
0000
0001
0000
0000
0000
0100
0000
0000
0001
,
0000
0000
0100
0000
0010
0000
0000
0100
0000
0000
0010
0000
0100
0000
0000
0001
,
0000
1000
0000
0100
0010
0001
1000
0010
,
0100
0010
1000
0001
,
1000
0000
0000
0000
0001
0000
0000
0000
0100
0000
0000
0000
0010
0000
0000
1000
,
0000
0000
0010
0000
0100
0000
0000
0010
0000
0000
1000
0000
0001
0000
0000
0000
,
0010
0000
0000
0001
0000
0000
0100
0000
0010
0000
0100
0000
0001
0000
1000
0000
,
0010
0000
0000
0000
;

//---------------dance-single - ----------------
#NOTEDATA:;
#CHARTNAME:;
#STEPSTYPE:dance-single;
#DESCRIPTION:;
#CHARTSTYLE:;
#DIFFICULTY:Beginner;
#METER:3;
#RADARVALUES:0.106267,0.179498,0.072770,0.000000,0.000000,92.000000,83.000000,9.000000,0.000000,0.000000,0.000000,0.000000,0.000000,0.000000,0.106267,0.179498,0.072770,0.000000,0.000000,92.000000,83.000000,9.000000,0.000000,0.000000,0.000000,0.000000,0.000000,0.000000;
#CREDIT:Pandemonium X;
#NOTES:
0000
0000
0000
0000
,
0000
0000
0000
0000
,
0000
0000
0000
0000
,
0000
0000
0000
0000
,
0000
0000
0000
0000
,
1000
0000
0000
0000
,
0001
0000
0100
0000
,
0001
0000
0000
0000
,
0010
0000
0000
0000
,
0100
0000
0000
0000
,
1001
0000
0000
0000
,
1000
0000
0000
0000
,
0010
0000
0000
0000
,
1000
0000
0001
0000
,
1000
0000
0000
0000
,
0100
0000
0000
0000
,
0010
0000
0000
0000
,
0000
0000
0000
0000
,
0100
0000
0000
0000
,
1000
0000
0000
0000
,
0010
0000
0000
0000
,
0100
0000
0010
0000
,
0100
0000
0000
0000
,
0001
0000
0000
0000
,
1000
0000
0000
0000
,
0000
0000
0000
0000
,
0010
0000
0000
0000
,
1000
0000
0000
0000
,
0010
0000
0000
0000
,
0100
0000
0001
0000
,
1000
0000
0000
0001
,
1000
0000
0000
0001
,
1000
0000
0000
0000
,
0010
0000
0100
0000
,
1001
0000
0000
0000
,
0001
0000
0000
0000
,
1000
0000
0000
0000
,
0010
0000
0100
0000
,
0010
0000
0000
0000
,
1000
0000
0001
0001
,
1000
0000
0000
0000
,
0110
0000
0000
0000
,
1001
0000
0000
0000
,
0000
0000
0000
0000
,
0110
0000
0000
0000
,
1000
0000
0000
0000
,
1001
0000
0000
0000
,
0001
0000
0000
0000
,
0110
0000
0010
0000
,
0100
0000
0000
0000
,
0001
0000
0000
0000
,
1000
0000
0000
0000
,
0010
0000
0000
0000
,
0100
0000
0000
0000
,
0010
0000
0000
0000
,
1000
0000
0000
0000
,
0100
0000
0000
0000
,
0010
0000
0000
0000
,
1001
0000
0000
0000
,
0001
0000
0000
0000
,
0100
0000
0000
0000
,
0010
0000
1000
0000
,
0100
0000
0000
0000
,
0010
0000
0000
0000
,
0100
0000
0000
0000
,
0000
0000
0000
0000
,
1000
0000
0001
0000
,
0100
0000
0000
0010
,
0000
0010
0000
0010
,
0000
0000
0100
0000
,
0010
0000
1000
0000
,
0001
0000
0000
1000
,
0000
1000
0000
1000
,
0000
0000
0000
0000
,
0110
0000
0000
0000
;

//---------------dance-single - ----------------
#NOTEDATA:;
#CHARTNAME:;
#STEPSTYPE:dance-single;
#DESCRIPTION:;
#CHARTSTYLE:;
#DIFFICULTY:Challenge;
#METER:16;
#RADARVALUES:0.756573,1.226572,0.816637,0.654926,0.901535,655.000000,554.000000,101.000000,81.000000,0.000000,0.000000,0.000000,0.000000,0.000000,0.756573,1.226572,0.816637,0.654926,0.901535,655.000000,554.000000,101.000000,81.000000,0.000000,0.000000,0.000000,0.000000,0.000000;
#CREDIT:Pandemonium X;
#NOTES:
// measure 0
0000
0000
0000
0000
,  // measure 1
0000
0000
0000
0000
,  // measure 2
0000
0000
0000
0000
,  // measure 3
0000
0000
0000
0000
,  // measure 4
0000
0000
0000
0000
,  // measure 5
1000
0000
1000
0000
1000
0001
0000
0100
0000
0100
0000
0000
0010
0000
1000
0000
,  // measure 6
0100
0000
0100
0000
0100
0010
0000
0001
0000
0001
0000
0000
0010
0000
0100
0000
,  // measure 7
1000
0000
1000
0000
1000
0001
0000
0100
0000
0100
0000
0000
0010
0000
1000
0000
,  // measure 8
0100
0000
0100
0000
0100
0010
0000
0001
0000
0001
0000
0000
1000
0000
0001
0000
,  // measure 9
0220
0000
0000
0000
0000
0000
0000
0000
0330
0000
0000
1000
0010
0100
0001
0010
,  // measure 10
0100
0000
0000
1100
0000
0000
0022
0000
0033
0000
0011
0000
0010
0100
0010
0001
,  // measure 11
1000
0000
0000
0101
0000
0000
2020
0000
3030
0000
0110
0000
0010
0000
1000
0000
,  // measure 12
1001
0000
0000
1100
0000
0000
0220
0000
0000
0000
0330
0000
0000
0000
0100
1000
,  // measure 13
0010
0000
0100
0001
0000
0010
0000
1000
0000
0010
0001
0000
0100
0000
0010
0000
,  // measure 14
1010
0000
0000
0101
0000
0000
0022
0000
0033
0000
0011
0000
0010
0001
1000
0100
,  // measure 15
1000
0000
0000
0011
0000
0000
2020
0000
3030
0000
0110
0000
0010
0000
1000
0200
,  // measure 16
0000
0000
0000
0000
0000
0000
0000
0000
0000
0000
0320
0000
0000
0032
0000
0000
,  // measure 17
0203
0000
0000
2300
0000
0000
3200
0000
0320
0000
0000
2030
0000
0000
3002
0000
,  // measure 18
0013
0000
0000
0110
0000
0000
2200
0000
3300
0000
1100
0000
0100
1000
0001
0100
,  // measure 19
0010
0000
0000
0101
0000
0000
0022
0000
0033
0000
0110
0000
0010
0000
0001
0000
,  // measure 20
1001
0000
0000
0101
0000
0000
0220
0000
0000
0000
0330
0000
0000
0000
0010
0100
,  // measure 21
0001
0000
0010
1000
0000
0010
0000
0001
0000
0100
0010
0000
1000
0000
0100
0000
,  // measure 22
0110
0000
0000
1100
0000
0000
2002
0000
3003
0000
1001
0000
0001
0100
0001
1000
,  // measure 23
0100
0000
0000
0110
0000
0000
0022
0000
0033
0000
1100
0000
0100
0000
0010
0200
,  // measure 24
0000
0000
0000
0000
,  // measure 25
0300
0000
0110
0000
0000
0110
0000
0000
1001
0000
0000
1001
0000
0000
0110
0000
,  // measure 26
1001
0000
1000
0001
1000
0001
1000
0001
1000
0000
1000
0001
0000
0010
0000
0100
,  // measure 27
0000
0000
0110
0000
0000
0011
0000
0000
0010
0100
0000
1100
0000
0000
0000
0000
,  // measure 28
1000
0000
0000
0000
0001
0100
0001
0100
0001
0000
0100
0010
0000
1000
0000
0100
,  // measure 29
0010
0001
0010
0001
1000
0100
1000
0100
1000
0010
1000
0010
0100
0001
0100
0001
,  // measure 30
0010
0000
0100
0000
0010
0000
0001
1000
0000
0010
0100
0010
0100
0010
1000
0001
,  // measure 31
0010
0000
0100
0000
0010
0000
0001
0010
0000
0100
1000
0001
1000
0001
0100
0000
,  // measure 32
0010
0000
0000
0010
0000
0000
0020
0000
0000
0000
0130
0001
0010
0100
1000
0001
,  // measure 33
1000
0010
1000
0010
0100
0001
0100
0001
2000
0000
0002
0000
3003
0000
0001
0010
,  // measure 34
0200
0000
0000
0000
0310
0000
0000
0000
0200
0000
0000
2300
0000
0000
3010
0000
,  // measure 35
0200
0000
0000
0000
0301
0000
0010
0000
0020
0000
0000
0230
0000
0000
0320
0000
,  // measure 36
0032
0000
0000
0000
0103
0000
0010
0000
0020
0000
0000
2030
0000
0000
3001
0000
,  // measure 37
2001
3020
0032
0023
,  // measure 38
0230
0000
0000
0000
0301
0000
0200
0000
0320
0000
0000
2030
0000
0000
3200
0000
,  // measure 39
0320
0130
0020
0032
,  // measure 40
2003
0000
0000
0000
0000
0000
0020
0000
3000
0030
0100
0001
0010
1000
0010
0001
,  // measure 41
1001
0000
0000
1010
0000
0000
0101
0000
1001
0000
0000
0000
1001
0000
0000
0000
,  // measure 42
0110
0000
0000
0110
0000
0000
1000
0001
0010
0100
0010
0000
0000
0100
1000
0001
,  // measure 43
1000
0100
0000
0000
1000
0000
0010
0000
0100
0000
0001
0010
0000
0100
0000
0010
,  // measure 44
0001
0100
0010
1000
0010
0100
0001
1000
0010
0100
0010
1000
0001
0100
0010
1000
,  // measure 45
0001
1000
0001
1000
0001
1000
0001
1000
0001
1000
0001
1000
0001
1000
0001
1000
0001
1000
0001
1000
0001
1000
0001
1000
,  // measure 46
0100
0010
0000
0011
0000
1000
0100
0010
0001
1000
0000
1001
0000
0001
0010
0001
,  // measure 47
0100
0010
0000
1010
0000
1000
0100
0010
0100
1000
0000
0011
0000
0010
0100
1000
,  // measure 48
0001
0000
0000
0000
1000
0100
0010
0001
1000
0100
0010
0001
1000
0100
0010
0001
,  // measure 49
1001
0000
0000
0011
0000
0000
1001
0000
0000
0011
0000
0000
1001
0000
1001
0000
,  // measure 50
1000
0000
0001
0100
0000
0001
1000
0000
0001
0010
0000
0001
1000
0000
0001
0000
,  // measure 51
1000
0000
1000
0010
0000
1000
0001
0000
1000
0100
0000
1000
0001
0000
1000
0000
,  // measure 52
0001
0000
0001
0100
0000
0001
1000
0000
0001
0010
0000
0001
1000
0000
0001
0000
,  // measure 53
1000
0000
1000
0100
0000
1000
0001
0000
1000
0010
0000
1000
0001
0000
1000
0000
,  // measure 54
0001
0000
0100
1000
0000
0100
0001
0000
0100
1000
0000
0100
0001
0000
1000
0000
,  // measure 55
0001
0000
0010
1000
0000
0010
0001
0000
0010
1000
0000
0010
0001
0000
1000
0000
,  // measure 56
0010
0000
1000
0010
0000
0100
0001
0000
0010
0001
0000
1000
0100
0000
0010
0000
,  // measure 57
0100
0000
1000
0100
0000
0010
0100
0000
1000
0010
0000
0100
0010
1000
0001
0010
,  // measure 58
0100
0000
0000
1100
0000
0000
2020
0000
3030
0000
1010
0000
0010
0100
0001
1000
,  // measure 59
0100
0000
0000
0110
0000
0000
0022
0000
0033
0000
1100
0000
0100
0000
0010
0000
,  // measure 60
0110
0000
0000
1100
0000
0000
2020
0000
0000
0000
3030
0000
0000
0000
1000
0001
,  // measure 61
0010
0000
0100
1000
0000
0100
0000
0001
0000
0100
0010
0000
0001
0000
0010
0000
,  // measure 62
0110
0000
0000
0011
0000
0000
0202
0000
0303
0000
0101
0000
0001
1000
0100
0010
,  // measure 63
0100
0000
0000
0110
0000
0000
2200
0000
3300
0000
0110
0000
0010
0000
0001
2000
,  // measure 64
0000
0000
0000
0000
,  // measure 65
3000
0000
0101
0000
0000
0011
0000
0000
1001
0000
0000
1010
0000
0000
0110
0000
,  // measure 66
0101
0000
0000
0000
0011
0000
0000
0000
0110
0000
0000
1100
0000
0000
1000
0000
,  // measure 67
1002
0000
0000
0203
0000
0000
0320
0000
0000
0000
1030
0000
0100
0010
0000
0021
,  // measure 68
0000
0000
0130
0000
1000
0010
0000
0201
0000
0000
0310
0000
1000
0001
0000
2001
,  // measure 69
0000
3010
0000
0100
0010
1000
0100
0010
,  // measure 70
0011
0000
0000
0000
1100
0000
0000
0000
1001
0000
0000
1010
0000
0000
0101
0000
,  // measure 71
0021
0000
0000
0230
0000
0000
0320
0000
0000
0000
0031
0000
0100
0010
0000
1020
,  // measure 72
0000
0000
0130
0000
0001
0010
0000
0210
0000
0000
1300
0000
0100
0010
0000
0010
,  // measure 73
0011
0000
0000
1100
0000
0000
0011
0000
0010
0000
0010
0000
0010
0000
0010
0000
,  // measure 74
0110
0000
0000
0000
;
