#VERSION:0.83;
#TITLE:Elisha;
#SUBTITLE:-Rin Remix-;
#ARTIST:DJ YOSHITAKA;
#TITLETRANSLIT:;
#SUBTITLETRANSLIT:;
#ARTISTTRANSLIT:;
#GENRE:TRANCE CORE;
#ORIGIN:;
#CREDIT:;
#BANNER:banner.png;
#BACKGROUND:background.png;
#PREVIEWVID:;
#JACKET:jacket.png;
#CDIMAGE:;
#DISCIMAGE:;
#LYRICSPATH:;
#CDTITLE:CDTITLE.png;
#MUSIC:Elisha -Rin Remix-.ogg;
#OFFSET:-0.021000;
#SAMPLESTART:33.730728;
#SAMPLELENGTH:10.378380;
#SELECTABLE:YES;
#BPMS:0.000=185.000;
#STOPS:;
#DELAYS:;
#WARPS:;
#TIMESIGNATURES:0.000=4=4;
#TICKCOUNTS:0.000=4;
#COMBOS:0.000=1;
#SPEEDS:0.000=1.000=0.000=0;
#SCROLLS:0.000=1.000;
#FAKES:;
#LABELS:0.000=Song Start;
#BGCHANGES:;
#KEYSOUNDS:;
#ATTACKS:
;

//---------------dance-single - ----------------
#NOTEDATA:;
#CHARTNAME:;
#STEPSTYPE:dance-single;
#DESCRIPTION:;
#CHARTSTYLE:;
#DIFFICULTY:Hard;
#METER:13;
#RADARVALUES:0.533748,0.800223,0.362470,0.734235,0.464706,402.000000,363.000000,39.000000,79.000000,0.000000,0.000000,2.000000,0.000000,0.000000,0.533748,0.800223,0.362470,0.734235,0.464706,402.000000,363.000000,39.000000,79.000000,0.000000,0.000000,2.000000,0.000000,0.000000;
#CREDIT:Pandemonium X;
#NOTES:
// measure 0
0000
0000
0000
0000
,  // measure 1
0000
0000
0000
0000
,  // measure 2
0000
0000
0000
0000
,  // measure 3
0000
0000
0000
0000
,  // measure 4
0000
0000
0000
0000
,  // measure 5
0000
0000
0000
0000
,  // measure 6
0000
0000
0000
0000
,  // measure 7
0000
0000
0000
0000
,  // measure 8
1000
0000
0001
0000
0000
0100
0000
0000
0001
0000
0000
0010
0000
0000
0100
0000
,  // measure 9
0000
0000
0010
0000
0000
0100
0000
0000
1000
0000
0000
0010
0000
0000
0100
0000
,  // measure 10
0000
0000
0010
0000
0000
1000
0000
0000
0001
0000
0000
0010
0000
0000
0001
0000
,  // measure 11
0000
0000
1000
0000
0000
0100
0000
0000
0010
0000
0000
0001
0000
0000
1000
0000
,  // measure 12
0000
0000
0001
0000
0000
0010
0000
0000
0100
0000
0000
0010
0000
0000
0001
0000
,  // measure 13
0000
0000
1000
0000
0000
0100
0000
0000
0010
0000
0000
0100
0000
0000
1000
0000
,  // measure 14
0000
0000
0001
0000
0000
1000
0000
0000
0010
0000
0000
1000
0000
0000
0001
0000
,  // measure 15
0000
0000
1000
0000
0000
0001
0000
0000
0010
0000
0000
0001
0000
0000
1000
0000
,  // measure 16
1100
1000
0001
0101
,  // measure 17
1010
1000
0001
0011
,  // measure 18
1100
0100
0010
0011
,  // measure 19
1010
1000
0001
0101
,  // measure 20
4004
0000
0000
0000
,  // measure 21
0000
0000
0000
0000
,  // measure 22
0000
0000
0000
0000
,  // measure 23
0000
0000
0000
0000
0000
0000
0000
3003
,  // measure 24
0220
0000
0000
0000
0000
0000
0000
0330
,  // measure 25
2002
0000
3003
0000
,  // measure 26
1000
0000
0100
0000
0000
0010
0000
0000
0001
0000
0000
0100
0000
0000
0010
1000
,  // measure 27
0000
0000
0100
0000
0000
1000
0000
0000
0001
0000
0000
0100
0000
0000
0001
1000
,  // measure 28
0000
0000
0100
0000
0000
0010
0000
0000
0100
0000
0000
1000
0000
0000
0001
1000
,  // measure 29
0000
0000
0100
0000
0000
1000
0000
0000
0010
0000
0000
0100
0000
0000
0001
0010
,  // measure 30
0000
0000
0100
0000
0000
0010
0000
0000
0001
0000
0000
1000
0000
0000
0010
0100
,  // measure 31
0000
0000
0010
0000
0000
1000
0000
0000
0100
0000
0000
0010
0000
0000
0001
0010
,  // measure 32
0000
0000
0001
0000
0000
0100
0000
0000
0001
0000
0000
1000
0000
0000
0100
0010
,  // measure 33
0000
0000
0100
0000
0000
0010
0000
0000
0001
0000
0000
1000
0000
0000
0010
1000
,  // measure 34
0000
0000
0001
0000
0000
0100
0000
0000
1000
0000
0000
0100
0000
0000
0010
1000
,  // measure 35
0000
0000
1000
0000
0000
0100
0000
0000
0001
0000
0000
0100
0000
0000
0010
0001
,  // measure 36
0000
0000
0010
0000
0000
0001
0000
0000
1000
0000
0000
0100
0000
0000
1000
0010
,  // measure 37
0000
0000
0100
0000
0000
1000
0000
0000
0100
0000
0000
0001
0000
0000
0010
0001
,  // measure 38
0000
0000
1100
0000
0000
0011
0000
0000
0101
0000
0000
1010
0000
0000
1000
0001
,  // measure 39
0000
0000
0011
0000
0000
0110
0000
0000
1100
0000
0000
1010
0000
0000
1000
0001
,  // measure 40
0100
0000
0000
0010
0100
0000
0000
0001
1000
0000
0000
0010
0100
0000
0000
0001
,  // measure 41
2000
0100
3020
0130
,  // measure 42
0001
0000
0000
0001
0000
0000
0002
0000
0100
0000
0000
0100
0000
0000
0203
0000
,  // measure 43
0010
0000
0000
0010
0000
0000
0010
0000
0320
0000
0000
1000
0000
0000
1000
0000
,  // measure 44
2030
0000
0000
0100
0000
0000
0100
0000
3200
0000
0000
0010
0000
0000
0010
0000
,  // measure 45
0320
0000
0000
0001
0000
0000
0001
0000
0032
0000
0000
0100
0000
0000
0100
0000
,  // measure 46
0203
0000
0000
2300
0000
0000
3200
0000
0000
0302
0000
0000
0013
0000
0000
0000
,  // measure 47
0200
0000
0000
0302
0000
0000
0203
0000
0000
2300
0000
0000
3020
0000
0000
0000
,  // measure 48
0230
0000
0000
0320
0000
0000
2030
0000
0000
3002
0000
0000
0013
0000
0100
0000
,  // measure 49
2000
0000
0000
3200
0000
0000
0320
0000
0000
0032
0000
0000
1003
0000
0001
0000
,  // measure 50
2000
0000
0000
3010
0000
0000
0100
0000
0002
0000
0000
0013
0000
0000
0100
0000
,  // measure 51
0020
0000
0000
0031
0000
0000
0100
0000
0020
0000
0000
1030
0000
0000
0100
0000
,  // measure 52
0020
0000
0000
0130
0000
0000
1000
0000
0002
0000
0000
0103
0000
0000
0010
0000
,  // measure 53
0200
0000
0000
0301
0000
0000
0010
0000
0200
0000
0000
1300
0000
0000
0100
0000
,  // measure 54
0210
0000
0000
2300
0000
0000
3020
0000
0000
0230
0000
0000
0301
0000
1000
0000
,  // measure 55
1200
0000
0000
0320
0000
0000
0032
0000
0000
0203
0000
0000
0310
0000
1000
0000
,  // measure 56
1001
0000
0000
1010
0000
0000
1001
0000
0000
0011
0000
0000
0010
0100
0010
0000
,  // measure 57
1200
0000
0000
0000
0320
0000
0000
0000
0031
0010
0000
0000
0100
0000
1000
0000
,  // measure 58
1010
0000
0000
0101
0000
0000
0011
0000
,  // measure 59
0000
0110
0000
0000
1100
0000
0110
0000
,  // measure 60
0011
0000
0000
0101
0000
0000
1010
0000
,  // measure 61
0000
1001
0000
0000
0011
0000
0110
0000
,  // measure 62
0011
0000
0000
0010
0000
0000
0100
0000
1000
0000
0000
0001
0000
0000
0100
0000
,  // measure 63
0010
0000
0000
1000
0000
0000
0001
0000
0010
0000
0000
0001
0000
0000
1000
0000
,  // measure 64
0100
0010
0001
1000
0100
0010
0100
1000
,  // measure 65
0001
0000
0000
0000
1000
0010
1000
0010
2000
0000
0000
0000
3001
0000
0000
0000
,  // measure 66
0010
0000
0100
1000
0020
0000
1000
0000
,  // measure 67
0130
0000
0001
0020
0000
0100
0000
0031
,  // measure 68
0000
0200
0000
1300
0002
0000
0100
0000
,  // measure 69
0023
0000
0130
0020
0000
0001
0000
0130
,  // measure 70
0000
2000
0000
3100
2000
0000
0010
0000
,  // measure 71
3002
0000
0103
0020
0000
1000
0000
0130
,  // measure 72
0000
0020
0000
1030
0200
0000
0010
0000
,  // measure 73
2300
0000
3001
0200
0000
1000
0000
0310
,  // measure 74
0000
2000
0000
3100
0020
0000
0001
0000
,  // measure 75
0230
0000
1300
0020
0000
1000
0000
0130
,  // measure 76
0000
0020
0000
1030
0002
0000
0010
0000
,  // measure 77
2003
0000
3001
0200
0000
1000
0000
0310
,  // measure 78
0100
0002
0000
0013
0200
0000
0010
0000
,  // measure 79
0301
0000
0100
2000
0000
0010
0000
3001
,  // measure 80
0000
0200
0000
0310
2000
0000
0100
0000
,  // measure 81
3020
2030
0002
0000
,  // measure 82
3003
0000
0000
0000
;

//---------------dance-single - ----------------
#NOTEDATA:;
#CHARTNAME:;
#STEPSTYPE:dance-single;
#DESCRIPTION:;
#CHARTSTYLE:;
#DIFFICULTY:Medium;
#METER:11;
#RADARVALUES:0.458067,0.838329,0.576235,0.269529,0.209118,345.000000,283.000000,62.000000,29.000000,0.000000,0.000000,2.000000,0.000000,0.000000,0.458067,0.838329,0.576235,0.269529,0.209118,345.000000,283.000000,62.000000,29.000000,0.000000,0.000000,2.000000,0.000000,0.000000;
#CREDIT:Pandemonium X;
#NOTES:
// measure 0
0000
0000
0000
0000
,  // measure 1
0000
0000
0000
0000
,  // measure 2
0000
0000
0000
0000
,  // measure 3
0000
0000
0000
0000
,  // measure 4
0000
0000
0000
0000
,  // measure 5
0000
0000
0000
0000
,  // measure 6
0000
0000
0000
0000
,  // measure 7
0000
0000
0000
0000
,  // measure 8
2000
0000
3002
0000
,  // measure 9
0023
0000
0031
0100
,  // measure 10
0020
0000
2030
0000
,  // measure 11
3200
0000
2300
0000
,  // measure 12
3002
0000
2003
0000
,  // measure 13
3020
0000
1030
0100
,  // measure 14
0020
0000
0032
0000
,  // measure 15
0203
0000
0320
0000
,  // measure 16
1030
0001
0010
0011
,  // measure 17
1100
0100
1000
1010
,  // measure 18
0101
0001
0010
0110
,  // measure 19
1001
0001
1000
1010
,  // measure 20
4004
0000
0000
0000
,  // measure 21
0000
0000
0000
0000
,  // measure 22
0000
0000
0000
0000
,  // measure 23
0000
0000
0000
3003
,  // measure 24
0220
0000
0000
0000
,  // measure 25
0330
0000
0000
0000
,  // measure 26
1000
0000
0100
0000
0000
1000
0000
0000
0010
0000
0000
0100
0000
0000
0010
0000
,  // measure 27
0000
0000
0100
0000
0000
0001
0000
0000
0010
0000
0000
0100
0000
0000
1000
0000
,  // measure 28
0000
0000
0100
0000
0000
1000
0000
0000
0010
0000
0000
0100
0000
0000
0001
0000
,  // measure 29
0000
0000
1000
0000
0000
0100
0000
0000
0010
0000
0000
0100
0000
0000
1000
0000
,  // measure 30
0000
0000
0100
0000
0000
0010
0000
0000
0001
0000
0000
0010
0000
0000
0100
0000
,  // measure 31
0000
0000
0010
0000
0000
0001
0000
0000
0100
0000
0000
0010
0000
0000
1000
0000
,  // measure 32
0000
0000
0010
0000
0000
1000
0000
0000
0001
0000
0000
0010
0000
0000
0100
0000
,  // measure 33
0000
0000
0010
0000
0000
0001
0000
0000
0100
0000
0000
0010
0000
0000
1000
0000
,  // measure 34
0001
0000
0010
0000
0000
0100
0000
0000
1000
0000
0000
0100
0000
0000
1000
0000
,  // measure 35
0000
0000
0100
0000
0000
1000
0000
0000
0010
0000
0000
0100
0000
0000
0001
0000
,  // measure 36
0000
0000
1000
0000
0000
0100
0000
0000
0010
0000
0000
0100
0000
0000
1000
0000
,  // measure 37
0000
0000
0010
0000
0000
0100
0000
0000
0001
0000
0000
1000
0000
0000
0001
0000
,  // measure 38
0000
0000
0101
0000
0000
0101
0000
0000
0101
0000
0000
0101
0000
0000
0011
0000
,  // measure 39
0000
0000
1010
0000
0000
1010
0000
0000
1010
0000
0000
1010
0000
0000
0110
0000
,  // measure 40
0000
0000
1001
0000
0000
1001
0000
0000
1001
0000
0000
1001
0000
0000
0101
0000
,  // measure 41
0000
0000
0001
0000
0000
0100
0000
0000
0010
0000
0000
1000
0000
0000
0010
0000
,  // measure 42
2000
0000
0010
0000
,  // measure 43
0001
0000
0000
0000
3010
0100
0010
1000
,  // measure 44
0200
0000
0010
0000
,  // measure 45
2300
0000
3020
0030
,  // measure 46
1001
0000
0000
0001
0000
0000
0010
0000
0000
0001
0000
0000
0010
0000
0100
0000
,  // measure 47
1100
0000
0000
0100
0000
0000
1000
0000
0000
0010
0000
0000
0100
0000
0001
0000
,  // measure 48
0011
0000
0000
0010
0000
0000
0100
0000
0000
0010
0000
0000
0100
0000
1000
0000
,  // measure 49
1100
0000
0000
0100
0000
0000
0010
0000
0000
0001
0000
0000
1000
0000
0001
0000
,  // measure 50
2000
0000
0010
0000
,  // measure 51
0100
0000
0000
0000
3010
0100
0001
0010
,  // measure 52
0200
0000
0010
0000
,  // measure 53
2300
0000
0000
0000
3002
0000
0000
0003
,  // measure 54
0110
0000
0000
0010
0000
0000
0110
0000
0000
0100
0000
0000
0110
0000
0000
0000
,  // measure 55
1001
0000
0000
1000
0000
0000
1001
0000
0000
0001
0000
0000
1001
0000
0000
0000
,  // measure 56
0101
0000
0000
1010
0000
0000
1100
0000
0110
0000
0000
0000
0010
0000
0001
0000
,  // measure 57
1200
0000
0000
0300
,  // measure 58
1001
0000
0000
0011
0000
0000
1001
0000
,  // measure 59
0000
1010
0000
0000
1001
0000
0110
0000
,  // measure 60
0101
0000
0000
1100
0000
0000
0101
0000
,  // measure 61
0000
1100
0000
0000
1001
0000
0110
0000
,  // measure 62
0101
0000
0000
0100
0001
0000
0000
0100
,  // measure 63
0010
0000
0000
1000
0100
0000
0000
0010
,  // measure 64
0100
1000
0001
0010
,  // measure 65
2001
0000
0020
3000
0031
0010
0100
1000
,  // measure 66
0001
0100
0000
0010
1000
0000
0100
0000
,  // measure 67
1000
0000
0001
0100
0000
0010
0000
1000
,  // measure 68
0000
0001
0000
0001
0100
0000
0001
0000
,  // measure 69
1000
0000
0100
1000
0000
0010
0000
0100
,  // measure 70
0000
0001
0000
0100
0001
0000
1000
0000
,  // measure 71
0100
0000
0010
0100
0000
1000
0000
0001
,  // measure 72
0000
0010
0000
0001
0100
0000
0010
0000
,  // measure 73
1000
0000
0100
0001
0000
0100
0000
1000
,  // measure 74
0010
0100
0000
0010
1000
0000
0010
0000
,  // measure 75
0100
0000
0001
0010
0000
0110
0000
1100
,  // measure 76
0000
0100
0000
1000
0100
0000
0010
0000
,  // measure 77
0001
0000
0010
0100
0000
0110
0000
1001
,  // measure 78
0000
0001
0000
0100
0001
0000
0010
0000
,  // measure 79
0100
0000
1000
0100
0000
1100
0000
0011
,  // measure 80
0000
0010
0000
0100
0010
0000
1000
0000
,  // measure 81
1001
0110
2002
0000
,  // measure 82
3003
0000
0000
0000
;

//---------------dance-single - ----------------
#NOTEDATA:;
#CHARTNAME:;
#STEPSTYPE:dance-single;
#DESCRIPTION:;
#CHARTSTYLE:;
#DIFFICULTY:Easy;
#METER:6;
#RADARVALUES:0.298739,0.457270,0.130118,0.158000,0.000000,225.000000,211.000000,14.000000,17.000000,0.000000,0.000000,0.000000,0.000000,0.000000,0.298739,0.457270,0.130118,0.158000,0.000000,225.000000,211.000000,14.000000,17.000000,0.000000,0.000000,0.000000,0.000000,0.000000;
#CREDIT:Pandemonium X;
#NOTES:
// measure 0
0000
0000
0000
0000
,  // measure 1
0000
0000
0000
0000
,  // measure 2
0000
0000
0000
0000
,  // measure 3
0000
0000
0000
0000
,  // measure 4
0000
0000
0000
0000
,  // measure 5
0000
0000
0000
0000
,  // measure 6
0000
0000
0000
0000
,  // measure 7
0000
0000
0000
0000
,  // measure 8
1000
0000
0100
0000
,  // measure 9
0010
0000
0100
1000
,  // measure 10
0010
0000
0100
0000
,  // measure 11
0001
0000
0010
0100
,  // measure 12
1000
0000
0100
0000
,  // measure 13
1000
0000
0001
1000
,  // measure 14
0010
0000
0100
0000
,  // measure 15
0001
0000
0010
0100
,  // measure 16
1000
0000
0000
1000
,  // measure 17
0001
0000
0000
0001
,  // measure 18
1000
0000
0000
0010
,  // measure 19
0100
0000
0000
0010
,  // measure 20
2002
0000
0000
0000
,  // measure 21
0000
0000
0000
0000
,  // measure 22
0000
0000
0000
0000
,  // measure 23
0000
0000
0000
3003
,  // measure 24
0220
0000
0000
0000
,  // measure 25
0330
0000
0000
0000
,  // measure 26
1000
0001
0010
0001
,  // measure 27
0100
0010
1000
0100
,  // measure 28
1000
0001
0100
0010
,  // measure 29
1000
0000
0100
0000
0010
0000
0001
0010
,  // measure 30
0001
0100
0001
1000
,  // measure 31
0100
0010
0100
1000
,  // measure 32
0001
0100
0001
0010
,  // measure 33
0100
0000
0010
0000
0001
0000
1000
0001
,  // measure 34
1000
0010
0100
0100
,  // measure 35
0001
0010
0001
0001
,  // measure 36
1000
0100
0010
0010
,  // measure 37
0100
0000
1000
0000
0010
0000
0010
0100
,  // measure 38
0000
1001
0000
0000
0000
0000
0000
0000
,  // measure 39
0000
0110
0000
0000
0000
0000
0000
0000
,  // measure 40
0000
1001
0000
0000
0010
0000
0000
0000
,  // measure 41
2002
0000
0000
3003
,  // measure 42
0002
0000
0000
0000
,  // measure 43
0000
0000
0103
0001
,  // measure 44
0020
0000
0000
0030
,  // measure 45
0200
0000
0000
0300
,  // measure 46
1000
0001
0100
0101
,  // measure 47
0001
1000
0100
1100
,  // measure 48
1000
0001
0010
0011
,  // measure 49
0001
0000
1000
0000
0010
0000
0100
0001
,  // measure 50
0020
0000
0000
0000
,  // measure 51
0030
0000
0100
1000
,  // measure 52
0002
0000
0000
0003
,  // measure 53
2000
0000
3020
0000
,  // measure 54
0130
0010
1000
1100
,  // measure 55
0100
0010
0001
0101
,  // measure 56
0001
1000
0010
0110
,  // measure 57
1002
0000
0000
0000
,  // measure 58
0103
0000
0000
0100
0000
0000
0100
0000
,  // measure 59
0000
0100
0000
0000
0100
0000
0010
0000
,  // measure 60
1000
0000
0000
1000
0000
0000
1000
0000
,  // measure 61
0000
1000
0000
0000
1000
0000
0001
0000
,  // measure 62
0010
0000
0001
0000
,  // measure 63
0100
0000
1000
0000
,  // measure 64
0100
0010
1000
0001
,  // measure 65
2002
0000
0000
3003
,  // measure 66
0001
1000
0010
1000
,  // measure 67
0100
0001
0100
1000
,  // measure 68
0001
1000
0010
1000
,  // measure 69
0001
0010
1000
0010
,  // measure 70
0001
0010
0100
1000
,  // measure 71
0001
0100
1000
0100
,  // measure 72
0001
1000
0010
1000
,  // measure 73
0001
0010
1000
0010
,  // measure 74
0001
0010
0100
1000
,  // measure 75
0100
0100
0100
0100
,  // measure 76
0010
0001
1000
0010
,  // measure 77
1000
1000
1000
1000
,  // measure 78
0001
1000
0010
1000
,  // measure 79
0100
0100
0100
0100
,  // measure 80
0010
0001
1000
0010
,  // measure 81
0100
0001
2000
0000
,  // measure 82
3000
0000
0000
0000
;

//---------------dance-single - ----------------
#NOTEDATA:;
#CHARTNAME:;
#STEPSTYPE:dance-single;
#DESCRIPTION:;
#CHARTSTYLE:;
#DIFFICULTY:Beginner;
#METER:4;
#RADARVALUES:0.140739,0.340862,0.130118,0.000000,0.000000,106.000000,92.000000,14.000000,0.000000,0.000000,0.000000,0.000000,0.000000,0.000000,0.140739,0.340862,0.130118,0.000000,0.000000,106.000000,92.000000,14.000000,0.000000,0.000000,0.000000,0.000000,0.000000,0.000000;
#CREDIT:Pandemonium X;
#NOTES:
// measure 0
0000
0000
0000
0000
,  // measure 1
0000
0000
0000
0000
,  // measure 2
0000
0000
0000
0000
,  // measure 3
0000
0000
0000
0000
,  // measure 4
0000
0000
0000
0000
,  // measure 5
0000
0000
0000
0000
,  // measure 6
0000
0000
0000
0000
,  // measure 7
0000
0000
0000
0000
,  // measure 8
0100
0000
0000
0000
,  // measure 9
0000
0000
0010
0000
,  // measure 10
1000
0000
0000
0000
,  // measure 11
0001
0000
0000
0000
,  // measure 12
0100
0000
0000
0000
,  // measure 13
0000
0000
0000
0000
,  // measure 14
0001
0000
0000
0000
,  // measure 15
1000
0000
0000
0000
,  // measure 16
0010
0000
0000
0100
,  // measure 17
0100
0000
0000
0100
,  // measure 18
0100
0000
0000
0100
,  // measure 19
0100
0000
0000
0100
,  // measure 20
1001
0000
0000
0000
,  // measure 21
1000
0000
0000
0000
,  // measure 22
0001
0000
1000
0000
,  // measure 23
0001
0000
1000
0000
,  // measure 24
0110
0000
0000
0000
,  // measure 25
1001
0000
0000
0000
,  // measure 26
1000
0000
0000
0000
,  // measure 27
0010
0000
0000
0000
,  // measure 28
0100
0000
0000
0000
,  // measure 29
0001
0000
1000
0000
,  // measure 30
0100
0000
0000
0000
,  // measure 31
1000
0000
0000
0000
,  // measure 32
0010
0000
0000
0000
,  // measure 33
0100
0000
0001
0000
,  // measure 34
0010
0000
0000
0000
,  // measure 35
0100
0000
0000
0000
,  // measure 36
0010
0000
0000
0000
,  // measure 37
0001
0000
0000
0000
,  // measure 38
1001
0000
0000
0000
,  // measure 39
0110
0000
0000
0000
,  // measure 40
1001
0000
0000
0000
,  // measure 41
0010
0000
0000
0000
,  // measure 42
1000
0000
0000
0000
,  // measure 43
0000
0000
0001
0000
,  // measure 44
0100
0000
0000
0000
,  // measure 45
0010
0000
0000
0000
,  // measure 46
1000
0000
0000
0000
,  // measure 47
1000
0000
0000
0000
,  // measure 48
0001
0000
0000
0000
,  // measure 49
0100
0000
0000
0000
,  // measure 50
0010
0000
0000
0000
,  // measure 51
0000
0000
0100
0000
,  // measure 52
0010
0000
0000
0000
,  // measure 53
1000
0000
0001
0000
,  // measure 54
0010
0000
0000
0000
,  // measure 55
0100
0000
0000
0000
,  // measure 56
1000
0000
0000
0000
,  // measure 57
0010
0000
0000
0000
,  // measure 58
1001
0000
0000
1000
,  // measure 59
0000
0000
0001
0000
,  // measure 60
0110
0000
0000
0010
,  // measure 61
0000
0000
0100
0000
,  // measure 62
1001
0000
0010
0000
,  // measure 63
1001
0000
0010
0000
,  // measure 64
1001
0000
1001
0000
,  // measure 65
0110
0000
0000
0000
,  // measure 66
0010
0000
0000
0000
,  // measure 67
1000
0000
0000
0000
,  // measure 68
0100
0000
0000
0000
,  // measure 69
0010
0000
0000
0000
,  // measure 70
0001
0000
0000
0000
,  // measure 71
0100
0000
0000
0000
,  // measure 72
0010
0000
0000
0000
,  // measure 73
1000
0000
0000
0000
,  // measure 74
1001
0000
0000
0000
,  // measure 75
1000
0000
0001
0000
,  // measure 76
0100
0000
0000
0000
,  // measure 77
0010
0000
1000
0000
,  // measure 78
0100
0000
0000
0000
,  // measure 79
0010
0000
0001
0000
,  // measure 80
0100
0000
0000
0000
,  // measure 81
0010
0010
0010
0000
;

//---------------dance-single - ----------------
#NOTEDATA:;
#CHARTNAME:;
#STEPSTYPE:dance-single;
#DESCRIPTION:;
#CHARTSTYLE:;
#DIFFICULTY:Challenge;
#METER:17;
#RADARVALUES:0.857714,0.952647,0.316000,1.022352,1.050235,646.000000,612.000000,34.000000,110.000000,0.000000,0.000000,0.000000,0.000000,0.000000,0.857714,0.952647,0.316000,1.022352,1.050235,646.000000,612.000000,34.000000,110.000000,0.000000,0.000000,0.000000,0.000000,0.000000;
#CREDIT:Pandemonium X;
#NOTES:
// measure 0
0000
0000
0000
0000
,  // measure 1
0000
0000
0000
0000
,  // measure 2
0000
0000
0000
0000
,  // measure 3
0000
0000
0000
0000
,  // measure 4
0000
0000
0000
0000
,  // measure 5
0000
0000
0000
0000
,  // measure 6
0000
0000
0000
0000
,  // measure 7
0000
0000
0000
0000
,  // measure 8
1000
0000
0100
0000
0000
0010
0000
0000
0001
0000
0000
0100
0000
0000
0010
1000
,  // measure 9
0000
0000
0100
0000
0000
1000
0000
0000
0010
0000
0000
0100
0000
0000
0010
1000
,  // measure 10
0000
0000
0100
0000
0000
0010
0000
0000
0001
0000
0000
0010
0000
0000
0001
0100
,  // measure 11
0000
0000
0010
0000
0000
0100
0000
0000
0001
0000
0000
1000
0000
0000
0100
0010
,  // measure 12
0000
0000
0100
0000
0000
0010
0000
0000
0001
0000
0000
0100
0000
0000
0010
1000
,  // measure 13
0000
0000
0010
0000
0000
1000
0000
0000
0001
0000
0000
0100
0000
0000
0010
1000
,  // measure 14
0000
0000
0001
0000
0000
1000
0000
0000
0100
0000
0000
1000
0000
0000
0010
0100
,  // measure 15
0000
0000
0010
0000
0000
0100
0000
0000
0001
0000
0000
0010
0000
0000
0100
1000
,  // measure 16
0000
0000
0002
0000
0000
0103
0000
0000
0020
0000
0000
1030
0000
0000
0100
0010
,  // measure 17
0000
0000
0200
0000
0000
1300
0000
0000
0020
0000
0000
0130
0000
0000
0001
1000
,  // measure 18
0000
0000
0002
0000
0000
0013
0000
0000
0200
0000
0000
1300
0000
0000
0010
0100
,  // measure 19
0000
0000
0020
0000
0000
0130
0000
0000
0002
0000
0000
1003
0000
0000
0010
1000
,  // measure 20
0002
2003
3002
2003
3002
2003
3002
2003
,  // measure 21
3020
0230
0320
0230
0320
0230
0320
0230
,  // measure 22
0320
2030
3020
0230
0302
0023
2030
3020
,  // measure 23
0031
0010
0001
0010
0001
0010
0001
0010
0001
0100
0010
1000
0100
0010
0100
1000
,  // measure 24
0001
0200
0000
1300
0200
0000
0310
0000
,  // measure 25
2002
0000
0000
3003
,  // measure 26
1010
0000
1000
0000
0010
1000
0000
0001
0010
0000
0100
0010
0000
0001
1000
0010
,  // measure 27
0000
0000
0100
0000
0001
0010
0000
0100
0010
0000
0001
1000
0000
0010
1000
0100
,  // measure 28
0000
0000
0010
0000
0100
1000
0000
0010
0100
0000
0010
1000
0000
0001
1000
0100
,  // measure 29
0000
0000
0010
0000
0001
0010
0000
0001
0100
0000
0010
1000
0000
0100
0010
0001
,  // measure 30
0000
0000
0010
0000
0001
0010
0000
0100
0010
0000
0001
0100
0000
0010
1000
0001
,  // measure 31
0000
0000
1000
0000
0100
0010
0000
0100
1000
0000
0010
0100
0000
0010
1000
0001
,  // measure 32
0000
0000
1000
0000
0100
0010
0000
0100
1000
0000
0010
0100
0000
0010
1000
0001
,  // measure 33
0000
0000
1000
0000
0100
1000
0000
0010
0100
0000
0001
0010
0000
0100
0010
0001
,  // measure 34
1000
0000
0001
0000
1000
0010
0000
0010
0100
0000
0100
0001
0000
0001
0010
0100
,  // measure 35
0000
0000
0010
0000
0010
0100
0000
0100
1000
0000
1000
0001
0000
0001
1000
0010
,  // measure 36
0000
0000
0100
0000
0100
0010
0000
0010
1000
0000
1000
0001
0000
0001
1000
0100
,  // measure 37
0000
0000
0010
0000
0100
1000
0000
1000
0001
0000
0001
0100
0000
0100
0010
1000
,  // measure 38
0000
0000
1001
0000
0000
1010
0000
0000
1001
0000
0000
0011
0000
0000
0010
0100
,  // measure 39
0000
0000
1100
0000
0000
0011
0000
0000
0110
0000
0000
1100
0000
0000
1000
0001
,  // measure 40
0100
0000
0000
0010
1000
0000
0000
0001
0100
0000
0000
0010
1000
0000
0000
0001
,  // measure 41
0010
0000
0000
0000
0100
0010
0001
1000
0010
0000
0000
0000
1001
0000
0000
0000
,  // measure 42
2000
0000
3001
0100
0000
0010
1000
0000
0002
0000
0013
0100
0000
0010
0001
0000
,  // measure 43
2000
0000
3010
0100
0000
0001
0010
0000
0200
0000
0310
0001
0000
1000
0100
0000
,  // measure 44
2000
0000
3010
1000
0000
0010
0100
0000
0020
0000
1030
0001
0000
0010
0100
0000
,  // measure 45
2000
0000
3100
0010
0000
0100
1000
0000
0020
0000
0130
0010
0000
1000
0001
0000
,  // measure 46
0020
0000
0130
1000
0000
1000
0001
0000
0001
0100
0000
0100
0010
0000
0100
0001
,  // measure 47
2000
0000
3001
0010
0000
0010
0100
0000
0100
1000
0000
1000
0100
0000
0100
0010
,  // measure 48
0002
0000
1003
0001
0000
1000
0010
0000
0010
1000
0000
1000
0001
1000
0001
1000
,  // measure 49
0200
0000
0310
0001
0000
0010
0001
0000
0001
0010
0000
0010
0100
1000
0100
1000
,  // measure 50
0020
0000
1030
0001
0000
0010
0100
0000
0020
0000
0031
1000
0000
0010
0100
0000
,  // measure 51
0002
0000
1003
0010
0000
0100
0001
0000
0020
0000
0130
0010
0000
0100
1000
0000
,  // measure 52
0002
0000
1003
0010
0000
0100
0001
0000
0020
0000
0130
0010
0000
0100
1000
0000
,  // measure 53
0020
0000
0130
0001
0000
0010
0100
0000
0020
0000
0031
0100
0000
0010
1000
0000
,  // measure 54
1001
0000
0000
1010
0000
0000
0101
0000
0000
0011
0000
0000
0110
0000
0000
0000
,  // measure 55
1100
0000
0000
0110
0000
0000
0011
0000
0000
0101
0000
0000
1010
0000
0000
0000
,  // measure 56
1001
0000
0000
1010
0000
0000
1001
0000
0000
0011
0000
0000
0010
0100
1000
0000
,  // measure 57
0021
0000
0000
0000
0130
0000
0000
0000
1000
0100
0000
0000
0010
0000
0001
0000
,  // measure 58
2001
0000
0000
3001
0000
0000
0100
0010
2000
0000
0000
0000
3100
0000
0010
0000
,  // measure 59
0002
0000
0000
1003
0000
0000
0100
0010
0002
0000
0000
0000
0013
0000
0100
0000
,  // measure 60
2000
0000
0000
3010
0000
0000
0100
0010
2000
0000
0000
0000
3001
0000
1000
0000
,  // measure 61
0200
0000
0000
1300
0000
0000
0001
1000
0020
0000
0000
0000
0130
0000
0001
0000
,  // measure 62
2000
0000
0000
0010
0000
0000
3001
1000
0200
0000
0000
0310
0000
0000
0001
0010
,  // measure 63
0200
0000
0000
1300
0000
0000
0100
1000
0020
0000
0000
0130
0000
0000
0010
1000
,  // measure 64
0001
1000
0010
1000
0001
0010
0100
1000
,  // measure 65
0001
0000
0000
0000
0000
0000
1000
0100
1000
0100
1000
0100
1000
0000
0000
0000
0000
0000
0101
0000
0000
0000
0000
0000
,  // measure 66
0001
0010
0200
0000
1300
0000
0010
0100
0002
0000
1003
0001
0020
0000
0130
0000
,  // measure 67
2000
0000
3100
0010
0001
0000
2000
0000
0000
0000
0010
0000
0000
0000
3100
0000
,  // measure 68
0010
0001
0200
0000
0310
0000
0100
0001
2000
0000
3001
1000
0200
0000
0310
0000
,  // measure 69
0200
0000
1300
0010
0100
0000
0002
0000
0000
0000
0100
0000
0000
0000
0013
0000
,  // measure 70
0100
0010
0002
0000
0103
0000
0010
1000
0002
0000
1003
0001
0020
0000
0130
0000
,  // measure 71
2000
0000
3100
0010
0001
0000
0020
0000
0000
0000
0100
0000
0000
0000
0031
0000
,  // measure 72
2000
0000
3001
0100
0010
0000
0200
0000
0310
1000
0001
0000
0020
0000
0130
1000
,  // measure 73
0020
0000
0130
0001
1000
0000
0200
0000
0000
0000
0010
0000
0000
0000
1300
0000
,  // measure 74
0001
1000
0200
0000
2300
0000
3100
0010
0002
0000
0013
0001
2000
0000
3010
0000
,  // measure 75
0120
0000
0130
1002
0000
0100
0000
0013
,  // measure 76
0100
1000
0020
0000
0230
0000
0310
1000
0002
0000
1003
0001
2000
0000
3100
0000
,  // measure 77
0021
0000
0130
2100
0000
0010
0000
3001
,  // measure 78
1000
0001
0020
0000
0130
0000
0010
0001
0200
0000
0310
0000
0100
0010
1000
0000
,  // measure 79
2001
0000
3010
1020
0000
0100
0000
1030
,  // measure 80
0001
0010
0200
0000
0310
0000
0001
0100
0020
0000
0130
0001
1000
0000
0010
0000
,  // measure 81
0200
0302
0020
0000
,  // measure 82
0033
0000
0000
0000
;
