#TITLE:EXUSIA;
#SUBTITLE:;
#ARTIST:L.E.D.-G;
#TITLETRANSLIT:;
#SUBTITLETRANSLIT:;
#ARTISTTRANSLIT:;
#GENRE:HARDCORE;
#CREDIT:;
#BANNER:banner.png;
#BACKGROUND:background.png;
#LYRICSPATH:;
#CDTITLE:CDTITLE.png;
#MUSIC:EXUSIA.ogg;
#OFFSET:-0.013000;
#SAMPLESTART:31.927893;
#SAMPLELENGTH:20.425531;
#SELECTABLE:YES;
#BPMS:0.000000=188.000000
,164.000000=94.000000
,184.000000=188.000000
,216.000000=94.000000
,220.000000=188.000000
;
#STOPS:
;
#BGCHANGES:;
#KEYSOUNDS:;
#ATTACKS:;

//---------------dance-single - ----------------
#NOTES:
     dance-single:
     :
     Hard:
     16:
     0.708909,1.057809,0.152318,0.160335,0.721507,619.000000,600.000000,19.000000,20.000000,0.000000,0.000000,0.708909,1.057809,0.152318,0.160335,0.721507,619.000000,600.000000,19.000000,20.000000,0.000000,0.000000:
// measure 0
0000
0000
0000
0000
,  // measure 1
0000
0000
0000
0000
,  // measure 2
0000
0000
0000
0000
,  // measure 3
0000
0000
0000
0000
,  // measure 4
0000
0000
0000
0000
,  // measure 5
0000
0000
0000
0000
,  // measure 6
0000
0000
0000
0000
,  // measure 7
0000
0000
0000
0000
,  // measure 8
0000
0000
0000
0000
,  // measure 9
1000
0010
1000
0000
0001
0000
0000
0000
0010
0000
0100
0000
0010
0000
0000
0000
,  // measure 10
0100
1000
0100
0000
0010
0000
0000
0000
0001
0000
0100
0000
0001
0000
0000
0000
,  // measure 11
1000
0010
1000
0000
0100
0000
0000
0000
0010
0000
0001
0000
0010
0000
0000
0000
,  // measure 12
0001
0100
0001
0000
0100
0000
0000
0000
0010
0000
0100
0000
0001
0000
0010
0000
,  // measure 13
0100
1000
0100
0000
0010
0000
0000
0000
0100
0000
1000
0000
0100
0000
0000
0000
,  // measure 14
1000
0010
1000
0000
0010
0000
0000
0000
0100
0000
0001
0000
0100
0000
0000
0000
,  // measure 15
0001
0010
0001
0000
0010
0000
0000
0000
0100
0000
0010
0000
0100
0000
0000
0000
,  // measure 16
0000
0000
0010
0000
0001
0000
0100
0000
0010
0000
1000
0010
0000
0100
0001
0000
,  // measure 17
0010
0100
1000
0000
0001
0000
0100
0000
0000
0000
0010
1000
0001
0000
0010
0000
,  // measure 18
0100
1000
0100
0000
1000
0000
0000
0000
0001
0000
1000
0000
0001
0000
0000
0000
,  // measure 19
1000
0000
0100
1000
0010
0000
0100
0000
0000
0000
0010
0100
0001
0000
1000
0000
,  // measure 20
0000
0000
0001
0000
0010
0000
1000
0000
0010
0000
0100
1000
0000
0001
0010
0000
,  // measure 21
0001
0100
0001
0000
0100
0000
0010
0000
0000
0000
0010
0100
0001
0000
1000
0000
,  // measure 22
0010
1000
0010
0000
0100
0000
0000
0000
0001
0000
0010
0000
0001
0000
0000
0000
,  // measure 23
1000
0000
0001
1000
0100
0000
0010
0000
0000
0000
0100
1000
0001
0000
0100
0000
,  // measure 24
0001
0000
0000
1000
0001
1000
0001
0000
0000
1000
0000
0000
0010
0000
0000
0100
0010
0100
0010
0000
0000
0100
0000
0000
,  // measure 25
0001
0000
0000
0010
0000
0000
0001
0000
0000
0100
0000
0000
1000
0000
0100
0000
,  // measure 26
0010
0000
0000
1000
0000
0000
0100
0000
0000
1000
0000
0000
0001
0000
1000
0000
,  // measure 27
0100
0000
1000
0000
0000
0010
0000
0000
0100
0000
0000
0001
0000
0000
0010
0000
,  // measure 28
0100
0000
0000
0010
0000
0000
0001
0000
0000
1000
0000
0000
0100
0000
1000
0000
,  // measure 29
0001
0000
0000
0010
0000
0000
0001
0000
0000
0100
0000
0000
0010
0000
1000
0000
,  // measure 30
0100
0000
0000
0001
0000
0000
0100
0000
0000
0010
0000
0000
0100
0000
0010
0000
,  // measure 31
0001
0000
0100
0000
0000
1000
0000
0000
0100
0000
0000
0010
0000
0000
1000
0000
,  // measure 32
1010
0000
0000
0011
0000
0000
0110
0000
0000
0011
0000
0000
1000
0001
1000
0001
,  // measure 33
1000
0000
0100
1000
0000
0100
0010
0000
0100
1000
0000
0100
0010
0000
0001
0000
,  // measure 34
0100
0000
0001
0100
0000
0010
0100
0000
0001
0100
0000
0010
0100
0000
0001
0000
,  // measure 35
1000
0000
0001
0000
0000
0100
0000
0000
0010
0000
0000
1000
0000
0000
0001
0000
,  // measure 36
0010
0000
0000
1000
0000
0000
0010
0000
0000
0001
0000
0000
0010
0000
0100
0000
,  // measure 37
1100
0000
1000
0001
0000
1000
0010
0000
1000
0001
0000
1000
0100
0000
0010
0000
,  // measure 38
0001
0000
0010
0001
0000
0010
0100
0000
0010
0001
0000
0010
0100
0000
1000
0000
,  // measure 39
0001
0000
0100
0000
0000
0010
0000
0000
1000
0000
0000
0100
0000
0000
0010
0000
,  // measure 40
0110
0000
0000
0011
0000
0000
1010
0000
0000
0101
0000
0000
0001
1000
0001
1000
,  // measure 41
0002
0000
0000
0000
,  // measure 42
0013
0100
0010
0001
0000
0010
0100
0010
0001
1000
0010
0100
0000
0100
0010
0000
,  // measure 43
0100
0010
1000
0100
0000
0010
0100
1000
0001
1000
0001
0010
0000
0100
0010
0001
,  // measure 44
0100
0010
0100
0001
0000
1000
0001
0010
0000
0010
0001
1000
0000
0100
1000
0000
,  // measure 45
0010
0100
0001
0010
0000
0100
0010
0001
0100
0001
1000
0100
0010
0001
0010
0100
,  // measure 46
1001
1000
0010
0000
0100
0001
0010
0000
,  // measure 47
1100
0100
0010
0000
0100
1000
1010
0000
,  // measure 48
0101
0001
0010
0000
0100
0010
0001
0000
,  // measure 49
0011
0001
1000
0000
1010
1000
1001
0001
,  // measure 50
0100
0010
1000
0001
0010
0100
0010
0001
,  // measure 51
1000
0010
0100
0001
0010
0100
1000
0100
,  // measure 52
0010
0000
0010
0000
0001
0000
0100
0000
0010
0000
0010
0000
0100
0000
0001
1000
,  // measure 53
0100
0000
0010
0000
0400
0000
0000
0000
0310
0000
0000
1001
0000
0000
1000
0001
,  // measure 54
1000
0000
0000
0000
0000
0000
0000
0000
0000
0000
0000
0000
0000
0000
0001
1000
,  // measure 55
0010
0000
0000
1000
0000
0000
0200
0000
0000
0000
0000
0000
0310
0000
0100
0000
,  // measure 56
1000
0000
0000
0001
0000
0000
0010
0000
0001
0000
0000
0100
0000
0000
0010
0000
,  // measure 57
1000
0000
0000
0100
0000
0000
0001
0000
0000
0100
0000
0000
0010
0000
0001
0000
,  // measure 58
0100
0000
0000
1000
0000
0000
0100
0000
0000
0001
0000
0000
0100
0000
0010
0000
,  // measure 59
1000
0000
0000
0001
0000
0000
0020
0000
0000
0000
0000
0000
0130
0000
1000
0000
,  // measure 60
0010
0000
0000
1000
0000
0000
0001
0000
0010
0000
0000
0100
0000
0000
0010
0000
,  // measure 61
0002
0000
0000
0013
0000
0000
0100
0000
2000
0000
0000
3010
0000
0000
0100
0000
,  // measure 62
0002
0000
0000
1003
0000
0000
0100
0000
0020
0000
0000
0031
0000
0000
0010
0000
,  // measure 63
0100
0000
0000
0010
0000
0000
0002
0000
0000
0000
0000
0000
0103
0000
0001
0000
,  // measure 64
0010
0000
0000
1000
0000
0000
0010
0000
0001
0000
0000
0100
0000
0000
1000
0000
,  // measure 65
0100
0000
0000
0010
0000
0000
1000
0000
0000
0010
0000
0000
0100
0000
0001
0000
,  // measure 66
0010
0000
0000
0100
0000
0000
0010
0000
0000
0001
0000
0000
1000
0000
0001
0000
,  // measure 67
0100
0000
0000
0001
0000
0000
2000
0000
0000
0000
0000
0000
3100
0000
1000
0000
,  // measure 68
0010
0000
0000
0100
0000
0000
0001
0000
0010
0000
0000
0100
0000
0000
0010
0000
,  // measure 69
0002
0000
0000
0103
0000
0000
0010
0000
2000
0000
0000
3001
0000
0000
1000
0000
,  // measure 70
0001
0000
0000
0010
0000
0000
0100
0000
0000
1000
0000
0000
0001
0000
0000
1000
0001
1000
0001
0000
0000
1000
0000
0000
,  // measure 71
1001
0000
0001
0010
0000
0010
0200
0000
0000
0000
0000
0000
0310
0000
0001
0000
,  // measure 72
1000
0000
0001
0100
0000
0010
1000
0000
0100
0000
0010
0100
0000
1000
0010
0000
,  // measure 73
0100
0000
0010
1000
0000
0010
0100
0000
0010
1000
0000
0010
0100
0000
0001
0000
,  // measure 74
0010
0000
0100
0010
0000
0001
0100
0000
0010
0100
0000
0001
0010
0000
0100
0010
,  // measure 75
0001
0000
1000
0010
0000
0100
0002
0000
0000
0000
0000
0000
0013
0000
0100
0000
,  // measure 76
1000
0000
0100
1000
0000
0100
0010
0000
0001
0000
0100
0010
0000
1000
0001
0000
,  // measure 77
2000
0000
0000
3010
0000
0100
0001
0000
0020
0000
0000
0130
0000
0010
0001
0000
,  // measure 78
2000
0000
0000
3001
0000
0100
0010
0000
2000
0000
0000
3001
0000
1000
0100
0000
,  // measure 79
1000
0000
0001
0100
0000
0010
0200
0000
0000
0000
0000
0000
0310
0000
1000
0000
,  // measure 80
0100
0000
1000
0010
0000
0100
0010
0000
0100
0000
0001
0010
0000
0100
0010
0000
,  // measure 81
0001
0000
1000
0001
0000
0010
0001
0000
1000
0001
0000
0100
0001
0000
0010
0000
,  // measure 82
0100
0000
0010
0001
0000
1000
0100
0000
0010
0100
0000
1000
0001
0000
0100
0000
,  // measure 83
0010
1000
0001
0010
0100
0010
0001
1000
,  // measure 84
0010
0100
0001
0010
0100
1000
0100
0010
,  // measure 85
0001
0000
1000
0010
0000
0100
0001
0000
0010
0000
0100
0010
0000
0100
1000
0000
,  // measure 86
0001
0000
0000
0100
0000
0000
0001
0000
0000
0010
0000
0000
0100
0000
0000
1000
0001
1000
0001
0000
0000
1000
0000
0000
,  // measure 87
0220
0000
0000
0000
,  // measure 88
0000
0000
0000
0000
,  // measure 89
0000
0000
0000
0000
,  // measure 90
0000
0000
0000
0000
,  // measure 91
0330
0000
0000
0000
;

//---------------dance-single - ----------------
#NOTES:
     dance-single:
     :
     Easy:
     6:
     0.224469,0.348728,0.080167,0.072151,0.000000,196.000000,186.000000,10.000000,9.000000,0.000000,0.000000,0.224469,0.348728,0.080167,0.072151,0.000000,196.000000,186.000000,10.000000,9.000000,0.000000,0.000000:
// measure 0
0000
0000
0000
0000
,  // measure 1
0000
0000
0000
0000
,  // measure 2
0000
0000
0000
0000
,  // measure 3
0000
0000
0000
0000
,  // measure 4
0000
0000
0000
0000
,  // measure 5
0000
0000
0000
0000
,  // measure 6
0000
0000
0000
0000
,  // measure 7
0000
0000
0000
0000
,  // measure 8
0000
0000
0000
0000
,  // measure 9
1000
0100
0000
1000
,  // measure 10
0000
0010
0000
0100
,  // measure 11
0000
0001
0000
0010
,  // measure 12
0000
0100
0010
0001
,  // measure 13
1000
0001
0000
0100
,  // measure 14
0000
0010
0000
1000
,  // measure 15
0000
0100
0000
1000
,  // measure 16
0000
0001
1000
0010
,  // measure 17
0100
0010
1000
0001
,  // measure 18
0000
0000
0000
0000
,  // measure 19
0010
0001
1000
0100
,  // measure 20
0000
1000
0010
0010
,  // measure 21
0100
0001
1000
0100
,  // measure 22
0000
0000
0000
0000
,  // measure 23
0010
0100
1000
0010
,  // measure 24
1001
0000
0110
0000
,  // measure 25
0001
0000
1000
0000
,  // measure 26
0010
0000
1000
0000
,  // measure 27
0100
0000
1000
0000
,  // measure 28
0010
1000
0010
0100
,  // measure 29
0010
0000
0100
0000
,  // measure 30
0001
0000
0010
0000
,  // measure 31
0100
0000
0010
0000
,  // measure 32
1001
0000
0000
0000
,  // measure 33
0010
0000
1000
0000
,  // measure 34
0001
0000
0010
0000
,  // measure 35
0100
0000
0010
0000
,  // measure 36
0001
0000
1000
0001
,  // measure 37
0100
0000
0010
0000
,  // measure 38
1000
0000
0100
0000
,  // measure 39
0010
0000
0001
0000
,  // measure 40
0100
0000
0010
0000
,  // measure 41
1001
0000
0000
0000
,  // measure 42
0010
0000
0000
0000
,  // measure 43
1000
0000
0000
0000
,  // measure 44
0100
0000
0000
0000
,  // measure 45
0010
0000
0000
0000
,  // measure 46
0001
0000
0000
0000
,  // measure 47
1000
0000
0000
0010
,  // measure 48
0100
0000
0000
0000
,  // measure 49
0010
0000
1000
0100
,  // measure 50
1000
0000
0100
0000
,  // measure 51
0010
0000
0001
0000
,  // measure 52
1000
0000
0001
0000
,  // measure 53
0100
0020
1030
0000
,  // measure 54
1001
0000
0000
0000
,  // measure 55
0001
1000
0200
0000
,  // measure 56
0310
0000
0001
0000
,  // measure 57
1000
0000
0001
0000
,  // measure 58
0100
0000
0001
0000
,  // measure 59
1000
0010
2000
3000
,  // measure 60
0010
0000
0100
0000
,  // measure 61
0001
0000
0010
0000
,  // measure 62
0001
0000
1000
0000
,  // measure 63
0100
1000
0020
0030
,  // measure 64
0100
0000
0010
0000
,  // measure 65
1000
0000
0100
0000
,  // measure 66
1000
0000
0001
0000
,  // measure 67
0010
0001
0200
0300
,  // measure 68
0010
0000
0100
0000
,  // measure 69
0001
0000
1000
0000
,  // measure 70
0100
0000
1000
0000
,  // measure 71
0010
1000
0200
0300
,  // measure 72
0010
0001
0010
0100
,  // measure 73
1000
0100
0010
0100
,  // measure 74
1000
0010
0100
0001
,  // measure 75
1000
0001
0020
0030
,  // measure 76
0100
0010
0001
1000
,  // measure 77
0010
0000
1000
0000
,  // measure 78
0001
0000
0100
0000
,  // measure 79
0001
1000
0020
0030
,  // measure 80
0100
0010
1000
0001
,  // measure 81
0010
0100
0010
0001
,  // measure 82
1000
0100
0010
0001
,  // measure 83
1000
0001
0200
0300
,  // measure 84
0001
1000
0010
1000
,  // measure 85
1001
0000
0110
0000
,  // measure 86
1010
0000
0101
0000
,  // measure 87
1001
0000
0000
0000
;

//---------------dance-single - ----------------
#NOTES:
     dance-single:
     :
     Medium:
     11:
     0.428323,0.529105,0.152318,0.072151,0.104218,374.000000,355.000000,19.000000,9.000000,0.000000,0.000000,0.428323,0.529105,0.152318,0.072151,0.104218,374.000000,355.000000,19.000000,9.000000,0.000000,0.000000:
// measure 0
0000
0000
0000
0000
,  // measure 1
0000
0000
0000
0000
,  // measure 2
0000
0000
0000
0000
,  // measure 3
0000
0000
0000
0000
,  // measure 4
0000
0000
0000
0000
,  // measure 5
0000
0000
0000
0000
,  // measure 6
0000
0000
0000
0000
,  // measure 7
0000
0000
0000
0000
,  // measure 8
0000
0000
0000
0000
,  // measure 9
1000
0001
1000
0000
0001
0000
0100
0000
,  // measure 10
0010
1000
0010
0000
0100
0000
0001
0000
,  // measure 11
1000
0100
1000
0000
0100
0000
1000
0000
,  // measure 12
0010
1000
0010
0000
0100
0000
0010
0000
,  // measure 13
1000
0001
1000
0000
0001
0000
0010
0000
,  // measure 14
0100
1000
0100
0000
1000
0000
0001
0000
,  // measure 15
0100
0001
0100
0000
0001
0000
0010
0000
,  // measure 16
0100
0010
0100
0000
0010
0000
0001
0000
,  // measure 17
1000
0000
0000
0100
0000
1000
0010
0100
,  // measure 18
0000
0000
0000
0000
,  // measure 19
0010
0000
0000
0100
0000
0010
1000
0001
,  // measure 20
0000
1000
0100
0010
0001
0000
0011
0000
,  // measure 21
0001
0010
0000
0100
0000
1000
0100
0010
,  // measure 22
0000
0000
0000
0000
,  // measure 23
0100
1000
0000
0010
0000
0100
0010
1000
,  // measure 24
0002
0000
2003
0000
,  // measure 25
3001
1000
0010
1000
,  // measure 26
0001
0000
0010
0000
0100
0000
1000
0100
,  // measure 27
1000
0100
1000
0010
,  // measure 28
0100
0000
0001
0000
1000
0000
0001
0010
,  // measure 29
0100
0010
0001
1000
,  // measure 30
0010
0000
0100
0000
0001
0000
1000
0100
,  // measure 31
1000
0100
1000
0010
,  // measure 32
0100
0000
0000
0100
0000
0000
0010
0000
0000
0010
0000
0000
1000
0000
0001
0000
,  // measure 33
0100
0001
1000
0100
,  // measure 34
0010
0000
0100
0000
1000
0000
0100
0010
,  // measure 35
0001
0010
0001
0100
,  // measure 36
0010
0000
1000
0000
0001
0000
1000
0001
,  // measure 37
0010
0001
0100
0010
,  // measure 38
0110
0100
0001
1000
,  // measure 39
1001
0100
1001
0010
,  // measure 40
1001
0000
0000
1000
0000
0000
0010
0000
0000
0100
0000
0000
0001
0000
1000
0000
,  // measure 41
1001
0000
0000
0000
,  // measure 42
1000
0000
0100
0000
,  // measure 43
0010
0000
0001
0000
,  // measure 44
0100
0000
0010
0000
,  // measure 45
1000
0000
0001
1000
,  // measure 46
1010
0010
1000
0001
,  // measure 47
1001
0001
0010
0011
,  // measure 48
1100
0100
1000
0010
,  // measure 49
1010
0010
0110
0101
,  // measure 50
0011
1000
1001
0001
,  // measure 51
0011
0010
0110
0100
,  // measure 52
1000
0100
0010
0000
0010
0001
0100
0000
,  // measure 53
0010
0000
1000
0000
0002
0000
0000
0000
1003
0000
0000
1000
0000
0000
0001
0000
,  // measure 54
1001
0000
0000
0000
0000
0000
0000
0000
0000
0000
0000
0000
0000
0000
0010
0010
,  // measure 55
0010
0000
0000
0100
0000
0000
2000
0000
0000
0000
0000
0000
3001
0000
1000
0000
,  // measure 56
0100
1000
0010
0100
,  // measure 57
0001
0010
0001
1000
,  // measure 58
0100
0000
1000
0000
0010
0000
0100
0001
,  // measure 59
0010
0000
0000
0100
0000
0000
0020
0000
0000
0000
0000
0000
0130
0000
1000
0000
,  // measure 60
0001
1000
0010
1000
,  // measure 61
0001
0000
0000
0001
0000
0000
0001
0000
1000
0000
0000
1000
0000
0000
1000
0000
,  // measure 62
0010
0000
0000
1000
0000
0000
0010
0000
0100
0000
0000
0001
0000
0000
1000
0000
,  // measure 63
0100
0000
0000
1000
0000
0000
0020
0000
0000
0000
0000
0000
0130
0000
0010
0000
,  // measure 64
1000
0001
0010
0001
,  // measure 65
1000
0100
0010
0001
,  // measure 66
0010
0001
0100
0010
,  // measure 67
1000
0000
0000
0001
0000
0000
0200
0000
0000
0000
0000
0000
0310
0000
1000
0000
,  // measure 68
0001
0010
0001
1000
,  // measure 69
0100
0000
0000
0100
0000
0000
0100
0000
0010
0000
0000
0010
0000
0000
0010
0000
,  // measure 70
0001
0000
0000
0001
0000
0000
0001
0000
1000
0000
0000
0010
0000
0000
0100
0000
,  // measure 71
0001
0010
0100
0000
1000
0000
0010
0000
,  // measure 72
0100
0001
1000
0000
0100
0000
1000
0000
,  // measure 73
0010
1000
0001
0000
0010
0000
0100
0000
,  // measure 74
0010
0001
0100
0000
0010
0000
1000
0000
,  // measure 75
0001
1000
0100
0000
0010
0000
0001
0000
,  // measure 76
0010
0001
0100
0000
0010
0000
1000
0000
,  // measure 77
0001
0000
0000
0100
0000
0000
0010
0000
1000
0000
0000
0100
0000
0000
0010
0000
,  // measure 78
0100
0000
0000
1000
0000
0000
0010
0000
0100
0000
0000
0001
0000
0000
1000
0000
,  // measure 79
0010
0100
0001
0000
0010
0000
0100
0000
,  // measure 80
0010
0001
1000
0000
0100
0000
1000
0000
,  // measure 81
0010
0100
0001
0000
1000
0000
0001
0000
,  // measure 82
0010
0100
1000
0000
0100
0000
1000
0000
,  // measure 83
0010
1000
0010
0000
0100
0010
0100
0000
,  // measure 84
0010
0100
0010
0000
0100
0001
0100
0000
,  // measure 85
0001
0000
0000
0010
0000
0000
0100
0000
1000
0000
0000
0010
0000
0000
0100
0000
,  // measure 86
0001
0000
0000
1000
0000
0000
0010
0000
1000
0000
0000
0001
0000
0000
0010
0000
,  // measure 87
2002
0000
0000
0000
,  // measure 88
3003
0000
0000
0000
;

//---------------dance-single - ----------------
#NOTES:
     dance-single:
     :
     Beginner:
     5:
     0.138575,0.348728,0.168352,0.000000,0.000000,121.000000,100.000000,21.000000,0.000000,0.000000,0.000000,0.138575,0.348728,0.168352,0.000000,0.000000,121.000000,100.000000,21.000000,0.000000,0.000000,0.000000:
// measure 0
0000
0000
0000
0000
,  // measure 1
0000
0000
0000
0000
,  // measure 2
0000
0000
0000
0000
,  // measure 3
0000
0000
0000
0000
,  // measure 4
0000
0000
0000
0000
,  // measure 5
0000
0000
0000
0000
,  // measure 6
0000
0000
0000
0000
,  // measure 7
0000
0000
0000
0000
,  // measure 8
0000
0000
0000
0000
,  // measure 9
0010
0000
0000
0000
,  // measure 10
1000
0000
0000
0000
,  // measure 11
0001
0000
0000
0000
,  // measure 12
0010
0000
0000
0000
,  // measure 13
0001
0000
0000
0000
,  // measure 14
1000
0000
0000
0000
,  // measure 15
0010
0000
0000
0000
,  // measure 16
0100
0000
0000
0000
,  // measure 17
0010
0000
0000
0000
,  // measure 18
1000
0000
0000
0000
,  // measure 19
0100
0000
0000
0000
,  // measure 20
1000
0000
0001
0000
,  // measure 21
1000
0000
0000
0000
,  // measure 22
0010
0000
0000
0000
,  // measure 23
0100
0000
0000
0000
,  // measure 24
1001
0000
0110
0000
,  // measure 25
1000
0000
0000
0000
,  // measure 26
0001
0000
0000
0000
,  // measure 27
0010
0000
0000
0000
,  // measure 28
0001
0000
0000
1000
,  // measure 29
0001
0000
0000
0000
,  // measure 30
0100
0000
0000
0000
,  // measure 31
0010
0000
0000
0000
,  // measure 32
1001
0000
0000
0000
,  // measure 33
0010
0000
0000
0000
,  // measure 34
1000
0000
0000
0000
,  // measure 35
0100
0000
0000
0000
,  // measure 36
1000
0000
0001
0000
,  // measure 37
0100
0000
0000
0000
,  // measure 38
0010
0000
0000
0000
,  // measure 39
1000
0000
0001
0000
,  // measure 40
0100
0000
0010
0000
,  // measure 41
1001
0000
0000
0000
,  // measure 42
0010
0000
0000
0000
,  // measure 43
0100
0000
0000
0000
,  // measure 44
0001
0000
0000
0000
,  // measure 45
1000
0000
0001
0000
,  // measure 46
0110
0000
0000
0000
,  // measure 47
0010
0000
0000
1000
,  // measure 48
1000
0000
0000
0000
,  // measure 49
0001
0000
1000
1000
,  // measure 50
0001
0000
0000
0000
,  // measure 51
1000
0000
0000
0000
,  // measure 52
0010
0000
0100
0000
,  // measure 53
0001
0000
1000
0000
,  // measure 54
0110
0000
0000
0000
,  // measure 55
1000
0000
0000
0000
,  // measure 56
0001
0000
0000
0000
,  // measure 57
0010
0000
0000
0000
,  // measure 58
0001
0000
0000
0000
,  // measure 59
0110
0000
0000
0000
,  // measure 60
0010
0000
0000
0000
,  // measure 61
1000
0000
0001
0000
,  // measure 62
1000
0000
0001
0000
,  // measure 63
1001
0000
0000
0000
,  // measure 64
0100
0000
0000
0000
,  // measure 65
0001
0000
0000
0000
,  // measure 66
0010
0000
0000
0000
,  // measure 67
0110
0000
0000
0000
,  // measure 68
0100
0000
0000
0000
,  // measure 69
1000
1001
0000
0110
,  // measure 70
0000
1001
1000
0001
,  // measure 71
1000
0000
0000
0000
,  // measure 72
0010
0000
0000
0000
,  // measure 73
0100
0000
0000
0000
,  // measure 74
0001
0000
0000
0000
,  // measure 75
1001
0000
0000
0000
,  // measure 76
1000
0000
0000
0000
,  // measure 77
0010
0000
0000
0000
,  // measure 78
0100
0000
0010
0000
,  // measure 79
1001
0000
0000
0000
,  // measure 80
1000
0000
0000
0000
,  // measure 81
0100
0000
0000
0000
,  // measure 82
1000
0000
0000
0000
,  // measure 83
1001
0000
0000
0000
,  // measure 84
0110
0000
0000
0000
,  // measure 85
1001
0000
0110
0000
,  // measure 86
1001
0000
0110
0000
,  // measure 87
1001
0000
0000
0000
;
