#VERSION:0.83;
#TITLE:Driver;
#SUBTITLE:;
#ARTIST:Pendulum;
#TITLETRANSLIT:;
#SUBTITLETRANSLIT:;
#ARTISTTRANSLIT:;
#GENRE:DRUM & BASS;
#ORIGIN:;
#CREDIT:;
#BANNER:banner.png;
#BACKGROUND:background.png;
#PREVIEWVID:;
#JACKET:jacket.png;
#CDIMAGE:;
#DISCIMAGE:;
#LYRICSPATH:;
#CDTITLE:CDTITLE.png;
#MUSIC:Driver.ogg;
#OFFSET:-0.516000;
#SAMPLESTART:33.619446;
#SAMPLELENGTH:16.551723;
#SELECTABLE:YES;
#BPMS:0.000=174.000;
#STOPS:;
#DELAYS:;
#WARPS:;
#TIMESIGNATURES:0.000=4=4;
#TICKCOUNTS:0.000=4;
#COMBOS:0.000=1;
#SPEEDS:0.000=1.000=0.000=0;
#SCROLLS:0.000=1.000;
#FAKES:;
#LABELS:0.000=Song Start;
#BGCHANGES:;
#KEYSOUNDS:;
#ATTACKS:
;

//---------------dance-single - ----------------
#NOTEDATA:;
#CHARTNAME:;
#STEPSTYPE:dance-single;
#DESCRIPTION:;
#CHARTSTYLE:;
#DIFFICULTY:Hard;
#METER:12;
#RADARVALUES:0.559649,0.879250,0.166081,0.332161,0.127003,401.000000,384.000000,17.000000,34.000000,0.000000,0.000000,0.000000,0.000000,0.000000,0.559649,0.879250,0.166081,0.332161,0.127003,401.000000,384.000000,17.000000,34.000000,0.000000,0.000000,0.000000,0.000000,0.000000;
#CREDIT:Pandemonium X;
#NOTES:
// measure 0
0000
0000
0000
0000
,  // measure 1
0000
0000
0000
0000
,  // measure 2
0000
0000
0000
0000
,  // measure 3
0000
0000
0000
0000
,  // measure 4
0001
0000
0000
1000
0000
0000
0011
0000
,  // measure 5
0001
0000
0000
0100
0000
0000
1010
0000
,  // measure 6
1000
0000
0000
0100
0000
0000
0011
0000
,  // measure 7
0001
0000
0000
0010
0000
0100
1000
0000
,  // measure 8
1000
0001
1000
0010
0100
0001
0100
0001
,  // measure 9
0100
0001
0100
0001
0200
0000
0320
0000
,  // measure 10
1030
0000
0000
0100
0010
0000
0010
0000
,  // measure 11
0001
0000
0001
0000
0001
1000
0001
0000
,  // measure 12
0100
0010
1000
0100
0010
0001
0010
0001
,  // measure 13
0010
0001
0010
0001
0020
0000
0230
0000
,  // measure 14
1300
0000
0000
0001
0100
0000
0100
0000
,  // measure 15
0010
0000
0010
0000
0010
0100
0001
0000
,  // measure 16
1000
0010
0100
0001
1000
0100
1000
0100
,  // measure 17
1000
0100
1000
0100
0010
0100
0010
0100
,  // measure 18
0010
0100
0010
0100
0010
0001
0010
0001
,  // measure 19
0010
0001
0010
0001
1000
0001
1000
0001
,  // measure 20
1000
0010
1010
0000
0001
0100
0101
0000
,  // measure 21
0001
1000
1001
0000
0010
0100
0110
0000
,  // measure 22
0001
1000
0001
1000
0001
1000
0001
1000
0001
1000
0001
1000
0001
1000
0001
1000
,  // measure 23
0002
0000
2000
3003
,  // measure 24
1010
0000
1000
0100
0001
0100
0020
0000
,  // measure 25
0000
0000
0100
0000
0000
0000
0130
0010
,  // measure 26
0001
0000
1000
0001
0100
1000
0200
0000
,  // measure 27
0000
0000
0001
0000
0000
0000
0301
1000
,  // measure 28
0001
0000
1000
0100
0001
0100
0020
0000
,  // measure 29
0000
0000
0001
0000
0000
0000
0031
1000
,  // measure 30
0010
0100
0001
1000
0100
0010
0100
0010
,  // measure 31
0100
0010
0100
0010
0200
0000
2300
0000
,  // measure 32
3001
0000
1000
0001
0010
1000
0020
0000
,  // measure 33
0000
0000
0100
0000
0000
0000
0130
1000
,  // measure 34
0001
0000
1000
0010
0001
0010
0200
0000
,  // measure 35
0000
0000
0010
0000
0000
0000
0310
1000
,  // measure 36
0001
0000
1000
0001
1000
0100
0020
0000
,  // measure 37
0000
0000
0001
0000
0000
0000
0031
1000
,  // measure 38
0100
1000
0010
1000
0010
0100
0010
0100
,  // measure 39
0010
0100
0010
0100
0020
0000
2030
0000
,  // measure 40
3001
0000
0000
0001
0000
0000
0010
0000
0000
0000
0100
0000
0000
0010
0000
0000
,  // measure 41
0001
0000
0000
1000
0000
0000
0001
0000
0000
0100
0000
0000
0010
0000
0100
0000
,  // measure 42
0001
0000
0000
1000
0000
0000
0100
0000
0000
0000
0010
0000
0000
0100
0000
0000
,  // measure 43
1000
0000
0000
0001
0000
0000
0100
0000
0000
0000
0001
0000
0000
1000
0000
0000
,  // measure 44
0001
0000
0000
0001
0000
0000
0001
0000
0000
0001
0000
0000
0001
0000
1000
0000
,  // measure 45
0001
0010
0100
1000
0100
1000
0010
1000
,  // measure 46
0001
1000
0100
1000
0010
0100
0010
0100
,  // measure 47
0010
0100
0010
0100
0020
0000
2030
0000
,  // measure 48
3100
0000
0000
1000
0000
0000
0010
0000
0000
0000
0100
0000
0000
0010
0000
0000
,  // measure 49
1000
0000
0000
0001
0000
0000
0010
0000
0000
0100
0000
0000
0010
0000
0001
0000
,  // measure 50
0100
0000
0000
0010
0000
0000
1000
0000
0000
0000
0001
0000
0000
0010
0000
0000
,  // measure 51
0100
0000
0000
0010
0000
0000
0001
0000
0000
1000
0000
0000
0010
0000
0100
0000
,  // measure 52
0010
0000
0010
0000
0010
0100
0000
0100
,  // measure 53
0001
0000
0001
1000
0001
1000
0001
1000
,  // measure 54
0100
0010
0001
1000
0010
0100
0010
0100
,  // measure 55
0010
0100
0010
0100
0020
0000
0230
0000
,  // measure 56
0301
0000
0001
0100
0000
0100
0010
0000
,  // measure 57
2010
0000
3200
0000
0301
0100
1000
0000
,  // measure 58
1010
0000
1000
0001
0000
0001
0010
0010
,  // measure 59
0010
0000
0210
0000
1300
0010
0200
0000
,  // measure 60
0301
0000
1000
0010
0000
0010
0100
0000
,  // measure 61
0010
0000
2010
0000
3100
0010
0002
0000
,  // measure 62
0103
1000
0100
0001
1001
0000
0000
0000
,  // measure 63
0000
0001
0010
1000
1001
0000
0000
0000
,  // measure 64
1000
0000
0010
1000
0000
1000
0100
0000
,  // measure 65
0010
0000
0210
0000
1300
0010
0002
0000
,  // measure 66
1003
0000
0010
0100
0000
0100
0010
0010
,  // measure 67
0010
0000
2001
0000
3010
0100
0002
0000
,  // measure 68
0013
0000
0100
1000
0000
1000
0001
0000
,  // measure 69
0100
0000
0201
0000
0310
1000
0002
0000
,  // measure 70
0013
0000
0100
1000
0000
1000
0001
0001
,  // measure 71
0002
0000
0013
0000
0200
1000
1000
1000
,  // measure 72
1300
0000
0000
0000
;

//---------------dance-single - ----------------
#NOTEDATA:;
#CHARTNAME:;
#STEPSTYPE:dance-single;
#DESCRIPTION:;
#CHARTSTYLE:;
#DIFFICULTY:Medium;
#METER:9;
#RADARVALUES:0.410317,0.457210,0.117233,0.175850,0.000000,294.000000,282.000000,12.000000,18.000000,0.000000,0.000000,0.000000,0.000000,0.000000,0.410317,0.457210,0.117233,0.175850,0.000000,294.000000,282.000000,12.000000,18.000000,0.000000,0.000000,0.000000,0.000000,0.000000;
#CREDIT:Pandemonium X;
#NOTES:
// measure 0
0000
0000
0000
0000
,  // measure 1
0000
0000
0000
0000
,  // measure 2
0000
0000
0000
0000
,  // measure 3
0000
0000
0000
0000
,  // measure 4
1000
0000
0000
0001
0000
0000
1100
0000
,  // measure 5
1000
0000
0000
0010
0000
0000
0101
0000
,  // measure 6
0001
0000
0000
1000
0000
0000
0011
0000
,  // measure 7
1000
0000
0000
0001
0000
0000
1100
0000
,  // measure 8
1000
0010
0100
0100
,  // measure 9
0100
0100
0020
1030
,  // measure 10
0001
0000
0000
1000
0000
0000
0110
0000
,  // measure 11
0001
0000
0000
1000
0000
0000
0011
0000
,  // measure 12
0001
0100
0010
0010
,  // measure 13
0010
0010
0200
0301
,  // measure 14
0010
0000
0000
0100
0000
0000
1100
0000
,  // measure 15
1000
0000
0000
0010
0000
0000
0101
0000
,  // measure 16
0001
1000
0010
0010
,  // measure 17
1000
1000
0001
0001
,  // measure 18
0100
0100
0010
0010
,  // measure 19
1000
1000
0001
0001
,  // measure 20
1000
0100
0010
0001
,  // measure 21
1000
0100
0010
0001
,  // measure 22
1001
0000
0001
0100
0010
0000
1000
0000
,  // measure 23
0120
0000
2000
3030
,  // measure 24
0101
0001
0010
0200
,  // measure 25
0000
0000
0000
0000
0000
0310
0100
1000
,  // measure 26
0001
1000
0001
0200
,  // measure 27
0000
0000
0000
0000
0000
0301
0100
1000
,  // measure 28
0100
0001
0010
0200
,  // measure 29
0000
0000
0000
0000
0000
0310
0100
1000
,  // measure 30
0001
1000
0010
0010
,  // measure 31
0010
0010
0020
0230
,  // measure 32
0301
1000
0100
0020
,  // measure 33
0000
0000
0000
0000
0000
0130
1000
0001
,  // measure 34
0100
0001
1000
0002
,  // measure 35
0000
0000
0000
0000
0000
0013
0100
0010
,  // measure 36
0001
1000
0010
0200
,  // measure 37
0000
0000
0000
0000
0000
0310
1000
0001
,  // measure 38
0010
0100
1000
1000
,  // measure 39
1000
1000
2000
3002
,  // measure 40
0103
0000
0001
0000
0000
0010
0100
0000
,  // measure 41
0010
0000
0001
0000
0000
1000
0001
0000
,  // measure 42
0100
0000
0001
0000
0000
0010
0100
0000
,  // measure 43
1000
0000
0100
1000
0000
1000
0010
0000
,  // measure 44
0100
0100
0100
0100
,  // measure 45
0010
0100
0001
1000
0010
1000
0001
0100
,  // measure 46
0001
0010
0100
0100
,  // measure 47
0100
0100
0200
2300
,  // measure 48
3001
0000
1000
0000
0000
0010
1000
0000
,  // measure 49
0100
0000
0010
0000
0000
0100
1000
0000
,  // measure 50
0100
0000
0010
0000
0000
0001
0010
0000
,  // measure 51
0100
0000
0010
0001
0000
0001
1000
0000
,  // measure 52
0001
0000
0001
0000
0001
1000
0000
1000
,  // measure 53
0001
0000
0001
1000
0010
0100
0001
0000
,  // measure 54
0010
0100
1000
1000
,  // measure 55
1000
1000
2000
3002
,  // measure 56
0103
0000
0010
1000
0000
1000
0010
0000
,  // measure 57
0100
0000
0001
0100
0000
0100
0001
0000
,  // measure 58
0001
0000
0001
1000
0000
1000
0001
0000
,  // measure 59
0001
0000
0001
0010
0000
0010
0100
0000
,  // measure 60
1000
0000
0100
1000
0000
1000
0010
0000
,  // measure 61
0100
0000
0010
1000
0000
1000
0001
0000
,  // measure 62
0010
0100
1000
0100
0001
0000
0000
0000
,  // measure 63
0000
0001
0100
1000
0010
0000
0000
0000
,  // measure 64
0100
0000
0010
1000
0000
1000
0001
0000
,  // measure 65
0010
0000
0100
0010
0000
0010
0001
0000
,  // measure 66
1000
0000
0001
0100
0000
0100
0001
0000
,  // measure 67
0010
0000
0100
0010
0000
0010
0001
0000
,  // measure 68
1000
0000
0001
0100
0000
0100
0010
0000
,  // measure 69
1000
0000
0010
1000
0000
1000
0001
0000
,  // measure 70
0010
0000
0100
0010
0000
0010
0001
0000
,  // measure 71
1000
0000
0001
0100
0000
0100
0010
0000
,  // measure 72
1001
0000
0000
0000
;

//---------------dance-single - ----------------
#NOTEDATA:;
#CHARTNAME:;
#STEPSTYPE:dance-single;
#DESCRIPTION:;
#CHARTSTYLE:;
#DIFFICULTY:Easy;
#METER:6;
#RADARVALUES:0.281918,0.316530,0.039078,0.078156,0.000000,202.000000,198.000000,4.000000,8.000000,0.000000,0.000000,0.000000,0.000000,0.000000,0.281918,0.316530,0.039078,0.078156,0.000000,202.000000,198.000000,4.000000,8.000000,0.000000,0.000000,0.000000,0.000000,0.000000;
#CREDIT:Pandemonium X;
#NOTES:
// measure 0
0000
0000
0000
0000
,  // measure 1
0000
0000
0000
0000
,  // measure 2
0000
0000
0000
0000
,  // measure 3
0000
0000
0000
0000
,  // measure 4
1000
0000
0000
1000
0000
0000
1000
0000
,  // measure 5
0001
0000
0000
0001
0000
0000
0001
0000
,  // measure 6
0100
0000
0000
0100
0000
0000
0100
0000
,  // measure 7
0010
0000
0000
0010
0000
0000
0010
0000
,  // measure 8
1000
0001
0010
0010
,  // measure 9
0010
0010
0010
0001
,  // measure 10
1000
0000
0000
1000
0000
0000
1000
0000
,  // measure 11
0001
0000
0000
0001
0000
0000
0001
0000
,  // measure 12
0100
0010
1000
1000
,  // measure 13
1000
1000
1000
0001
,  // measure 14
1000
0000
0000
0001
0000
0000
0010
0000
,  // measure 15
0001
0000
0000
1000
0000
0000
0010
0000
,  // measure 16
1000
0100
0010
0000
,  // measure 17
0100
1000
0010
0000
,  // measure 18
0100
0001
0010
0000
,  // measure 19
0100
1000
0010
0000
,  // measure 20
0100
0001
0010
0100
,  // measure 21
1000
0100
1000
0010
,  // measure 22
0100
0010
1000
0001
,  // measure 23
2000
0000
0002
3003
,  // measure 24
0001
1000
0010
2000
,  // measure 25
0000
0000
3000
0001
,  // measure 26
1000
0100
0010
0200
,  // measure 27
0000
0000
0300
0010
,  // measure 28
0001
0100
0010
2000
,  // measure 29
0000
0000
3000
0001
,  // measure 30
1000
0010
0100
0100
,  // measure 31
0100
0100
0100
0010
,  // measure 32
1000
0100
0010
0002
,  // measure 33
0000
0000
0003
0010
,  // measure 34
0001
1000
0010
0200
,  // measure 35
0000
0000
0300
0010
,  // measure 36
1000
0100
0010
0200
,  // measure 37
0000
0000
0300
0010
,  // measure 38
0001
1000
0010
1000
,  // measure 39
0001
0010
0001
1000
,  // measure 40
0001
0000
1000
0000
,  // measure 41
0010
0000
1000
0000
,  // measure 42
0100
0000
1000
0000
,  // measure 43
0001
0000
0100
0000
,  // measure 44
0110
0000
0001
0000
,  // measure 45
1000
1000
0100
0100
,  // measure 46
0010
0001
1000
1000
,  // measure 47
1000
1000
0001
1000
,  // measure 48
0010
0000
1000
0000
,  // measure 49
0100
0000
1000
0000
,  // measure 50
0001
0000
0100
0000
,  // measure 51
0001
0000
0010
0000
,  // measure 52
0001
0001
0001
0000
,  // measure 53
1000
1000
1000
0000
,  // measure 54
0001
1000
0010
0010
,  // measure 55
0010
0010
0010
0100
,  // measure 56
0001
0000
0000
1000
0000
0000
0000
0000
,  // measure 57
0001
0000
0000
0010
0000
0000
0100
0000
,  // measure 58
0010
0000
0000
0001
0000
0000
0000
0000
,  // measure 59
1000
0000
0000
0100
0000
0000
1000
0000
,  // measure 60
0010
0000
0000
0100
0000
0000
0000
0000
,  // measure 61
0010
0000
0000
1000
0000
0000
0001
0000
,  // measure 62
0000
1000
1001
0000
,  // measure 63
0000
0001
1001
0000
,  // measure 64
1000
0000
0000
0001
0000
0000
0000
0000
,  // measure 65
0100
0000
0000
0010
0000
0000
1000
0000
,  // measure 66
0100
0000
0000
1000
0000
0000
0000
0000
,  // measure 67
0010
0000
0000
1000
0000
0000
0001
0000
,  // measure 68
0010
0000
0000
0100
0000
0000
0000
0000
,  // measure 69
0010
0000
0000
0001
0000
0000
1000
0000
,  // measure 70
0001
0100
0010
1000
,  // measure 71
0000
1000
0010
0100
,  // measure 72
1001
0000
0000
0000
;

//---------------dance-single - ----------------
#NOTEDATA:;
#CHARTNAME:;
#STEPSTYPE:dance-single;
#DESCRIPTION:;
#CHARTSTYLE:;
#DIFFICULTY:Beginner;
#METER:3;
#RADARVALUES:0.160498,0.246190,0.058617,0.000000,0.000000,115.000000,109.000000,6.000000,0.000000,0.000000,0.000000,0.000000,0.000000,0.000000,0.160498,0.246190,0.058617,0.000000,0.000000,115.000000,109.000000,6.000000,0.000000,0.000000,0.000000,0.000000,0.000000,0.000000;
#CREDIT:Pandemonium X;
#NOTES:
// measure 0
0000
0000
0000
0000
,  // measure 1
0000
0000
0000
0000
,  // measure 2
0000
0000
0000
0000
,  // measure 3
0000
0000
0000
0000
,  // measure 4
0000
0000
0000
0000
,  // measure 5
0000
0000
0000
0000
,  // measure 6
0000
0000
0000
0000
,  // measure 7
0000
0000
0000
0000
,  // measure 8
1000
0000
0000
0000
,  // measure 9
0000
0000
0000
0000
,  // measure 10
0001
0000
0000
0000
,  // measure 11
0100
0000
0000
0000
,  // measure 12
0010
0000
0000
0000
,  // measure 13
0000
0000
0000
0000
,  // measure 14
0100
0000
0000
0000
,  // measure 15
0001
0000
0000
0000
,  // measure 16
1000
0000
1000
0000
,  // measure 17
1000
0000
1000
0000
,  // measure 18
0100
0000
0100
0000
,  // measure 19
0100
0000
0100
0000
,  // measure 20
0010
0000
0010
0000
,  // measure 21
0010
0000
0010
0000
,  // measure 22
0001
0000
1000
0000
,  // measure 23
0110
0000
0110
0000
,  // measure 24
1000
0000
0001
0001
,  // measure 25
0000
0000
0000
0100
,  // measure 26
0010
0000
1000
1000
,  // measure 27
0000
0000
0000
0100
,  // measure 28
0010
0000
0100
0100
,  // measure 29
0000
0000
0000
0010
,  // measure 30
0001
0000
1000
0000
,  // measure 31
1000
0000
1000
0000
,  // measure 32
0001
0000
1000
0010
,  // measure 33
0000
0000
0000
0100
,  // measure 34
0010
0000
1000
0100
,  // measure 35
0000
0000
0000
0010
,  // measure 36
0001
0000
1000
0001
,  // measure 37
0000
0000
0000
1000
,  // measure 38
0010
0000
0010
0000
,  // measure 39
0010
0000
0010
0000
,  // measure 40
0110
0000
0000
0010
,  // measure 41
0000
0000
0000
0000
,  // measure 42
1001
0000
0000
1000
,  // measure 43
0000
0000
0000
0000
,  // measure 44
0001
0000
0001
0000
,  // measure 45
1000
1000
1000
0000
,  // measure 46
0010
0000
0100
0000
,  // measure 47
0010
0000
0100
0000
,  // measure 48
0010
0000
1000
0000
,  // measure 49
1000
0000
0000
0000
,  // measure 50
0001
0000
0000
0000
,  // measure 51
0010
0000
0000
0000
,  // measure 52
0100
0000
0100
0000
,  // measure 53
0010
0000
0010
0000
,  // measure 54
0001
0000
0000
0000
,  // measure 55
1000
0000
0000
0000
,  // measure 56
0110
0000
0000
0000
,  // measure 57
0010
1000
0000
1000
,  // measure 58
0001
0000
0000
0000
,  // measure 59
1000
0000
0001
0000
,  // measure 60
0100
0000
0000
0000
,  // measure 61
0010
1000
0000
1000
,  // measure 62
0001
0001
0001
0000
,  // measure 63
1000
1000
1000
0000
,  // measure 64
0010
0000
0000
0100
,  // measure 65
0100
0000
0000
0000
,  // measure 66
0010
0000
0000
1000
,  // measure 67
1000
0000
0001
0000
,  // measure 68
1000
0000
0000
0010
,  // measure 69
0010
0000
1000
0000
,  // measure 70
0001
0000
0000
0000
,  // measure 71
1000
0000
0000
0000
,  // measure 72
1001
0000
0000
0000
;

//---------------dance-single - ----------------
#NOTEDATA:;
#CHARTNAME:;
#STEPSTYPE:dance-single;
#DESCRIPTION:;
#CHARTSTYLE:;
#DIFFICULTY:Challenge;
#METER:14;
#RADARVALUES:0.679674,0.879250,0.615475,0.302853,0.170965,487.000000,424.000000,63.000000,31.000000,0.000000,0.000000,0.000000,0.000000,0.000000,0.679674,0.879250,0.615475,0.302853,0.170965,487.000000,424.000000,63.000000,31.000000,0.000000,0.000000,0.000000,0.000000,0.000000;
#CREDIT:Pandemonium X;
#NOTES:
// measure 0
0000
0000
0000
0000
,  // measure 1
0000
0000
0000
0000
,  // measure 2
0000
0000
0000
0000
,  // measure 3
0000
0000
0000
0000
,  // measure 4
1000
0010
0100
0001
0010
0100
1100
0000
,  // measure 5
0001
0100
0010
1000
0100
0010
0011
0000
,  // measure 6
0001
1000
0100
1000
0010
0100
0101
0000
,  // measure 7
1000
0001
0010
0001
0100
0010
1010
0000
,  // measure 8
1000
0100
0001
0100
0010
0001
0100
1000
,  // measure 9
0100
0010
1000
0001
0020
0000
0230
0000
,  // measure 10
1300
0000
0010
1000
1001
0000
1001
0000
,  // measure 11
0110
0110
1001
0110
,  // measure 12
1001
1000
0001
0010
1000
0010
0100
1000
,  // measure 13
0010
0001
0010
0100
0002
0000
2003
0000
,  // measure 14
3100
0000
1000
0001
1001
0000
1001
0000
,  // measure 15
0110
0110
1001
0110
,  // measure 16
1001
1000
0010
0100
0001
0001
1000
0001
,  // measure 17
1000
1000
0001
1000
0001
0001
1000
0001
,  // measure 18
0100
0100
0010
0100
0010
0010
0100
0010
,  // measure 19
0100
0100
0010
0100
0010
0010
0100
0010
,  // measure 20
1000
0010
0100
0001
0010
1000
0010
0001
,  // measure 21
1000
0100
0010
0001
1000
0100
0001
0100
,  // measure 22
1000
0010
1000
0010
0100
0001
0100
0001
0010
0001
0010
0001
1000
0100
1000
0100
,  // measure 23
0020
0000
0002
0033
,  // measure 24
1100
0000
1000
0010
0100
0001
0210
0000
,  // measure 25
0000
0000
0000
0000
0000
0310
0100
1000
,  // measure 26
1001
0000
1000
0001
0010
0001
0201
0000
,  // measure 27
0000
0000
0000
0000
0000
0310
1000
0100
,  // measure 28
0110
0000
0100
1000
0001
1000
2010
0000
,  // measure 29
0000
0000
0000
0000
0000
3001
0010
0100
,  // measure 30
1000
0100
1000
0010
0100
0100
0100
0100
,  // measure 31
0100
0100
0100
0100
0200
0000
0310
0000
,  // measure 32
1010
0000
0100
0001
0010
0001
0201
0000
,  // measure 33
0000
0000
0000
0000
0000
0310
0100
0001
,  // measure 34
1001
0000
1000
0001
0010
0001
0021
0000
,  // measure 35
0000
0000
0000
0000
0000
0130
1000
0010
,  // measure 36
0110
0000
0010
1000
0001
1000
1200
0000
,  // measure 37
0000
0000
0000
0000
0000
0310
0001
0100
,  // measure 38
0010
1000
0001
1000
0010
0010
0010
0010
,  // measure 39
0010
0010
0010
0010
0020
0000
0130
0000
,  // measure 40
0001
0000
0000
0010
0000
0000
0110
0000
0000
0000
0010
0000
0000
0001
0000
0000
,  // measure 41
1001
0000
0000
1000
0000
0000
1010
0000
0000
0010
0000
0000
0100
0000
0001
0000
,  // measure 42
0010
0000
0000
0100
0000
0000
1001
0000
0000
0000
1000
0000
0000
0010
0000
0000
,  // measure 43
0110
0000
0000
0100
0000
0000
0011
0000
0000
0000
0100
0000
0000
1000
0000
0000
,  // measure 44
2001
0000
3000
2000
0000
3000
2000
0000
3000
2000
0000
3000
2000
0000
3200
0000
,  // measure 45
0310
0010
0001
0001
0100
0100
0010
0010
,  // measure 46
1000
0100
0001
0100
0010
0010
0010
0010
,  // measure 47
0010
0010
0010
0010
0020
0000
0032
0000
,  // measure 48
0103
0000
0000
0001
0000
0000
1010
0000
0000
0000
1000
0000
0000
0100
0000
0000
,  // measure 49
0110
0000
0000
0100
0000
0000
1100
0000
0000
1000
0000
0000
0001
0000
0100
0000
,  // measure 50
0010
0000
0000
1000
0000
0000
0011
0000
0000
0000
0010
0000
0000
0001
0000
0000
,  // measure 51
1001
0000
0000
0001
0000
0000
1010
0000
0000
0000
0100
0000
0000
0010
0000
0000
,  // measure 52
1002
0003
0002
0003
0002
0203
0000
0310
,  // measure 53
0200
0300
0100
0010
1000
1000
0001
0001
,  // measure 54
1000
0100
0010
0100
1000
1000
1000
1000
,  // measure 55
1000
1000
1000
1000
2000
0000
3002
0000
,  // measure 56
0103
0000
0000
0000
0001
0000
0010
0000
0000
0000
0100
0000
0010
0001
1000
0000
,  // measure 57
0001
0000
1001
0000
0100
0010
0010
0000
,  // measure 58
1010
0000
0000
0000
1000
0000
0100
0000
0000
0000
0010
0000
0001
0100
0010
0000
,  // measure 59
2000
0000
0000
0000
3100
0000
0000
0001
1000
0000
0100
0000
0100
0000
0000
0000
,  // measure 60
1001
0000
0000
0000
0001
0000
0100
0000
0000
0000
0010
0000
0100
0010
1000
0000
,  // measure 61
1001
0000
1100
0000
0010
0011
0011
0000
,  // measure 62
0001
1000
0100
0001
0101
0000
1000
1000
,  // measure 63
1000
0010
0001
0010
0110
0100
0100
0000
,  // measure 64
0010
0000
0000
0000
1000
0000
0100
0000
0000
0000
0010
0000
0100
1000
0001
0000
,  // measure 65
1000
0000
1001
0000
0010
0100
0100
0000
,  // measure 66
0101
0000
0000
0000
0001
0000
0010
0000
0000
0000
0100
0000
1000
0010
0100
0000
,  // measure 67
0002
0000
0000
0000
0013
0000
0000
1000
0001
0000
0010
0000
0010
0000
0000
0000
,  // measure 68
1001
0000
0000
0000
1000
0000
0010
0000
0000
0000
0100
0000
0010
0100
0001
0000
,  // measure 69
1001
0000
0011
0000
0100
1100
1100
0000
,  // measure 70
1000
0100
0110
0010
0001
0011
0001
0001
,  // measure 71
0001
0000
1000
0000
0010
0000
0100
0010
1000
0000
0010
0000
0010
0000
0010
0000
,  // measure 72
1001
0000
0000
0000
;
