#VERSION:0.83;
#TITLE:Dead Meat;
#SUBTITLE:;
#ARTIST:Family Farce;
#TITLETRANSLIT:;
#SUBTITLETRANSLIT:;
#ARTISTTRANSLIT:;
#GENRE:HOPSCOTCH BREAKS;
#ORIGIN:;
#CREDIT:;
#BANNER:banner.png;
#BACKGROUND:background.png;
#PREVIEWVID:;
#JACKET:jacket.png;
#CDIMAGE:;
#DISCIMAGE:;
#LYRICSPATH:;
#CDTITLE:;
#MUSIC:Dead Meat.ogg;
#OFFSET:0.000000;
#SAMPLESTART:21.333334;
#SAMPLELENGTH:10.666666;
#SELECTABLE:YES;
#BPMS:0.000=180.000,
96.000=90.000,
116.000=180.000,
212.000=90.000,
228.000=180.000,
276.000=90.000,
280.000=180.000;
#STOPS:;
#DELAYS:;
#WARPS:;
#TIMESIGNATURES:0.000=4=4;
#TICKCOUNTS:0.000=4;
#COMBOS:0.000=1;
#SPEEDS:0.000=1.000=0.000=0;
#SCROLLS:0.000=1.000;
#FAKES:;
#LABELS:0.000=Song Start;
#BGCHANGES:;
#KEYSOUNDS:;
#ATTACKS:
;

//---------------dance-single - ----------------
#NOTEDATA:;
#CHARTNAME:;
#STEPSTYPE:dance-single;
#DESCRIPTION:;
#CHARTSTYLE:;
#DIFFICULTY:Hard;
#METER:15;
#RADARVALUES:0.677306,0.853406,0.356599,0.040523,0.437644,585.000000,541.000000,44.000000,5.000000,0.000000,0.000000,29.000000,0.000000,0.000000,0.677306,0.853406,0.356599,0.040523,0.437644,585.000000,541.000000,44.000000,5.000000,0.000000,0.000000,29.000000,0.000000,0.000000;
#CREDIT:Pandemonium X;
#NOTES:
0000
0000
0000
0000
,
0000
0000
0000
0000
,
0000
0000
0000
0000
,
0000
0000
0000
0000
,
1000
0000
1000
0000
,
0001
0000
0001
0000
,
0100
0100
0010
0010
,
1000
0000
0010
0000
0100
0000
0001
0000
0010
0100
0010
0100
1000
0010
0100
0001
,
1000
1000
0001
0010
0000
0100
0010
0000
,
0001
0100
0010
1000
0001
0001
1000
0001
,
0010
0010
0000
0100
1000
0000
0001
0010
,
0000
0000
0001
0000
0100
0000
0010
0000
1000
0001
1000
0001
1000
0000
0000
0001
,
0100
0100
0000
0001
0010
0000
0100
0010
,
0000
0001
1000
0010
0001
0010
0100
0001
,
1000
1000
0000
0001
0100
0000
0010
1000
,
0000
0000
0100
0000
0010
0001
0400
0000
0310
1000
0001
1000
0004
0000
0000
0000
,
4003
3100
0001
0400
1300
0010
0400
0301
,
0010
0140
0034
0003
,
0004
0013
1000
0040
0031
0100
0040
1030
,
0100
0000
0040
0000
0130
0000
1000
0000
0001
1000
0010
0100
0001
0000
1000
0001
,
0040
1030
0010
0004
0103
1000
0400
0310
,
1000
0010
1000
0001
0010
0100
0000
0010
0001
4000
0000
0000
3001
0100
0001
0000
,
1000
0010
0100
0001
1000
0000
0001
0100
0010
1000
0001
0000
1000
0100
0000
0100
,
0010
0000
0100
1000
0001
0100
0010
0000
0100
0000
0100
0000
0010
0000
1000
0000
,
1001
1000
0001
0010
0100
0000
0000
0000
0000
0000
0000
0000
1000
0000
0010
0100
0000
0000
0000
0000
0100
0000
0002
2000
0000
0000
0000
0000
0000
0000
0000
0000
,
0000
0000
0000
0000
,
0000
0000
0000
0000
,
0000
0000
0000
0000
,
0000
0000
0000
0000
0000
0000
0000
3000
,
1003
0000
0000
0000
0001
0000
0000
0000
1000
0000
0001
1000
0001
0000
0000
1000
,
0001
0000
0001
0000
1000
0000
1000
0000
0001
0000
0100
0001
0100
0000
0010
0000
,
1000
0000
0000
0000
0001
0000
0000
0000
1000
0000
0001
1000
0001
0000
0000
1000
,
0100
0000
0100
0000
0010
0000
0010
0000
0001
0000
1000
0001
0100
0000
0100
0001
,
0010
0000
0000
0000
0010
0000
0000
0000
0100
0000
0010
0100
0010
0000
0000
0100
,
1000
0000
1000
0000
0001
0000
0001
0000
0100
0000
0010
1000
0010
0000
0100
0001
,
0100
0000
0000
0000
0001
0000
0000
0000
0010
0000
0100
0010
0100
0000
0000
0000
,
0011
0000
0000
0000
1100
0000
0000
0000
0101
0000
0001
0000
0100
0010
1000
0001
,
0100
0001
0011
0000
0100
1000
1010
0000
,
1000
0001
1001
0000
0100
0010
0110
0000
,
0001
0001
1000
0001
0001
0010
0001
0001
,
0100
0000
0001
0000
0001
0000
1000
0000
0100
0010
0001
1000
0001
0000
1000
0000
,
0010
1000
1001
0000
0001
0010
0110
0000
,
0100
1000
1010
0000
0010
0100
0101
0000
,
1000
1000
0100
0001
0001
0100
1000
1000
,
0100
0000
0001
0000
0001
0000
0100
0000
0010
0001
0100
0010
1000
0000
0100
0000
,
0010
0100
1100
0000
1000
0001
0101
0000
,
0001
1000
1001
0000
1000
0010
0101
0000
,
0001
0001
0010
0100
0100
1000
0010
0010
,
0100
0000
0001
0000
0001
0000
1000
0000
0001
1000
0001
0010
0100
0000
1000
0000
,
0100
0010
0011
0000
0001
0100
0110
0000
,
0010
1000
1100
0000
0100
1000
1001
0000
,
0001
0001
0100
0100
0010
0010
1000
1000
,
0001
0100
0001
0100
0001
0100
0001
0100
0001
0100
0010
1000
0001
0010
0100
1000
,
1001
0000
0000
0101
0000
0000
0011
0000
,
0000
1001
0110
1001
1001
0000
0000
1010
,
0000
0000
1100
0000
0000
1001
0110
1001
,
0220
0000
0000
0000
0000
0000
0000
0000
0000
0000
0000
0000
0000
0000
0000
0000
0000
0000
0000
0000
0000
0000
0000
0000
0000
0000
0330
0000
1000
0010
0100
0001
,
1000
1000
0001
0010
0100
0010
0001
1000
,
0100
0000
0010
0000
0001
0100
0010
1000
0001
0010
0100
0010
0001
0000
1000
0004
,
0103
0100
0001
0010
0001
1000
0100
0010
,
0001
0000
1000
0001
0010
0100
0010
0001
1000
0001
1000
0001
4000
3000
0001
1000
,
0040
0030
0010
0000
1000
0000
0100
0000
1000
0000
0001
0000
0010
0000
0100
0000
,
1000
0000
0000
0001
0010
0100
1000
0100
0010
0000
0400
0300
0400
0300
1000
0000
,
0001
0001
0000
1010
0000
0100
0100
0000
,
0001
0000
1000
0000
0010
0000
1000
0000
0001
0010
0100
0010
0004
0003
1000
0004
,
4000
0000
0000
0000
,
0000
0000
0000
0000
0000
0000
0000
3003
,
0010
0010
1000
0100
0010
0100
1000
0001
,
0100
0000
0010
0000
1000
0001
0010
0001
1000
0000
0001
0000
0100
0000
0010
1000
,
0200
0000
0000
0004
0003
0000
4000
3000
0000
0000
0040
0330
4004
0000
3003
0000
,
1001
0000
0000
0000
1010
0000
0000
1000
0010
0000
0000
0000
0101
0000
0000
0001
,
0010
0000
0000
0000
0100
0010
0001
1000
0010
0000
0000
0000
0101
0000
0000
0000
,
1100
0000
0000
0000
0110
0000
0000
0010
0100
0000
0000
0000
1100
0000
0000
1000
,
0010
0000
0000
0000
0100
0001
0100
0001
0100
0000
0000
0000
1001
0000
0000
0000
,
1000
0010
0100
0001
0010
0100
0010
0001
,
1000
0010
1000
0000
1000
0001
1000
0000
0010
0100
0001
0000
1000
0000
0010
0000
,
0100
0001
0010
0100
1000
0000
0100
0010
0001
1000
0010
0000
0100
0000
0040
1030
,
0000
0100
0010
0001
0100
0010
0100
0000
0000
0010
0100
0000
0100
0010
1000
0001
,
0010
0000
0000
0000
;

//---------------dance-single - ----------------
#NOTEDATA:;
#CHARTNAME:;
#STEPSTYPE:dance-single;
#DESCRIPTION:;
#CHARTSTYLE:;
#DIFFICULTY:Easy;
#METER:7;
#RADARVALUES:0.262818,0.568937,0.137777,0.307972,0.004052,227.000000,210.000000,17.000000,38.000000,0.000000,0.000000,0.000000,0.000000,0.000000,0.262818,0.568937,0.137777,0.307972,0.004052,227.000000,210.000000,17.000000,38.000000,0.000000,0.000000,0.000000,0.000000,0.000000;
#CREDIT:Pandemonium X;
#NOTES:
0000
0000
0000
0000
,
0000
0000
0000
0000
,
0000
0000
0000
0000
,
0000
0000
0000
0000
,
1000
0000
1000
0000
,
0001
0000
0001
0000
,
1000
0010
0100
0001
,
1000
0100
0010
0002
,
1003
0000
0000
0001
0000
0000
0100
0000
,
0000
0001
0000
0000
0010
0000
0001
0000
,
1000
0000
0000
0100
0000
0000
1000
0000
,
0010
0000
0100
0010
,
1000
0000
0000
0001
0000
0000
0010
0000
,
0000
0001
1000
0100
,
0010
0000
0000
0100
0000
0000
1000
0000
,
0000
0001
0000
0000
1000
0000
0000
0000
,
0002
0003
0000
0200
0300
0000
0020
0030
,
0000
0000
2000
3000
1002
0003
0000
0000
,
0002
0003
0000
0020
0030
0000
0002
0003
,
0000
2000
3000
0000
0001
0000
1000
0000
,
0020
0030
0000
2000
3000
0000
0200
0300
,
0000
0000
0020
0030
1002
0003
0000
0000
,
0002
0003
0000
2000
3000
0000
0020
0030
,
0000
0200
0300
0000
0010
0000
1000
0000
,
2002
0000
0000
0000
,
0000
0000
0000
0000
,
0000
0000
0000
0000
,
0000
0000
0000
0000
,
0000
0000
0000
3003
,
0020
0000
0000
0000
,
0000
0000
0000
0000
,
2030
0000
0000
0000
,
3002
0000
0000
0000
,
0023
0000
0000
0000
,
0000
0000
0000
0000
,
0230
0000
0000
0000
,
0320
0000
0000
0000
,
0031
1000
0010
1000
,
0001
0010
0001
1000
,
0100
0100
1000
1000
,
0010
0010
0100
0100
,
0001
0010
0001
1000
,
0100
1000
0010
0100
,
0001
0001
1000
1000
,
0001
1000
0010
0100
,
0001
1000
0100
1000
,
0010
0100
0010
1000
,
0001
0010
0100
1000
,
0100
0010
0001
1000
,
0001
1000
0010
1000
,
0001
0010
0100
1000
,
1001
1001
1001
1001
,
0011
1100
0101
1010
,
1001
0000
0000
0010
0000
0000
1000
0000
,
0000
0100
1000
0010
0100
0000
0000
0001
,
0000
0000
0010
0000
0000
0100
0010
0001
,
2000
0000
0000
0000
,
3001
0000
0000
1000
0000
0000
0010
0000
,
0000
1000
0000
0000
0100
0000
1000
0000
,
0010
0000
0000
0100
0000
0000
0001
0000
,
0000
0010
0000
0000
0100
0000
0010
0000
,
0001
0000
0000
0010
0000
0000
0001
0000
,
0000
1000
0000
0000
0001
0000
1000
0000
,
0010
0000
0000
1000
0000
0000
0100
0000
,
0000
1000
0000
0000
0010
0000
0100
0000
,
2002
0000
0000
0000
,
0000
0000
0000
3003
,
0001
0000
0000
0100
0000
0000
0010
0000
,
0000
0100
0010
1000
,
0001
0000
0000
0001
0000
0000
0001
0000
0000
0000
1000
0000
0001
0000
0000
0000
,
2000
0010
0010
3010
,
0002
0010
0010
0013
,
2000
0100
0100
3100
,
0002
0100
0100
0103
,
2010
0010
0010
3010
,
0012
0010
0010
0013
,
2100
0100
0100
3100
,
0102
0100
0100
0100
,
1003
0000
0000
0000
;

//---------------dance-single - ----------------
#NOTEDATA:;
#CHARTNAME:;
#STEPSTYPE:dance-single;
#DESCRIPTION:;
#CHARTSTYLE:;
#DIFFICULTY:Medium;
#METER:11;
#RADARVALUES:0.411015,0.632152,0.218822,0.178299,0.028366,355.000000,328.000000,27.000000,22.000000,0.000000,0.000000,0.000000,0.000000,0.000000,0.411015,0.632152,0.218822,0.178299,0.028366,355.000000,328.000000,27.000000,22.000000,0.000000,0.000000,0.000000,0.000000,0.000000;
#CREDIT:Pandemonium X;
#NOTES:
0000
0000
0000
0000
,
0000
0000
0000
0000
,
0000
0000
0000
0000
,
0000
0000
0000
0000
,
1000
0000
1000
0000
,
0001
0000
0001
0000
,
0100
0010
1000
0001
,
1000
0100
0010
0100
1000
0001
0200
0000
,
0301
0010
0000
0000
0000
0000
0000
0000
,
0000
0000
0100
0010
0100
1000
0001
0100
,
0010
1000
0000
0000
0000
0000
0000
0000
,
0000
0000
0100
0010
0100
1000
0001
0100
,
0001
1000
0000
0000
0000
0000
0000
0000
,
0000
0000
0100
0010
0001
1000
0010
1000
,
0100
0010
0000
0000
0000
0000
0000
0000
,
0000
0000
0100
0010
0002
1003
0020
0030
,
0102
0000
0000
0010
0000
0000
1000
0000
,
0000
0103
1001
0000
,
2100
0000
0000
0010
0000
0000
0001
0000
,
0000
0100
0000
0000
3001
1000
0010
0100
,
1002
0000
0000
0100
0000
0000
0010
0000
,
0000
1003
1001
0000
,
2000
0000
3010
0002
0000
0013
0200
0000
,
0300
0010
2000
0000
3001
0010
0100
0010
,
0001
1000
0100
0000
0000
0000
0010
0100
0000
0000
0010
0002
2000
0000
0000
0000
,
0000
0000
0000
0000
,
0000
0000
0000
0000
,
0000
0000
0000
0000
,
0000
0000
0000
3003
,
0001
0100
0010
0010
,
0100
0001
1000
0100
,
0010
0100
1000
1000
,
0100
1000
0010
0100
,
0001
0010
0100
0100
,
0010
0001
1000
0100
,
1000
0010
0100
0100
,
0110
1010
0101
0011
,
0100
1000
0001
0000
0100
0010
1000
0000
,
0001
0010
0001
0000
1000
0100
1000
0000
,
0001
0000
0100
0010
0000
1000
0100
0000
,
0010
0100
0000
0010
0001
0000
0010
0100
,
1000
0001
0100
0000
0010
1000
0100
0000
,
0001
0010
0100
0000
0010
0001
1000
0000
,
0100
1000
0001
0000
0100
0001
0000
0010
,
0100
0000
0010
0001
0000
1000
0100
0000
,
1000
0001
0100
0000
0001
1000
0010
0000
,
1000
0100
0010
0000
0100
0010
0001
0000
,
1000
0001
0010
0000
0100
0010
0000
0100
,
1000
0000
0010
0100
0000
0001
1000
0000
,
0100
1000
0010
0000
0100
0001
0010
0000
,
0100
0010
0001
0000
0010
0100
1000
0000
,
1001
0110
1001
0110
,
0001
0100
0010
1000
0001
0100
0010
1000
,
1001
0000
0000
1010
0000
0000
0101
0000
,
0000
1001
1010
1001
0011
0000
0000
1001
,
0000
0000
0101
0000
0000
0011
1100
0011
,
2002
0000
0000
0000
0000
0000
0000
3003
,
1000
0010
0000
0000
0000
0000
0000
0000
,
0000
0000
0100
0010
1000
0001
0010
1000
,
0010
0001
0000
0000
0000
0000
0000
0000
,
0000
0000
0010
0001
0100
1000
0100
0010
,
1000
0001
0000
0000
0000
0000
0000
0000
,
0000
0000
1000
0100
0001
0100
0010
0001
,
1000
0001
0000
0000
0000
0000
0000
0000
,
0000
0000
0100
0010
1000
0001
0010
0100
,
2000
3002
2003
3002
,
2003
3002
2003
3002
,
0013
0100
0000
1000
0000
0010
1000
0000
,
0001
0000
1000
0100
0010
0100
1000
0010
,
0100
0000
0000
0100
0000
0000
0100
0000
0000
0000
0100
0000
1001
0000
0000
0000
,
0001
0000
0000
0000
0100
0000
0000
0010
1000
0000
0000
0000
0001
0000
0000
0000
,
0010
0000
0100
0010
0001
0000
1000
0000
,
0001
0000
0000
0000
0010
0000
0000
0100
0010
0000
0000
0000
0001
0000
0000
0100
,
0010
0000
1000
0001
0010
0000
0100
0000
,
1000
0001
0100
0000
0010
1000
0001
0000
,
0010
0100
1000
0000
0100
0010
0001
0000
,
1000
0001
1000
0001
1000
0001
1000
0001
,
1000
0010
0100
0001
1000
0010
0100
0001
,
1000
0000
0000
0000
;

//---------------dance-single - ----------------
#NOTEDATA:;
#CHARTNAME:;
#STEPSTYPE:dance-single;
#DESCRIPTION:;
#CHARTSTYLE:;
#DIFFICULTY:Beginner;
#METER:4;
#RADARVALUES:0.125041,0.221253,0.081045,0.000000,0.000000,108.000000,98.000000,10.000000,0.000000,0.000000,0.000000,0.000000,0.000000,0.000000,0.125041,0.221253,0.081045,0.000000,0.000000,108.000000,98.000000,10.000000,0.000000,0.000000,0.000000,0.000000,0.000000,0.000000;
#CREDIT:Pandemonium X;
#NOTES:
// measure 0
0000
0000
0000
0000
,  // measure 1
0000
0000
0000
0000
,  // measure 2
0000
0000
0000
0000
,  // measure 3
0000
0000
0000
0000
,  // measure 4
1000
0000
0000
0000
,  // measure 5
0100
0000
0000
0000
,  // measure 6
0010
0000
0000
0000
,  // measure 7
0001
0000
0000
0000
,  // measure 8
1001
0000
0000
0000
,  // measure 9
0000
1000
0000
0000
,  // measure 10
0110
0000
0000
0000
,  // measure 11
0000
0010
0000
0000
,  // measure 12
1001
0000
0000
0000
,  // measure 13
0000
0001
0000
0000
,  // measure 14
0110
0000
0000
0000
,  // measure 15
0000
0010
0000
0000
,  // measure 16
0001
0000
0000
0001
,  // measure 17
0000
0001
0001
0000
,  // measure 18
1000
0000
0000
1000
,  // measure 19
0000
0000
1000
1000
,  // measure 20
0010
0000
0000
0010
,  // measure 21
0000
0010
0100
0000
,  // measure 22
0100
0000
0000
0100
,  // measure 23
0000
0000
0100
0010
,  // measure 24
1001
0000
0000
0000
,  // measure 25
0000
0000
0000
0000
,  // measure 26
0000
0000
0000
0000
,  // measure 27
0000
0000
0000
0000
,  // measure 28
0000
0000
0000
0000
,  // measure 29
0100
0000
0000
0000
,  // measure 30
0000
0000
0000
0000
,  // measure 31
0010
0000
0000
0000
,  // measure 32
1000
0000
0000
0000
,  // measure 33
0001
0000
0000
0000
,  // measure 34
0000
0000
0000
0000
,  // measure 35
1000
0000
0000
0000
,  // measure 36
0010
0000
0100
0000
,  // measure 37
0001
0000
0001
0000
,  // measure 38
0001
0000
0001
0000
,  // measure 39
1001
0000
0000
1000
,  // measure 40
0000
0000
1000
0000
,  // measure 41
0010
0000
0010
0000
,  // measure 42
0010
0000
0010
0000
,  // measure 43
1000
0000
0000
0000
,  // measure 44
0001
0000
0100
0000
,  // measure 45
0010
0000
0010
0000
,  // measure 46
0010
0000
0010
0000
,  // measure 47
1000
0000
0000
0000
,  // measure 48
0100
0000
0000
0000
,  // measure 49
0010
0000
0010
0000
,  // measure 50
0010
0000
0010
0000
,  // measure 51
0001
0000
0001
0000
,  // measure 52
1000
0000
1000
0001
,  // measure 53
0110
0000
0000
0010
,  // measure 54
0000
0000
1000
0000
,  // measure 55
0000
0001
0000
0010
,  // measure 56
0010
0000
0000
0000
,  // measure 57
0100
0000
0000
0000
,  // measure 58
0000
1000
0001
0000
,  // measure 59
0100
0000
0000
0000
,  // measure 60
0000
0010
0100
0000
,  // measure 61
0010
0000
0000
0000
,  // measure 62
0000
1000
0100
0000
,  // measure 63
0010
0000
0000
0000
,  // measure 64
0000
0001
0100
0000
,  // measure 65
1001
0000
0000
0000
,  // measure 66
0000
0000
0000
0000
,  // measure 67
0110
0000
0000
0000
,  // measure 68
0000
0010
0010
0000
,  // measure 69
1000
0000
0001
0000
,  // measure 70
0100
0000
0000
0000
,  // measure 71
0010
0000
0000
0000
,  // measure 72
1000
0000
0000
0000
,  // measure 73
0001
0000
0000
0000
,  // measure 74
1000
0000
0000
0000
,  // measure 75
0100
0000
0000
0000
,  // measure 76
0010
0000
0000
0000
,  // measure 77
0001
0000
0000
0000
,  // measure 78
0110
0000
0000
0000
;
