#TITLE:DEADHEAT;
#SUBTITLE:;
#ARTIST:DJ Myosuke;
#TITLETRANSLIT:;
#SUBTITLETRANSLIT:;
#ARTISTTRANSLIT:;
#GENRE:HARDCORE;
#CREDIT:;
#BANNER:banner.png;
#BACKGROUND:background.png;
#LYRICSPATH:;
#CDTITLE:CDTITLE.png;
#MUSIC:DEADHEAT.ogg;
#OFFSET:0.300000;
#SAMPLESTART:90.879997;
#SAMPLELENGTH:19.200005;
#SELECTABLE:YES;
#BPMS:0.000000=200.000000
,169.000000=100.000000
,177.000000=200.000000
;
#STOPS:122.000000=0.300000,
137.000000=0.300000,
152.000000=0.300000,
364.500000=0.300000
;
#BGCHANGES:;
#KEYSOUNDS:;
#ATTACKS:;

//---------------dance-single - ----------------
#NOTES:
     dance-single:
     :
     Hard:
     16:
     0.796179,1.063663,0.283386,0.309148,0.592534,649.000000,616.000000,33.000000,36.000000,0.000000,0.000000,0.796179,1.063663,0.283386,0.309148,0.592534,649.000000,616.000000,33.000000,36.000000,0.000000,0.000000:
// measure 0
0000
0000
0000
0000
,  // measure 1
0000
0000
0000
0000
,  // measure 2
0000
0000
0000
0000
,  // measure 3
0000
0000
0000
0000
,  // measure 4
0000
0000
0000
0000
,  // measure 5
1000
0000
0001
0000
1000
0000
0010
0100
,  // measure 6
0010
0000
1000
0000
0100
0010
1001
0000
,  // measure 7
0001
0100
0001
0100
0010
1000
0010
1000
,  // measure 8
0001
0100
0001
0100
0001
0100
0001
0100
0001
0100
0001
0100
0001
0100
0001
0100
,  // measure 9
0001
0000
0000
0000
1000
0000
1000
0000
1000
0000
1000
0001
1000
0001
1000
0001
,  // measure 10
1000
0100
0002
0000
0000
0000
0003
0000
,  // measure 11
1000
0000
0000
1000
0000
0000
1000
0100
0010
0001
0000
1000
,  // measure 12
0001
0000
0000
0001
0000
0001
0010
0100
0010
0001
0000
0100
,  // measure 13
0010
0000
0000
0010
0000
0000
0010
0100
0001
1000
0001
1000
,  // measure 14
0001
0000
0000
1000
0000
0000
0010
0100
0001
1000
0000
0000
,  // measure 15
0000
0000
0000
0100
0010
0001
1000
0000
0000
0001
0000
0100
,  // measure 16
0010
0000
0000
1000
0000
0000
0100
0010
0100
1000
0000
0000
,  // measure 17
0001
0000
0000
0001
0000
1000
0010
0000
1000
0001
0010
0001
,  // measure 18
2000
3200
0320
0032
,  // measure 19
1003
0001
1000
0100
,  // measure 20
0020
0000
0000
0100
0000
0000
0100
0000
0000
0130
1000
0001
,  // measure 21
1000
0001
0010
0100
,  // measure 22
0110
0011
0101
1001
,  // measure 23
1100
0000
1000
0010
1000
0000
0010
0100
0010
0000
0100
0001
0100
0000
0001
0010
,  // measure 24
0001
0000
0010
0100
0010
0000
0100
1000
0100
0000
1000
0001
1000
0000
0001
1000
,  // measure 25
0100
0000
0010
0100
0000
1000
0100
0000
1000
0010
0000
0100
0001
0000
0010
0100
,  // measure 26
1000
0100
0010
1001
,  // measure 27
0001
0100
1000
0100
0010
1000
0001
2000
,  // measure 28
0000
3100
0010
0001
0100
0001
2000
0000
,  // measure 29
3001
0010
1000
0010
0100
0001
0010
0002
,  // measure 30
0000
0013
0100
1000
0000
0000
0001
0010
,  // measure 31
1000
0010
0100
1000
0001
0200
0000
0310
,  // measure 32
1000
0001
0010
0001
2000
0000
3001
0100
,  // measure 33
1000
0100
0010
1000
0001
0020
0000
0130
,  // measure 34
0010
0001
0000
0000
1000
0001
0100
0001
,  // measure 35
1000
0100
0010
0002
0000
0013
0001
1000
,  // measure 36
0100
0010
0200
0000
0310
0001
1000
0010
,  // measure 37
1000
0001
1000
0200
0000
0310
0100
1000
,  // measure 38
0000
0000
0000
0000
0001
0000
0100
0000
0001
0000
0010
0000
0001
0000
0000
1001
,  // measure 39
0000
2000
0000
3100
0010
0100
1000
0001
,  // measure 40
0200
0000
0301
0010
0100
1000
0100
1000
,  // measure 41
0001
0000
0100
0000
0010
1000
0010
1000
0010
1000
0010
1000
0010
1000
0010
1000
,  // measure 42
0010
1000
0010
1000
0010
0000
0000
0000
0000
0000
0000
0000
0000
0000
0000
0000
,  // measure 43
0000
0000
0000
0000
,  // measure 44
0000
0000
0001
0100
0001
0020
0000
0130
,  // measure 45
1000
0002
0000
1003
0100
0010
0100
1000
,  // measure 46
0001
0100
0010
1000
0100
0010
0001
0010
,  // measure 47
0100
0020
0000
0031
0010
0100
1000
0001
,  // measure 48
1000
0100
0010
0200
0000
2300
0000
3002
,  // measure 49
0000
2003
0000
3100
0010
0001
1000
0010
,  // measure 50
1000
0001
0020
0000
0130
0020
0000
0130
,  // measure 51
1000
0001
0000
1000
0100
1000
0001
0100
,  // measure 52
0010
0110
0000
1001
,  // measure 53
0000
0110
0000
1001
,  // measure 54
0000
0110
1001
0110
,  // measure 55
1001
0000
0000
0001
0000
0000
0001
0010
0001
1000
0000
0100
,  // measure 56
1000
0000
1000
0010
0100
0001
0010
0100
0010
0001
1000
0001
,  // measure 57
1000
0000
0000
1100
0000
0000
1000
0100
0010
0100
1000
0001
,  // measure 58
0100
0000
0010
1000
0000
1000
0001
0000
0001
0010
0000
0010
,  // measure 59
0100
0000
0100
0010
0000
0000
0100
0010
0001
1000
0010
0100
,  // measure 60
0001
0010
0100
1000
0000
0000
0101
0000
0000
1100
0000
0000
,  // measure 61
1001
0000
0000
0000
0000
0000
1000
0100
0010
0001
0000
1000
,  // measure 62
0001
0000
0010
0100
0000
0010
0001
0000
0010
0100
0000
1000
,  // measure 63
0010
0000
0100
0001
0000
0000
0010
0001
0100
0010
1000
0001
,  // measure 64
0010
0100
0010
0100
0000
0100
0000
0100
0000
0100
0000
0000
,  // measure 65
1001
0000
0000
1000
0001
0010
0100
0000
0010
0001
0100
0010
,  // measure 66
1000
0000
0100
1000
0000
0100
0010
0000
0100
1000
0000
0100
,  // measure 67
0010
0000
0010
0001
0000
0000
0100
0010
1000
0000
0001
0010
,  // measure 68
0100
1000
0100
0010
0001
0010
0001
0010
0001
0010
0100
1000
,  // measure 69
0001
2001
0001
0001
,  // measure 70
3001
1002
1000
1000
,  // measure 71
1003
0000
0000
0000
0001
0010
0000
0010
0000
0010
0100
0000
0100
1000
0000
1000
,  // measure 72
0001
0000
0100
0010
1000
0100
0010
0000
0010
0000
0010
0100
1000
0001
0010
0100
,  // measure 73
1000
0000
0100
1000
0010
0100
0000
1001
,  // measure 74
1001
2000
0000
3100
0010
0100
1000
0001
,  // measure 75
0100
0000
0010
1000
0001
0010
0000
0110
,  // measure 76
0110
0000
0020
0000
0000
0000
0031
0000
0010
0000
0001
0000
1000
0001
1000
0000
,  // measure 77
0020
0000
0130
0010
1000
0001
0000
0011
,  // measure 78
0011
2000
0000
3100
0010
0100
1000
0001
,  // measure 79
0100
0001
0010
0100
1000
0001
0000
1001
,  // measure 80
1001
1000
0100
0001
0100
1000
0010
0001
,  // measure 81
1001
0000
1000
0010
1000
0001
0010
0001
,  // measure 82
1000
0100
0010
0001
1000
0001
0100
0001
,  // measure 83
1000
0100
1000
0001
0010
0100
1000
0001
,  // measure 84
0100
0010
1000
0001
0010
0100
0010
0001
,  // measure 85
1000
0000
0001
0100
0001
0010
0001
1000
,  // measure 86
0100
0010
0001
1000
0010
1000
0100
1000
,  // measure 87
0010
1000
0100
0010
0001
1000
0100
1000
,  // measure 88
0001
0000
0100
0000
0020
0000
0000
0000
2030
0000
0000
0000
3001
0010
0001
0010
,  // measure 89
0001
0000
0000
0000
1000
0000
0001
0100
0010
0000
0100
0000
0010
1000
0100
0000
,  // measure 90
0010
0000
0100
1000
0010
0000
0100
0000
0001
0010
0100
0000
1000
0000
0100
0010
,  // measure 91
0001
1000
0220
0000
0000
0000
0330
0000
;

//---------------dance-single - ----------------
#NOTES:
     dance-single:
     :
     Challenge:
     18:
     0.985103,1.103058,0.609709,0.446547,0.978969,803.000000,732.000000,71.000000,52.000000,0.000000,0.000000,0.985103,1.103058,0.609709,0.446547,0.978969,803.000000,732.000000,71.000000,52.000000,0.000000,0.000000:
0000
0000
0000
0000
,
0000
0000
0000
0000
,
0000
0000
0000
0000
,
0000
0000
0000
0000
,
0000
0000
0000
0000
,
1000
0000
0000
0000
0101
0000
0000
0000
0001
0000
1100
0000
0000
0000
1000
0001
,
1000
0000
0101
0000
1000
0001
0110
0000
,
1000
0010
0001
0010
1000
0100
0010
0001
,
1000
0010
1000
0010
0100
0001
0100
0001
0010
0001
0010
0001
1000
0100
0010
0001
,
1000
0000
0000
0000
0020
0030
0020
0030
0020
0030
0020
0230
0320
0230
0320
0230
,
0320
2030
0002
0000
0000
0000
3003
0000
,
1010
0000
0000
0101
0000
0001
0010
0001
1000
0100
0000
0010
,
0100
0000
0000
1100
0000
0010
0001
0010
0100
0010
0000
0001
,
1000
0000
0000
0101
0000
0001
1000
0100
0010
0001
1000
0001
,
0100
0000
0000
0102
0000
0000
0013
0001
1000
0100
0000
0000
,
0000
0000
0000
0010
0001
1000
0001
0000
1000
0100
0010
0100
,
1000
0000
0000
0001
0000
0100
0001
0010
0001
1000
0000
1000
,
0001
0000
0000
0110
0000
1000
0001
0000
1000
0010
1000
0001
,
0020
0001
1000
0031
,
1100
0000
0000
1000
0100
1000
0010
0000
0100
0001
0000
0020
,
0000
0000
0000
0130
0010
0001
0010
0100
1000
0010
0100
0010
,
0100
0000
0010
1000
0001
0010
0001
0000
1000
0001
0000
0200
,
0000
0000
0000
0310
0000
1000
0001
0010
0100
1000
0000
0000
,
1001
0000
0001
1000
0020
0000
0130
0001
0020
0000
0031
1000
0200
0000
1300
0001
,
0200
0000
0301
1000
0020
0000
1030
0001
0020
0000
0031
1000
0200
0000
1300
0001
,
0100
0000
0010
1000
0000
0100
0001
0000
0100
1000
0000
0100
0010
0000
0100
1000
,
0001
0010
0100
1001
,
0110
1000
0010
0100
0001
0010
0100
1000
,
0100
0000
1000
0000
0010
0000
0100
0000
0001
0010
0100
0000
1000
0000
0001
0000
,
0100
0001
0010
0001
1000
0100
0010
0001
,
1000
0010
0100
0000
0010
1000
0001
0000
0020
0000
0000
0000
0130
0000
0010
0000
,
0100
1000
0010
0100
0001
0010
0100
1000
,
0001
0000
0100
0000
0001
0000
1000
0000
0001
0100
0001
0100
0001
0000
1000
0000
,
0100
0000
0010
0000
0100
0000
1000
0000
0001
1000
0001
1000
0001
0000
0100
0000
,
0010
0000
1000
0000
0200
0000
0000
0000
0310
0000
0000
0000
0001
0010
0100
1000
,
0001
0000
0100
0010
1000
0001
0010
0100
0010
0000
0001
0000
0100
0000
0001
0000
,
1000
0100
0010
0001
1000
0001
0100
0001
,
0010
0000
0100
0000
1000
0100
1000
0100
1000
0000
0010
0000
0100
0000
0001
0000
,
0020
0000
0000
0000
0130
0000
0010
0000
0001
0000
1000
0000
1001
0000
0000
0101
,
0000
1001
1000
0100
1000
0010
0100
0001
,
0010
0100
0010
0000
0100
0000
1000
0000
0001
0000
0100
0000
0010
0000
1000
0000
,
0001
0000
1000
0000
0001
0010
0100
1000
0001
0010
0100
1000
0001
0100
0010
1000
,
0001
0100
0010
1000
0001
0000
1000
0000
0011
0000
0000
0000
0001
0000
1000
0000
,
0101
0000
0001
0010
1010
0000
0010
0001
,
1001
0000
0000
0000
0010
0100
0010
0100
0001
0000
0000
0000
0000
0000
0000
0000
0000
0000
0000
0000
1000
0000
0001
0000
0010
0000
0000
0000
0100
0000
0010
0000
,
0001
1000
0001
0000
0000
0000
1100
0000
0000
0000
0100
0010
0001
0000
1000
0000
,
0002
0000
0000
0000
0103
0000
0001
0000
0010
0100
0010
0001
1000
0010
0100
0001
,
1000
0000
0100
0000
0010
0000
0100
1000
0001
0000
0100
0010
1000
0000
0001
0000
,
0200
0300
0110
0000
0101
0000
0001
1001
,
1000
0000
0100
0010
0001
0000
0010
0100
1000
0000
0010
1000
0001
0000
1000
0000
,
0020
0000
0000
0000
0130
0010
1000
0001
0010
0001
1000
0100
0010
0000
0001
0000
,
1000
0000
0001
0000
0000
0000
0100
0010
1000
0000
0001
0000
0010
0100
1000
0000
,
0001
0120
0000
1030
,
0000
0120
0000
1030
,
0000
0120
1030
0120
,
1030
0000
0000
0110
0000
0100
0010
1000
0001
0010
0000
0010
,
0002
0000
0000
1003
0100
0001
0100
1000
0010
0001
0010
0100
,
0101
0000
0000
1100
0000
0100
1000
0010
0100
0001
0010
0100
,
0010
0000
0000
0000
0000
0000
0000
0000
0100
0000
0000
0000
1000
0000
0000
0000
0000
0000
0000
0000
0100
0000
0000
0000
0010
0000
0000
0100
0000
0000
1000
0000
0100
0000
0000
0000
1000
0000
0000
0000
0010
0000
0000
0000
0100
0000
0000
0000
,
0001
0000
0000
1000
0100
0010
0001
0010
0100
1000
0100
0010
,
0100
1000
0010
0100
0000
0001
1001
0000
1000
1001
0000
0010
,
0110
0000
0000
0000
0000
0000
0100
0001
0010
0100
0000
0100
,
0000
1000
0100
1000
0000
0100
1000
0010
0100
0001
0010
0100
,
1100
0000
0000
1000
0100
0001
0100
0010
0001
1000
0100
0010
,
0001
0100
0010
1010
0000
0101
0000
1010
0000
0101
0000
0000
,
1001
0000
0000
1000
0100
0010
0001
0010
0100
1000
0010
0100
,
0001
0000
0010
0100
0010
0001
1000
0010
1000
0001
0010
0100
,
1000
0000
0000
0100
0000
0000
0010
0100
1000
0010
0100
0001
,
1000
0000
0000
0000
0100
0000
0000
0000
0010
0000
0000
0000
0001
0000
0000
0010
0000
0000
0001
0000
0000
0010
0000
0000
0001
0000
0000
0000
0010
0000
0000
0000
0100
0000
0000
0000
1000
0000
0000
0000
0001
0000
0000
0000
0100
0000
0000
0000
,
0010
1001
1001
1001
,
1001
0110
0110
0110
,
0110
0000
0000
0000
0001
1001
0000
1001
0000
1000
1001
0000
0001
1001
0000
0000
,
1001
0000
0000
0000
0001
0100
0010
1000
0001
0100
0010
1000
0001
0100
0010
1000
,
0001
0000
1000
0100
0010
0001
0000
1001
,
1001
0000
0020
0000
0000
0000
1030
0000
0100
0000
0010
0000
0001
0010
0001
0010
,
0200
1300
0001
0100
0010
1000
0000
0101
,
1010
0000
0002
0000
0000
0000
0013
0000
0100
0000
1000
0000
0001
1000
0010
1000
,
0001
0000
1000
0100
1000
0010
0000
0110
,
0101
0000
2000
0000
0000
0000
3100
0000
0010
0000
0001
0000
1000
0010
1000
0010
,
0200
0000
0310
1000
0001
0000
0010
0000
0001
0000
1000
0000
0000
0000
0101
0000
,
1010
0000
0200
0000
0000
0000
0301
0000
0010
0000
0100
0000
1000
0100
0010
0001
,
1000
0000
0001
0100
0010
1000
0001
0020
,
0230
0000
0310
0000
0001
0000
1000
0000
0010
0000
1000
0000
0001
1000
0001
0000
,
0110
0000
0100
0001
0010
0001
1000
0200
,
2300
0000
3010
0000
0100
0000
0001
0000
0001
0000
0001
1000
0001
1000
0001
1000
,
0001
0000
1000
0010
0001
0010
0100
0002
,
0023
0000
0130
1000
0001
0000
1000
0000
1000
0000
0001
0000
1000
0000
0001
0000
,
0110
0000
0001
0100
0010
0000
1000
0000
0010
0000
0100
0000
0001
0000
0010
0000
,
0100
1000
0100
0010
0002
0000
0203
0000
2300
0000
3200
0000
0310
1000
0010
1000
,
0010
0000
0110
0000
0101
0000
0010
1000
0100
0000
0011
0000
0100
1000
0010
0000
,
1001
0000
1000
0001
0010
0000
1100
0000
1000
0000
0010
0100
0001
0000
0011
0000
,
0010
0100
1000
0000
2002
0000
0000
0000
0000
0000
0000
0000
3003
0000
0000
0000
;

//---------------dance-single - ----------------
#NOTES:
     dance-single:
     :
     Easy:
     9:
     0.447774,0.669714,0.429373,0.094462,0.000000,365.000000,315.000000,50.000000,11.000000,0.000000,0.000000,0.447774,0.669714,0.429373,0.094462,0.000000,365.000000,315.000000,50.000000,11.000000,0.000000,0.000000:
0000
0000
0000
0000
,
0000
0000
0000
0000
,
0000
0000
0000
0000
,
0000
0000
0000
0000
,
0000
0000
0000
0000
,
1000
0001
1000
1000
,
0001
1000
0001
1001
,
0001
0100
0010
1000
,
0101
0010
1010
1000
,
2002
0000
0000
0000
,
0000
3003
0000
0000
,
0001
1000
0010
1000
,
0001
0010
0100
0010
,
0001
0100
0010
1000
,
0001
0100
1000
0100
,
0000
0010
1000
0010
,
1000
0001
0010
0100
,
1000
0100
1000
0010
,
0200
0302
2003
3002
,
1003
0000
0000
0000
,
0200
0000
0000
0310
,
1001
0000
0000
0000
,
0010
1000
0001
0010
,
0011
0001
1010
0010
,
0101
1000
0011
1000
,
0101
1010
1100
0011
,
1000
0100
0010
0011
,
0001
1000
0010
1000
,
0100
0000
1000
0000
0010
0100
0010
0000
,
0100
0010
1000
0001
,
0010
0100
0000
0010
,
0001
0100
0010
1000
,
0100
0000
0010
0001
0010
0000
0001
0000
,
0100
0000
0010
1000
0001
0000
1000
0000
,
0001
0000
0000
0000
0010
0000
0100
0001
,
1000
0001
1000
0100
0010
0000
0001
0000
,
1000
0000
0100
1000
0010
0000
0100
0000
,
0001
1000
0010
0100
,
0000
0000
0010
0000
1000
0001
0010
0000
,
0100
0010
0100
1000
,
0001
1000
0010
0100
,
0001
1001
0110
1001
,
0110
0002
0000
0003
,
0000
0000
0000
0000
,
0000
0010
1001
0000
0000
0000
1000
0000
,
0100
1000
0010
0100
,
0001
0010
0001
1000
,
0100
1000
0010
0100
,
0000
0001
1000
0100
,
0000
1000
0100
0010
,
0100
1000
0010
0100
,
0001
0010
0100
1000
,
0000
1001
0000
0010
,
0000
1001
0000
0010
,
0000
1001
0010
1001
,
0010
1001
0110
1001
,
0110
0101
1010
1100
,
0011
0001
0010
0010
,
0100
0100
1000
1000
,
0001
1000
0010
0010
,
0100
0100
0010
1000
,
1001
0001
0010
0010
,
0100
0100
0010
0001
,
1100
0100
1000
1000
,
1000
0001
1000
0010
,
0110
0010
0100
0100
,
0010
1000
1000
0001
,
0011
0100
0010
0010
,
0010
0001
1000
0001
,
0110
0101
0000
0000
,
0000
1100
0000
0000
,
0000
1001
0000
0110
,
0000
0000
0001
2000
0000
0000
0000
0000
,
3000
0000
0100
0000
1000
0000
0010
0100
,
0010
0000
0100
0000
0010
0000
1000
0001
,
1000
0000
0001
0000
0010
0000
0100
1000
,
0100
1000
0010
0100
,
0101
0000
0001
0000
0100
0000
0010
0100
,
0010
0000
0100
0000
0010
0000
1000
0001
,
1000
0000
0001
0000
0010
0000
0100
1000
,
0100
0010
0001
0110
,
1010
1000
0100
0001
,
0100
1000
0100
0001
,
0100
1000
0010
0001
,
0010
1000
0010
0001
,
0010
1000
0010
0100
,
0001
0010
1000
0010
,
0001
0010
0100
1000
,
0100
0001
0100
1000
,
0010
0000
0110
0000
0000
1010
0000
0000
,
0011
0000
0000
1100
0000
0000
0101
0000
,
0110
2002
0000
3003
;

//---------------dance-single - ----------------
#NOTES:
     dance-single:
     :
     Medium:
     13:
     0.518927,0.709109,0.352085,0.171749,0.077287,423.000000,382.000000,41.000000,20.000000,0.000000,0.000000,0.518927,0.709109,0.352085,0.171749,0.077287,423.000000,382.000000,41.000000,20.000000,0.000000,0.000000:
0000
0000
0000
0000
,
0000
0000
0000
0000
,
0000
0000
0000
0000
,
0000
0000
0000
0000
,
0000
0000
0000
0000
,
1000
0000
0001
0000
0100
0001
0100
0000
,
0001
0000
1000
0000
0100
0010
0001
0000
,
0010
0001
0100
0010
,
1000
0100
0010
0001
1000
0100
0010
0001
,
2000
0000
0000
0000
,
0000
3000
0000
0110
,
1000
0001
0010
0001
,
0100
0010
1000
0010
,
0100
0001
0010
1000
,
0010
0010
0100
0100
,
0000
1001
1001
1001
,
0001
1000
0010
1000
,
0001
0010
0100
1000
,
0200
2300
3020
0230
,
0301
1000
0100
0010
,
0002
0000
0000
0000
0000
0000
0000
0000
0000
0013
0100
1000
,
0100
1000
0100
0010
,
0100
0010
0001
1000
,
1001
0101
1001
1100
,
1001
0011
1001
1010
,
1000
0000
0000
0100
0000
0000
0010
0000
0100
0000
0000
0000
1000
0000
0010
0000
,
1000
0100
0010
1001
,
0001
0000
0100
0000
0010
1000
0010
0000
,
1000
0000
0100
0000
0010
0100
0010
0000
,
0100
0000
1000
0000
0010
0100
0010
0000
,
0100
0000
0001
0000
0000
0000
1000
0001
,
1000
0001
1000
0100
,
0010
0000
0100
1000
0100
0000
0010
0000
,
0001
0010
0001
0100
,
0010
1000
0000
0000
0001
0000
0010
0001
,
0010
0100
1000
0001
1000
0000
0001
0000
,
1000
0010
1000
0001
,
0010
0000
0100
0010
0001
0000
0010
0000
,
0000
0000
0000
0000
0100
0000
0000
0000
0010
0000
0001
0000
1000
0000
0000
0001
,
0000
1000
0100
0000
0010
0000
0001
0000
,
0010
0100
1000
0000
0001
0000
0010
0000
,
0100
2000
3200
0320
,
0032
2000
0000
3003
,
0000
0000
0000
0000
,
0000
1100
0100
1000
,
0010
0000
0100
0000
0010
0000
1000
0001
,
0200
0301
0010
0100
,
0010
0000
0001
0000
1000
0000
0100
1000
,
0020
0130
0001
1000
,
0001
0000
0010
0000
0100
0000
0010
0001
,
2000
3001
0100
0010
,
1000
0000
0010
0000
0100
0000
0010
1000
,
0001
1001
0000
0010
,
0000
1001
0000
0010
,
0000
1001
0010
1001
,
0010
1001
0110
1001
,
0110
0101
1010
1100
,
0011
0010
0100
1000
,
0100
0010
0100
1000
,
0010
0100
0001
1000
,
0010
0000
0000
0100
0000
0010
1000
0000
1000
0001
0000
0001
,
1000
0001
1000
0001
,
0010
0100
0010
0001
,
0011
0100
1000
0010
,
0100
0000
0000
0001
0000
0001
0000
0001
0000
0001
0000
0000
,
1001
1000
0001
0100
,
0001
0010
0100
0010
,
1100
1000
0010
0100
,
0010
1000
0001
1000
,
0101
1001
0000
0000
,
0000
0110
0000
0000
,
0000
0000
0000
0000
1000
0001
0000
1000
0000
0001
1000
0000
0001
1000
0000
0001
,
0000
0000
0000
0000
1000
0001
0000
1000
0001
0000
1000
0001
0000
1000
0001
0000
,
1000
0000
0001
0100
0010
2000
0000
0000
,
3000
0010
0000
0100
0010
1000
0001
0000
,
1001
0000
0010
0100
1000
0200
0000
0000
,
0300
1000
0000
0100
0010
0001
0010
0000
,
0011
0000
0001
1000
0010
2000
0000
0000
,
3000
0100
0000
0010
0100
0010
0001
0000
,
1010
0000
1000
0001
1000
0020
0000
0000
,
0030
0100
0000
0010
1000
0001
0010
0000
,
1100
0000
1000
0100
0010
0000
0100
1000
,
0010
0000
0100
0010
1000
0000
0001
0010
,
0100
0000
0010
0001
0100
0000
0010
1000
,
0001
0000
1000
0100
0010
0000
0100
1000
,
0010
0000
0100
0010
1000
0000
0001
0010
,
0100
0000
0010
0001
0100
0000
0010
0100
,
0001
0000
1000
0100
0010
0000
0100
1000
,
0010
0000
0100
0010
1000
0001
0100
0010
,
1000
0000
1001
0000
0000
0110
0000
0000
,
1010
0000
0000
0101
0000
0000
0001
0010
,
0100
1000
0022
0000
0000
0000
0033
0000
;

//---------------dance-single - ----------------
#NOTES:
     dance-single:
     :
     Beginner:
     6:
     0.184017,0.430983,0.154574,0.000000,0.000000,150.000000,132.000000,18.000000,0.000000,0.000000,0.000000,0.184017,0.430983,0.154574,0.000000,0.000000,150.000000,132.000000,18.000000,0.000000,0.000000,0.000000:
0000
0000
0000
0000
,
0000
0000
0000
0000
,
0000
0000
0000
0000
,
0000
0000
0000
0000
,
0000
0000
0000
0000
,
1000
0000
0000
0000
,
0001
0000
0000
0000
,
1000
0000
0001
0000
,
1000
0001
1000
0001
,
0100
0000
0000
0000
,
0000
0000
0000
0000
,
0010
0000
0000
0000
,
1000
0000
0000
0000
,
0001
0000
0000
0000
,
1000
0000
0001
0000
,
0000
0100
0100
0100
,
0010
0000
1000
0000
,
0001
0000
0000
0000
,
1000
0000
0000
0000
,
0110
0000
0000
0000
,
0001
0000
0000
1000
,
1000
0000
0000
0000
,
0110
0010
0010
0010
,
0100
0000
0010
0000
,
0001
0000
1000
0000
,
0001
0000
1000
0000
,
0010
0010
0010
1001
,
1000
0000
0000
0000
,
0001
0000
0000
0000
,
0010
0000
0000
0000
,
0001
0000
0000
1000
,
0000
0000
0000
0010
,
0000
0000
0000
1000
,
0000
0000
0000
0100
,
0000
0000
1000
1000
,
0001
0000
1000
0000
,
0000
0000
0001
0000
,
0000
0000
0010
0000
,
0000
0100
0000
0000
,
0000
0010
0000
0000
,
0000
0001
0000
1000
,
0000
0010
0000
0000
,
0000
1001
0000
0000
,
0000
0000
0000
0000
,
0000
1000
0000
0000
,
0000
0001
0000
0000
,
0000
0100
0000
0000
,
0000
0010
0000
0000
,
0000
1000
0000
0000
,
0000
0100
0000
0000
,
0000
1000
0000
0000
,
0000
0001
0000
0000
,
0000
0110
0000
0010
,
0000
0110
0000
0010
,
0000
0110
0010
0110
,
0010
0110
0000
0000
,
0000
1000
0100
0010
,
0001
1000
0000
0001
,
0000
0100
0000
0000
,
0000
0010
0000
1000
,
0000
0100
0100
0100
,
0110
0000
0010
0000
,
0000
0001
0000
0000
,
0000
1000
0000
0000
,
0000
1001
0000
0000
,
0000
0010
0000
0000
,
0000
0100
0000
0000
,
0000
0001
0000
0000
,
0000
1000
0000
0000
,
0000
0010
0000
0000
,
0000
0110
0000
0000
,
0000
0100
0000
0000
,
0000
0010
0000
0000
,
0000
1000
0000
0000
,
0000
0001
0000
1000
,
0000
0010
0000
0000
,
0000
0100
0000
0010
,
0000
1000
0000
0000
,
0000
0100
0000
1000
,
0000
0001
0000
0000
,
0000
1000
0000
0001
,
0000
0110
0000
0000
,
0000
0010
0000
0100
,
0000
1001
0000
0000
,
0000
1000
0000
0001
,
0000
0110
0000
0000
,
0000
0100
0000
0010
,
0000
1001
0000
0000
,
0000
1000
0000
0001
,
0000
0000
0110
0000
0000
0010
0000
0000
,
0010
0000
0000
0010
0000
0000
0010
0000
,
0010
1001
0000
0000
;
