#TITLE:Crab Rave;
#SUBTITLE:(Camellia Remix);
#ARTIST:Noisestorm;
#TITLETRANSLIT:;
#SUBTITLETRANSLIT:;
#ARTISTTRANSLIT:;
#GENRE:;
#CREDIT:;
#BANNER:banner.png;
#BACKGROUND:background.png;
#LYRICSPATH:;
#CDTITLE:CDTITLE.png;
#MUSIC:Crab Rave (Camellia Remix).ogg;
#OFFSET:-2.946000;
#SAMPLESTART:70.707230;
#SAMPLELENGTH:11.294121;
#SELECTABLE:YES;
#BPMS:0.000000=170.000000
,160.000000=85.000000
,164.000000=170.000000
,184.000000=85.000000
,186.000000=170.000000
;
#STOPS:257.000000=0.176000,
264.500000=0.176000,
268.000000=0.176000,
271.500000=0.176000
;
#BGCHANGES:;
#KEYSOUNDS:;
#ATTACKS:;

//---------------dance-single - ----------------
#NOTES:
     dance-single:
     :
     Hard:
     15:
     0.553945,0.906112,0.192278,0.328476,0.480696,484.000000,460.000000,24.000000,41.000000,0.000000,0.000000,0.553945,0.906112,0.192278,0.328476,0.480696,484.000000,460.000000,24.000000,41.000000,0.000000,0.000000:
// measure 0
0000
0000
0000
0000
,  // measure 1
0000
0000
0000
0000
,  // measure 2
0000
0000
0000
0000
,  // measure 3
0000
0000
0000
0000
,  // measure 4
1000
0001
0010
0100
,  // measure 5
1000
0010
0100
0001
,  // measure 6
0010
0002
0000
0000
0000
0000
0000
0000
,  // measure 7
2000
0000
0000
3003
,  // measure 8
2000
3001
0020
0130
,  // measure 9
2000
3001
0200
0310
,  // measure 10
2000
3010
0200
0301
,  // measure 11
0020
0130
2000
3010
,  // measure 12
0200
0301
0020
0031
,  // measure 13
2000
3001
0200
0310
,  // measure 14
2000
3100
0002
0103
,  // measure 15
1001
0110
1001
1010
,  // measure 16
0001
0000
0000
0000
1000
0000
0000
0010
0000
0010
0000
0000
1000
0000
0000
0000
,  // measure 17
0001
0000
0000
0000
0010
0000
0000
0100
0000
0000
0010
0000
0001
0000
1000
0000
,  // measure 18
0010
0000
0000
0000
0100
0000
0000
0001
0000
0001
0000
0000
1000
0000
0000
0000
,  // measure 19
0100
0000
0000
0000
1000
0000
0000
0010
0000
0000
0100
0000
0001
0000
0010
0000
,  // measure 20
0001
0000
0000
0000
1000
0000
0000
0100
0000
0100
0000
0000
0010
0000
0000
0000
,  // measure 21
0100
0000
0000
0000
1000
0000
0000
0100
0000
0000
1000
0000
0010
0000
1000
0000
,  // measure 22
0001
0000
0000
0000
1000
0000
0000
0100
0000
0100
0000
0000
1000
0000
0000
0000
,  // measure 23
0001
0000
0000
0000
0100
0000
0000
0001
0000
0000
0010
0000
0001
0000
1000
0000
,  // measure 24
0010
1000
0100
0000
0010
0001
0100
0000
,  // measure 25
0010
1000
0001
0000
1000
0000
1001
0000
,  // measure 26
0001
1000
0010
0000
0100
0001
0010
0000
,  // measure 27
0100
1000
0010
0000
0100
0000
1001
0000
,  // measure 28
0001
1000
0100
0000
0010
0100
1000
0000
,  // measure 29
0100
0010
0001
0000
0100
0000
1001
0000
,  // measure 30
0001
1000
0010
0000
0100
0010
1000
0000
,  // measure 31
0101
1100
1001
0110
,  // measure 32
1010
0000
0000
1000
0000
0000
0001
0000
0010
0000
0000
0010
0000
0000
0100
0000
,  // measure 33
1000
0000
0000
1000
0000
0000
0001
0000
0100
0000
0000
0100
0000
0000
0001
0000
,  // measure 34
0010
0000
0000
0000
0010
0000
0100
0000
1000
0000
0000
1000
0000
0000
0001
0000
,  // measure 35
0100
0000
0000
0100
0000
0000
0001
0000
0010
0000
0000
0010
0000
0000
0100
0000
,  // measure 36
1000
0100
0010
0100
1000
0010
0100
0001
,  // measure 37
0010
0100
0010
0001
0100
0010
1000
0001
,  // measure 38
0010
0100
0010
0100
0010
0100
0010
0100
0010
0100
0010
0100
0020
0000
0000
0000
,  // measure 39
0031
1000
0010
1001
,  // measure 40
1000
0000
0001
0000
1000
0000
0001
1000
0000
1000
0001
0000
1000
0000
0001
1000
0000
1000
0001
0000
1000
0000
0001
1000
0000
0010
0000
0100
0000
0001
0010
0000
,  // measure 41
0100
0000
1000
0000
0010
0000
0100
0001
0000
0010
0100
0000
0010
0000
0001
0100
,  // measure 42
0000
0010
1000
0000
0001
0000
0010
0100
0000
0010
0000
0001
0000
0100
0010
0000
,  // measure 43
1000
0000
0001
0000
0010
0000
0001
0100
0000
0010
1000
0000
0100
0000
0010
0100
,  // measure 44
0000
1000
0010
0000
0100
0000
0001
0010
0000
0100
0000
0010
0000
0001
1000
0000
,  // measure 45
0100
0000
1000
0000
0010
0000
0100
0001
0000
0010
0001
0000
0100
0000
0010
1000
,  // measure 46
0000
0001
0010
0000
0100
0000
0010
0001
0000
0100
0000
0010
0000
1000
0001
0000
0100
0000
0000
0000
0010
0000
0000
0000
1000
0000
0000
0000
0001
0000
1000
0000
,  // measure 47
0000
1000
0001
0000
0010
0000
0001
0010
0000
0010
0001
0000
0100
0000
0010
0100
,  // measure 48
0000
0100
0000
0010
0000
0010
0100
0000
0010
0000
1000
0000
0001
0000
0010
0001
,  // measure 49
0000
0001
0100
0000
0010
0000
0100
0010
0000
0010
1000
0000
0001
0000
1000
0100
,  // measure 50
0000
0100
0000
1000
0000
0100
0010
0000
0001
0000
0100
0000
0010
0000
1000
0001
,  // measure 51
0000
0001
0010
0000
0100
0000
0010
0001
0000
0001
0100
0000
0010
0000
0100
0010
,  // measure 52
0000
0010
0000
1000
0000
0010
0100
0000
0010
0000
1000
0000
0001
0000
0010
0001
,  // measure 53
0000
0001
1000
0000
0010
0000
1000
0010
0100
0000
0000
0000
0100
0000
0000
0000
,  // measure 54
0100
0000
0000
0000
0100
0000
0000
0000
2001
0000
0000
0000
0010
0000
0000
0001
,  // measure 55
0000
3001
0000
0000
1001
0000
0000
0000
0012
0000
0000
0000
0100
0000
0000
1000
,  // measure 56
0000
1003
0100
0000
0010
0000
0100
0000
2100
0000
0000
0000
0010
0000
0000
0001
,  // measure 57
0000
3001
0000
0000
0110
0000
0000
0000
0102
0000
0000
0000
0010
0000
0000
1000
,  // measure 58
0000
1003
0010
0000
0100
0000
0001
0000
0021
0000
0000
0000
0100
0000
0000
0001
,  // measure 59
0000
0031
0000
0000
1100
0000
0000
0000
1020
0000
0000
0000
0100
0000
0000
1000
,  // measure 60
0000
1030
0001
0000
0010
0000
0100
0000
0210
0000
0000
0000
1000
0000
0000
0010
,  // measure 61
0000
0310
0000
0000
1001
0000
0000
0000
0001
0000
0100
0001
0000
0010
0001
0000
,  // measure 62
0001
1000
0002
0000
1003
0100
0010
0100
,  // measure 63
1000
0000
0000
1000
0000
0000
0100
0000
0010
0000
0000
0010
0000
0000
0100
0000
,  // measure 64
0010
0001
1000
0010
1000
0100
0010
0100
,  // measure 65
0000
1000
0000
0000
0010
0000
0100
0000
0000
0001
0000
0000
0010
0000
0100
0000
,  // measure 66
1000
0001
0100
0010
1000
0001
0010
0100
,  // measure 67
1000
0001
0010
0001
0100
0010
1000
0100
,  // measure 68
0010
0100
1000
0010
0100
0001
0010
0100
,  // measure 69
1000
0001
0100
0010
1000
0001
0010
0001
1000
0010
1000
0001
1000
0000
0000
0000
,  // measure 70
0020
0000
2030
0000
,  // measure 71
3200
0000
0000
0000
0020
0000
0000
0330
,  // measure 72
0200
0000
2300
0000
,  // measure 73
3002
0000
0000
0000
0200
0000
0000
0303
,  // measure 74
0020
0000
2030
0000
,  // measure 75
3200
0000
0000
0000
2000
0000
0000
3300
,  // measure 76
0020
0000
0032
0000
,  // measure 77
0203
0000
0020
0000
,  // measure 78
0330
0000
0000
0000
;

//---------------dance-single - ----------------
#NOTES:
     dance-single:
     :
     Medium:
     12:
     0.458950,0.687395,0.240348,0.344499,0.216313,401.000000,371.000000,30.000000,43.000000,0.000000,0.000000,0.458950,0.687395,0.240348,0.344499,0.216313,401.000000,371.000000,30.000000,43.000000,0.000000,0.000000:
0000
0000
0000
0000
,
0000
0000
0000
0000
,
0000
0000
0000
0000
,
0000
0000
0000
0000
,
1000
0100
1000
0010
,
0100
0001
0010
0100
,
0010
0002
0000
0000
0000
0000
0000
0000
,
2000
0000
0000
3003
,
0002
0000
0203
0000
,
0320
0000
2000
3030
,
2000
0000
3200
0000
,
0320
0000
0002
0033
,
0002
0000
2003
0000
,
3020
0000
0200
0330
,
0200
0000
0320
0000
,
1030
1000
1000
1001
,
0001
0000
1000
0000
0010
1000
0010
0000
,
0100
0000
0000
0000
0001
0000
0000
0010
0000
0000
0100
0000
0010
0000
0001
0000
,
1000
0000
0001
0000
0010
0100
0010
0000
,
0100
0000
0000
0000
1000
0000
0000
0010
0000
0000
0100
0000
0001
0000
0010
0000
,
0001
0000
0010
0000
0100
1000
0001
0000
,
0100
0000
0000
0000
0010
0000
0000
1000
0000
0000
0010
0000
1000
0000
0100
0000
,
0010
0000
0100
0000
1000
0001
0100
0000
,
0001
0000
0000
0000
0010
0000
0000
0100
0000
0000
0010
0000
0001
0000
1000
0000
,
0020
1030
2000
3001
,
0002
0013
0110
1001
,
2000
3010
0200
0301
,
0002
0013
0110
1001
,
2000
3001
0200
0310
,
2000
3010
0101
0011
,
0020
0130
2000
3001
,
0110
0110
0110
0110
,
1001
0000
0000
0000
1000
0000
0010
0000
1000
0000
0000
1000
0000
0000
1000
0000
,
0010
0000
0000
0010
0000
0000
0010
0000
0100
0000
0000
0100
0000
0000
0100
0000
,
0000
0000
0000
0000
0010
0000
0100
0000
0001
0000
0000
0001
0000
0000
0001
0000
,
1000
0000
0000
1000
0000
0000
1000
0000
0001
0000
0000
0001
0000
0000
0001
0000
,
1000
0010
1000
0000
0001
0100
0001
0000
,
0001
0010
0001
0000
1000
0100
1000
0000
,
1000
0100
0010
0001
1000
0100
0010
0000
,
0110
1001
0110
1001
,
0001
0000
1000
0000
0100
0000
0000
0010
0000
0000
0100
0000
1000
0000
0000
0010
0000
0000
0100
0000
0001
0000
0000
1000
0000
0001
0000
0100
0000
0000
0001
0000
,
1000
0000
0001
0000
0100
0000
0000
0001
0000
0000
0100
0000
0010
0000
0000
1000
,
0000
0000
0100
0000
0010
0000
0000
0100
0000
1000
0000
0100
0000
0000
0010
0000
,
0100
0000
1000
0000
0001
0000
0000
1000
0000
0000
0010
0000
1000
0000
0000
0100
,
0000
0000
0010
0000
0001
0000
0000
0010
0000
0001
0000
0100
0000
0000
0010
0000
,
0100
0000
0001
0000
0010
0000
0000
0100
0000
0000
0010
0000
0001
0000
0000
1000
,
0000
0000
0100
0000
1000
0000
0000
0010
0000
0100
0000
0001
0000
1000
0001
0000
0110
0000
0000
0000
0100
0000
0000
0000
0001
0000
0000
0000
0010
0000
0000
0000
,
0100
0010
0001
1000
0010
0100
0001
0010
,
0100
1000
1001
0000
1000
0100
1000
0010
,
0100
0001
0010
0100
0010
0001
1000
0010
,
0100
0001
1001
0000
0001
0010
0100
0010
,
0001
0100
0010
1000
0010
0100
0001
0010
,
0100
1000
1001
0000
1000
0100
0001
0100
,
0000
0000
0110
0110
,
0001
0000
1000
0000
0001
0000
0000
0000
1000
0000
0000
0000
0001
0000
0000
0100
,
0000
0100
0000
0000
0001
0000
0000
0000
1000
0000
0000
0000
0100
0000
0000
1000
,
0000
0000
0100
0000
0010
0000
0001
0000
1000
0000
0000
0000
0001
0000
0000
0100
,
0000
0100
0000
0000
0010
0000
0000
0000
1000
0000
0000
0000
0100
0000
0000
1000
,
0000
0000
0001
0000
0010
0000
0100
0000
0010
0000
0000
0000
0001
0000
0000
1000
,
0000
1000
0000
0000
0100
0000
0000
0000
0010
0000
0000
0000
0100
0000
0000
1000
,
0000
0000
0010
0000
0100
0000
0001
0000
1000
0000
0000
0000
0001
0000
0000
0010
,
0000
0010
0000
0000
0100
0000
0000
0000
1000
0000
1000
0001
0000
1000
0001
0000
,
1000
0001
0100
0000
0010
0000
1000
0100
,
0010
0000
0000
0010
0000
0000
0100
0000
1000
0000
0000
1000
0000
0000
0001
0000
,
1000
0001
1001
0001
1000
0010
1000
0001
,
0000
0001
0000
0000
1000
0000
0100
0000
0000
0100
0000
0000
0010
0000
0001
0000
,
1000
1001
0001
0100
0010
1000
0001
0100
,
1001
1000
0100
0010
0001
0010
0100
1001
,
0001
0010
0100
0010
0001
1000
0010
0100
,
1001
0110
1001
0110
,
2000
0000
3020
0000
,
0230
0000
0302
0000
,
2003
0000
3020
0000
,
0230
0000
0302
0000
,
2003
0000
3200
0000
,
0320
0000
0032
0000
,
2003
0000
3200
0000
,
0320
0000
0032
0000
,
0003
0000
0000
0000
;

//---------------dance-single - ----------------
#NOTES:
     dance-single:
     :
     Easy:
     6:
     0.258660,0.343698,0.176255,0.056081,0.000000,226.000000,204.000000,22.000000,7.000000,0.000000,0.000000,0.258660,0.343698,0.176255,0.056081,0.000000,226.000000,204.000000,22.000000,7.000000,0.000000,0.000000:
0000
0000
0000
0000
,
0000
0000
0000
0000
,
0000
0000
0000
0000
,
0000
0000
0000
0000
,
1000
0000
0000
0000
,
0001
0000
0000
0000
,
0100
0000
0000
0000
,
0010
0000
0000
0000
,
1000
0000
1000
0000
,
0001
0000
1000
0000
,
0001
0000
0001
0000
,
1000
0000
0001
0000
,
0100
0000
0100
0000
,
0010
0000
0100
0000
,
0010
0000
0010
0000
,
0100
0100
0100
0100
,
1001
0001
1000
0000
,
0001
1000
0010
0000
,
0100
0001
0010
0000
,
0100
0010
0001
0000
,
1000
0100
0010
0000
,
0100
1000
0010
0000
,
1000
0001
0100
0000
,
0001
1000
0010
0000
,
1000
0000
0001
0000
,
0010
0000
0100
1000
,
0010
0000
0100
0000
,
0001
0000
0010
0001
,
1000
0000
0100
0000
,
1000
0000
0010
0100
,
0001
0000
1000
0000
,
0001
1000
0010
0100
,
1001
0000
0101
0000
,
1001
0000
1010
0000
,
0001
1000
1100
0000
,
1001
0000
0011
0000
,
1001
0000
0110
0000
,
1010
0000
0101
0000
,
0011
0010
0100
1000
,
0001
1000
0001
1001
,
0020
0000
0000
0000
,
0130
0001
0010
0001
,
1000
0100
0010
0110
,
0100
1000
0010
0100
,
0001
0010
0100
1001
,
1000
0001
0010
0100
,
2000
0000
3001
0100
,
0001
0010
0001
1000
,
0010
0110
0010
1000
,
0001
0010
0100
1000
,
0100
1100
1000
0100
,
1000
0010
0100
0001
,
0010
0001
1000
1000
,
0001
1000
0001
0001
,
0001
0001
1000
0001
,
1000
1010
1000
0001
,
0010
0100
1000
0100
,
0010
0011
0001
0100
,
0001
1000
0100
0010
,
0100
1100
0100
1000
,
0010
0100
0001
0010
,
0100
1100
0200
0000
,
0300
0000
1000
0001
,
0100
0001
0010
0100
,
1000
0000
0001
1000
0000
0001
0000
0100
,
0000
0001
0000
0010
0000
0100
0000
1000
,
0000
0100
1000
0010
,
0000
0100
0000
0010
0000
1000
0000
0000
,
0001
1000
0010
0100
,
0010
0010
0100
0100
,
0002
0000
0000
0000
,
0000
0000
0000
0003
,
2000
0000
0000
0000
,
0000
0000
0000
3000
,
0020
0000
0000
0000
,
0000
0000
0000
0030
,
0200
0000
0000
0000
,
0000
0000
0000
0000
,
0300
0000
0000
0000
;

//---------------dance-single - ----------------
#NOTES:
     dance-single:
     :
     Beginner:
     4:
     0.129330,0.243553,0.040058,0.000000,0.000000,113.000000,108.000000,5.000000,0.000000,0.000000,0.000000,0.129330,0.243553,0.040058,0.000000,0.000000,113.000000,108.000000,5.000000,0.000000,0.000000,0.000000:
0000
0000
0000
0000
,
0000
0000
0000
0000
,
0000
0000
0000
0000
,
0000
0000
0000
0000
,
1000
0000
0000
0000
,
0001
0000
0000
0000
,
0100
0000
0000
0000
,
0010
0000
0000
0000
,
1000
0000
0000
0000
,
0000
0000
0000
0000
,
0001
0000
0000
0000
,
0000
0000
0000
0000
,
0100
0000
0000
0000
,
0000
0000
0000
0000
,
0001
0000
0000
0000
,
0010
0010
0010
1001
,
0001
0000
0000
0000
,
1000
0000
0000
0000
,
0100
0000
0000
0000
,
1000
0000
0000
0000
,
0010
0000
0000
0000
,
0100
0000
0000
0000
,
0001
0000
0000
0000
,
1000
0000
0000
0000
,
0010
0000
0000
0000
,
1000
0000
0000
0000
,
0001
0000
0000
0000
,
1000
0000
0000
0000
,
0010
0010
0000
0000
,
0100
0000
0000
0000
,
0001
0000
0000
0000
,
1000
1000
1000
1000
,
1001
0000
0001
0000
,
1000
0000
0001
0000
,
0000
0100
0010
0000
,
0100
0000
0010
0000
,
1000
0000
0100
0000
,
0010
0000
0001
0000
,
1000
0000
0000
0000
,
0001
0001
0001
1001
,
0000
0000
0000
0000
,
0010
0000
0000
0000
,
1000
0000
0000
0000
,
0100
0000
0000
0000
,
1000
0000
0001
0000
,
1000
0000
0000
0000
,
0010
0000
0100
0000
,
0000
0000
0001
0000
,
0000
0000
0010
0000
,
0000
0000
0001
0000
,
0000
1000
0001
0000
,
0000
0000
0100
0000
,
0000
0000
0010
0010
,
0000
0000
0100
0100
,
0100
0000
1001
0000
,
1000
0000
0001
0001
,
0001
0000
1000
0000
,
0010
0000
0100
0100
,
0100
0000
0010
0000
,
1000
0000
0001
0001
,
0001
0000
0010
0000
,
0001
0000
0100
0000
,
0000
0000
0010
0000
,
1000
0000
0001
0000
,
1000
0000
0000
0001
0000
0000
0000
1000
,
0000
0000
0000
0010
0000
0000
0000
1000
,
0000
0100
0000
1000
,
0000
0010
0000
0000
0000
0100
0000
0000
,
0001
0000
1000
0000
,
0010
0010
0010
0010
,
1001
0000
0000
0000
,
0000
0000
0000
0000
,
1000
0000
0000
0000
,
0000
0000
0000
0000
,
0001
0000
0000
0000
,
0000
0000
0000
0000
,
0100
0000
0000
0000
;
