#VERSION:0.83;
#TITLE:Color;
#SUBTITLE:(feat. Juneau);
#ARTIST:Grant;
#TITLETRANSLIT:;
#SUBTITLETRANSLIT:;
#ARTISTTRANSLIT:;
#GENRE:INDIE DANCE;
#ORIGIN:;
#CREDIT:;
#BANNER:banner.png;
#BACKGROUND:background.png;
#PREVIEWVID:;
#JACKET:jacket.png;
#CDIMAGE:;
#DISCIMAGE:;
#LYRICSPATH:;
#CDTITLE:CDTITLE.png;
#MUSIC:Color (feat. Juneau).ogg;
#OFFSET:-0.015000;
#SAMPLESTART:61.125908;
#SAMPLELENGTH:17.454548;
#SELECTABLE:YES;
#BPMS:0.000=110.000;
#STOPS:;
#DELAYS:;
#WARPS:;
#TIMESIGNATURES:0.000=4=4;
#TICKCOUNTS:0.000=4;
#COMBOS:0.000=1;
#SPEEDS:0.000=1.000=0.000=0;
#SCROLLS:0.000=1.000;
#FAKES:;
#LABELS:0.000=Song Start;
#BGCHANGES:0.000=bga.avi=1.000=0=0=1=====,
99999=-nosongbg-=1.000=0=0=0 // don't automatically add -songbackground-
;
#KEYSOUNDS:;
#ATTACKS:
;

//---------------dance-single - ----------------
#NOTEDATA:;
#CHARTNAME:;
#STEPSTYPE:dance-single;
#DESCRIPTION:;
#CHARTSTYLE:;
#DIFFICULTY:Hard;
#METER:14;
#RADARVALUES:0.403129,0.570040,0.290102,0.307684,0.479108,321.000000,288.000000,33.000000,35.000000,0.000000,0.000000,0.000000,0.000000,0.000000,0.403129,0.570040,0.290102,0.307684,0.479108,321.000000,288.000000,33.000000,35.000000,0.000000,0.000000,0.000000,0.000000,0.000000;
#CREDIT:Pandemonium X;
#NOTES:
0000
0000
0000
0000
,
0000
0000
0000
0000
,
0000
0000
0000
0000
,
0000
0000
0000
0000
,
1000
0000
0000
0010
0000
0100
0001
0000
0010
0000
0000
0000
0000
0000
0000
0000
,
0100
0000
0000
0010
0000
0001
1000
0000
0100
0000
0000
0000
0000
0000
0000
0000
,
1000
0000
0000
0001
0000
0010
0100
0000
1000
0000
0000
0000
0000
0000
0000
0000
,
0010
0000
0000
0100
0000
0010
1000
0000
0001
0010
0001
0010
0001
0010
0100
1000
,
0100
0000
0000
0100
0000
0001
0100
0000
1000
0000
0000
0000
0000
0000
0000
0000
,
0010
0000
0000
0001
0000
0010
1000
0000
0001
0000
0000
0000
0000
0000
0000
0000
,
1000
0000
0000
0001
0000
0100
0010
0000
1000
0000
0000
0000
0000
0000
0000
0000
,
0100
0000
0000
0000
0000
0000
1000
0000
0000
0000
0010
0000
1000
0000
0001
1000
0001
0000
0000
0000
1000
0000
0000
0000
1000
0000
0000
0000
0000
0000
0000
0000
,
0000
0000
0101
0000
0000
1010
0000
0000
1000
0000
0100
0000
0010
0100
1000
0001
,
0000
0000
1010
0000
0000
1100
0000
0000
0010
0000
0001
0000
0100
0001
1000
0100
,
0000
0000
0011
0000
0000
0101
0000
0000
0010
0000
0100
0000
0001
1000
0100
0010
,
0000
0000
0110
0000
0000
1100
0000
0000
1000
0000
0001
0000
1000
0000
0000
0000
,
0000
0000
1010
0000
0000
0011
0000
0000
0010
0000
0100
0000
0010
0001
1000
0001
,
0000
0000
0110
0000
0000
1010
0000
0000
1000
0000
0001
0000
0010
0001
1000
0001
,
0000
0000
1010
0000
0000
1100
0000
0000
0010
0000
0100
0000
1000
0001
0100
0001
,
0000
0000
1100
0000
0000
0011
0000
0000
1000
0000
0001
0000
1000
0000
0000
0000
,
0100
1000
0010
1000
,
0001
0010
0001
0100
,
0001
1000
0100
1000
,
0010
0000
0100
0010
2000
0000
3002
0000
,
1003
0000
0000
0010
0100
0000
0001
0000
0010
0000
0000
0000
0100
0000
0000
0000
,
0010
0000
0000
0100
1000
0000
0001
0000
1000
0000
0000
0000
0010
0000
0000
0000
,
0100
0000
0000
0010
0100
0000
0001
0000
0010
0000
0100
0000
1000
0000
0010
0000
,
1000
0001
1000
0001
1000
0001
1000
0001
1000
0001
1000
0001
0200
0000
0000
0000
0000
0000
0320
0000
0000
0000
0000
0000
,
1030
0000
0000
0000
0101
0000
0000
0000
0001
0010
0000
0110
0000
1100
0000
1001
,
0000
0201
0000
0000
0000
0300
0000
0010
1000
0001
0000
1001
0000
0012
0000
0000
,
2003
0000
0000
0000
3000
0000
0000
0100
1000
0001
0000
1001
0000
0102
0000
0000
,
2003
0000
0000
0000
3000
0000
0000
0100
0010
0001
0000
1000
0000
0010
0100
0000
,
2002
0000
0000
0000
3003
0000
0000
0000
1000
0010
0000
1010
0000
0110
0000
0101
,
0000
0012
0000
0000
0000
0003
0000
0010
0100
1000
0000
1100
0000
0021
0000
0000
,
0230
0000
0000
0000
0300
0000
0000
0000
0010
0100
0000
1000
0000
0001
0000
0100
,
0000
0001
0000
0000
0000
0000
1000
0000
0002
0000
0000
0000
1003
0000
0010
0000
,
0200
0000
0000
0000
0000
0000
0000
0000
0000
0000
0000
0000
0320
0000
0000
0000
0000
0000
0000
0000
0000
0000
0000
0000
2030
0000
0000
0000
0000
0000
0000
0000
0000
0000
0000
0000
3200
0000
0000
0000
0000
0000
0000
0000
0300
0010
0000
0000
,
0001
0010
0100
1000
0001
0000
0001
0100
0000
0100
0001
0000
1000
0000
0001
0010
,
0200
0320
0032
0203
,
0010
0001
0010
0001
,
0310
0000
1000
0000
0100
0000
0010
0000
0002
0000
0000
0000
1003
0100
1000
0001
,
0010
0001
1000
0010
1000
0100
0010
0100
1000
0000
1000
0002
0000
0000
0000
0000
,
0003
0000
0000
0200
0000
0000
0000
0000
0000
0000
0000
0000
0000
0000
0000
0000
0000
0000
0301
0000
1000
0000
0001
0000
1000
0000
0000
0000
0000
0000
0001
0000
1000
0000
0001
0000
1000
0000
0000
0000
0000
0000
0001
0000
1000
0000
0001
0000
,
1000
0001
0010
0001
1000
0100
0010
0100
1000
0010
0100
0000
0020
0000
0000
0000
,
0230
0000
0000
0300
,
0002
0000
0000
0003
,
2000
0000
0000
3000
,
0200
0000
0310
0100
,
1002
0000
0000
0003
,
2000
0000
0000
3000
,
0020
0000
0000
0030
,
0200
0000
0000
0000
0000
0000
0000
0300
;

//---------------dance-single - ----------------
#NOTEDATA:;
#CHARTNAME:;
#STEPSTYPE:dance-single;
#DESCRIPTION:;
#CHARTSTYLE:;
#DIFFICULTY:Medium;
#METER:9;
#RADARVALUES:0.295126,0.411418,0.026373,0.246147,0.246147,235.000000,232.000000,3.000000,28.000000,0.000000,0.000000,0.000000,0.000000,0.000000,0.295126,0.411418,0.026373,0.246147,0.246147,235.000000,232.000000,3.000000,28.000000,0.000000,0.000000,0.000000,0.000000,0.000000;
#CREDIT:Pandemonium X;
#NOTES:
// measure 0
0000
0000
0000
0000
,  // measure 1
0000
0000
0000
0000
,  // measure 2
0000
0000
0000
0000
,  // measure 3
0000
0000
0000
0000
,  // measure 4
1000
0000
0000
1000
0000
0000
0001
0000
1000
0000
0000
0000
0000
0000
0000
0000
,  // measure 5
0100
0000
0000
0100
0000
0000
0010
0000
0100
0000
0000
0000
0000
0000
0000
0000
,  // measure 6
0010
0000
0000
0010
0000
0000
0001
0000
0010
0000
0000
0000
0000
0000
0000
0000
,  // measure 7
0100
0000
0000
0100
0000
0000
1000
0000
0100
0000
0000
0000
1000
0000
0000
0000
,  // measure 8
0010
0000
0000
0010
0000
0000
0100
0000
0010
0000
0000
0000
0100
0000
0000
0000
,  // measure 9
0001
0000
0000
0001
0000
0000
1000
0000
0001
0000
0000
0000
1000
0000
0000
0000
,  // measure 10
0010
0000
0000
0010
0000
0000
0100
0000
0010
0000
0000
0000
1000
0000
0000
0000
,  // measure 11
0001
0000
0000
0001
0000
0000
0010
0000
0001
0000
0000
0000
0100
0000
0000
0000
,  // measure 12
0000
0000
0010
0000
0000
1000
0000
0000
0001
0000
1000
0000
0100
0000
0010
0001
,  // measure 13
0000
0000
0010
0000
0000
0100
0000
0000
0010
0000
0001
0000
1000
0000
0010
1000
,  // measure 14
0000
0000
0010
0000
0000
1000
0000
0000
0100
0000
1000
0000
0010
0000
0100
0010
,  // measure 15
0000
0000
0100
0000
0000
0010
0000
0000
1000
0000
0001
0000
1000
0000
0000
0000
,  // measure 16
0000
0000
0001
0000
0000
0010
0000
0000
0001
0000
0100
0000
0010
0000
1000
0010
,  // measure 17
0000
0000
0100
0000
0000
0010
0000
0000
0100
0000
0010
0000
1000
0000
0100
0010
,  // measure 18
0000
0000
0100
0000
0000
1000
0000
0000
0100
0000
0010
0000
0001
0000
0010
0100
,  // measure 19
0000
0000
0010
0000
0000
0001
0000
0000
1000
0000
0001
0000
1000
0000
0000
0000
,  // measure 20
0010
1000
0100
1000
,  // measure 21
0001
0100
0001
0010
,  // measure 22
0001
1000
0100
1000
,  // measure 23
0010
0100
0020
2030
,  // measure 24
3100
0000
1000
0100
0010
0000
0100
0000
,  // measure 25
1000
0000
0010
0100
0001
0000
0010
0000
,  // measure 26
0001
0000
1000
0001
0100
0000
0010
0000
,  // measure 27
0100
0010
1000
0001
2000
0000
3002
0000
,  // measure 28
1003
0000
0000
0000
0101
0000
0000
0000
0001
0010
0000
0001
0000
0010
0000
0100
,  // measure 29
0000
2000
0000
0000
0000
3000
0000
0100
1000
0100
0000
0010
0000
0001
0000
0000
,  // measure 30
0200
0000
0000
0000
0300
0000
0000
0010
1000
0010
0000
0100
0000
0001
0000
0000
,  // measure 31
0020
0000
0000
0000
0030
0000
0000
0000
0100
0010
0000
0001
0000
1000
0010
0000
,  // measure 32
0100
0000
0000
0000
1001
0000
0000
0000
1000
0010
0000
1000
0000
0100
0000
0010
,  // measure 33
0000
0200
0000
0000
0300
0000
0000
0010
0001
0010
0000
0001
0000
1000
0000
0000
,  // measure 34
0200
0000
0000
0000
0300
0000
0000
0000
0010
0001
0000
0100
0000
0001
0000
1000
,  // measure 35
0000
0001
0000
0000
0000
0000
0100
0000
0020
0000
0000
0000
0230
0000
0301
0000
,  // measure 36
0020
0230
2300
3002
,  // measure 37
0103
0001
0010
0001
1000
0001
0100
0001
,  // measure 38
2000
3020
0230
0302
,  // measure 39
0000
0000
0000
0000
,  // measure 40
1003
0100
1000
0001
0100
0000
0010
0100
,  // measure 41
0001
0000
1000
0000
0010
0000
1000
0000
0001
0000
0001
1000
0000
0000
0000
0000
,  // measure 42
0020
0000
0000
0000
0030
0000
1000
0001
1000
0000
0001
1000
0001
0000
1000
0001
,  // measure 43
1000
0100
0010
0100
1000
0010
0100
0001
,  // measure 44
0020
0000
0000
0030
,  // measure 45
0200
0000
0000
0300
,  // measure 46
0020
0000
0000
0030
,  // measure 47
0002
0000
1003
0001
,  // measure 48
0210
0000
0000
0300
,  // measure 49
0020
0000
0000
0030
,  // measure 50
2000
0000
0000
3000
,  // measure 51
0002
0000
0000
0000
,  // measure 52
0003
0000
0000
0000
;

//---------------dance-single - ----------------
#NOTEDATA:;
#CHARTNAME:;
#STEPSTYPE:dance-single;
#DESCRIPTION:;
#CHARTSTYLE:;
#DIFFICULTY:Easy;
#METER:5;
#RADARVALUES:0.180843,0.274278,0.061537,0.105492,0.000000,144.000000,137.000000,7.000000,12.000000,0.000000,0.000000,0.000000,0.000000,0.000000,0.180843,0.274278,0.061537,0.105492,0.000000,144.000000,137.000000,7.000000,12.000000,0.000000,0.000000,0.000000,0.000000,0.000000;
#CREDIT:Pandemonium X;
#NOTES:
// measure 0
0000
0000
0000
0000
,  // measure 1
0000
0000
0000
0000
,  // measure 2
0000
0000
0000
0000
,  // measure 3
0000
0000
0000
0000
,  // measure 4
1000
0001
1000
0000
,  // measure 5
0010
0100
0010
0000
,  // measure 6
1000
0010
1000
0000
,  // measure 7
0001
0100
0001
1000
,  // measure 8
0100
0010
0100
0000
,  // measure 9
1000
0001
1000
0000
,  // measure 10
0010
1000
0010
0000
,  // measure 11
0100
0001
0010
0001
,  // measure 12
1000
0001
1000
0010
,  // measure 13
1000
0001
0010
0010
,  // measure 14
0100
1000
0100
0100
,  // measure 15
1000
0000
0001
0000
0100
0010
0100
0000
,  // measure 16
0010
1000
0001
0010
,  // measure 17
0010
0001
1000
0100
,  // measure 18
0100
1000
0010
0100
,  // measure 19
0100
0000
0010
0000
1000
0001
1000
0000
,  // measure 20
0002
0000
0000
0003
,  // measure 21
2000
0000
0000
3000
,  // measure 22
0020
0000
0000
0030
,  // measure 23
0200
0000
0000
0300
,  // measure 24
0010
0000
1000
0000
,  // measure 25
0100
0000
1000
0000
,  // measure 26
0001
0000
1000
0000
,  // measure 27
0010
0000
0110
1001
,  // measure 28
0110
0010
1000
0001
,  // measure 29
0020
0030
0001
1000
,  // measure 30
0200
0300
1000
0001
,  // measure 31
0200
0300
0001
1000
,  // measure 32
0010
1001
1000
0001
,  // measure 33
0020
0030
0100
0010
,  // measure 34
0002
0003
0010
0001
,  // measure 35
0100
0010
1001
0110
,  // measure 36
1001
0001
1000
0010
,  // measure 37
1000
1000
2000
3000
,  // measure 38
0001
1000
0100
0020
,  // measure 39
0000
0000
0000
0030
,  // measure 40
0100
0010
0001
0001
,  // measure 41
1000
0010
1000
1000
,  // measure 42
0001
1000
0010
0010
,  // measure 43
0010
0100
0010
1000
,  // measure 44
0001
0000
0000
0000
,  // measure 45
1000
0000
0000
0000
,  // measure 46
0100
0000
0000
0000
,  // measure 47
0010
0000
0100
1000
,  // measure 48
0001
0000
0000
0000
,  // measure 49
0100
0000
0000
0000
,  // measure 50
0010
0000
0000
0000
,  // measure 51
0200
0000
0000
0000
,  // measure 52
0300
0000
0000
0000
;

//---------------dance-single - ----------------
#NOTEDATA:;
#CHARTNAME:;
#STEPSTYPE:dance-single;
#DESCRIPTION:;
#CHARTSTYLE:;
#DIFFICULTY:Beginner;
#METER:3;
#RADARVALUES:0.106748,0.179336,0.017582,0.000000,0.000000,85.000000,83.000000,2.000000,0.000000,0.000000,0.000000,0.000000,0.000000,0.000000,0.106748,0.179336,0.017582,0.000000,0.000000,85.000000,83.000000,2.000000,0.000000,0.000000,0.000000,0.000000,0.000000,0.000000;
#CREDIT:Pandemonium X;
#NOTES:
// measure 0
0000
0000
0000
0000
,  // measure 1
0000
0000
0000
0000
,  // measure 2
0000
0000
0000
0000
,  // measure 3
0000
0000
0000
0000
,  // measure 4
1000
0000
0000
0000
,  // measure 5
0100
0000
0000
0000
,  // measure 6
1000
0000
0000
0000
,  // measure 7
0001
0000
1000
0000
,  // measure 8
0010
0000
0000
0000
,  // measure 9
0100
0000
0000
0000
,  // measure 10
0010
0000
0000
0000
,  // measure 11
1000
0000
0001
0000
,  // measure 12
0100
0000
0010
0000
,  // measure 13
0100
0000
0001
0000
,  // measure 14
1000
0000
0100
0000
,  // measure 15
1000
0000
0001
0001
,  // measure 16
1000
0000
0010
0000
,  // measure 17
0100
0000
0010
0000
,  // measure 18
1000
0000
0001
0000
,  // measure 19
0010
0000
0100
0100
,  // measure 20
0000
0000
1000
0000
,  // measure 21
0000
0000
0001
0000
,  // measure 22
0000
0000
0100
0000
,  // measure 23
0000
0000
0010
0010
,  // measure 24
0000
0000
0100
0000
,  // measure 25
0000
0000
0010
0000
,  // measure 26
0000
0000
1000
0000
,  // measure 27
0000
0000
0001
0001
,  // measure 28
1000
0110
0010
0000
,  // measure 29
0100
0000
0010
0010
,  // measure 30
1000
0000
0010
0010
,  // measure 31
1000
0000
0010
0000
,  // measure 32
1001
0000
0001
0000
,  // measure 33
1000
0000
0100
0100
,  // measure 34
0010
0000
0100
0000
,  // measure 35
1000
0000
0010
0010
,  // measure 36
0100
0000
0001
0000
,  // measure 37
1000
0000
0000
0000
,  // measure 38
0100
0000
1000
0000
,  // measure 39
0001
0000
0000
0000
,  // measure 40
0010
0000
0001
0000
,  // measure 41
0100
0000
0000
0000
,  // measure 42
0010
0000
1000
1000
,  // measure 43
1000
0000
0001
0000
,  // measure 44
0100
0000
0000
0000
,  // measure 45
0010
0000
0000
0000
,  // measure 46
1000
0000
0000
0000
,  // measure 47
0001
0000
1000
0001
,  // measure 48
1000
0000
0000
0000
,  // measure 49
0010
0000
0000
0000
,  // measure 50
0100
0000
0000
0000
,  // measure 51
0010
0000
0000
0000
;
