#VERSION:0.83;
#TITLE:Cold Moon;
#SUBTITLE:;
#ARTIST:Ryu☆;
#TITLETRANSLIT:;
#SUBTITLETRANSLIT:;
#ARTISTTRANSLIT:;
#GENRE:MOON CORE;
#ORIGIN:;
#CREDIT:;
#BANNER:banner.png;
#BACKGROUND:background.png;
#PREVIEWVID:;
#JACKET:jacket.png;
#CDIMAGE:;
#DISCIMAGE:;
#LYRICSPATH:;
#CDTITLE:;
#MUSIC:Cold Moon.ogg;
#OFFSET:0.064000;
#SAMPLESTART:91.409149;
#SAMPLELENGTH:9.504951;
#SELECTABLE:YES;
#BPMS:0.000=202.000,
72.000=101.000,
104.000=202.000,
168.000=101.000,
184.000=202.000;
#STOPS:67.500=1.188,
247.500=1.188;
#DELAYS:;
#WARPS:;
#TIMESIGNATURES:0.000=4=4;
#TICKCOUNTS:0.000=4;
#COMBOS:0.000=1;
#SPEEDS:0.000=1.000=0.000=0;
#SCROLLS:0.000=1.000;
#FAKES:;
#LABELS:0.000=Song Start;
#BGCHANGES:;
#KEYSOUNDS:;
#ATTACKS:
;

//---------------dance-single - ----------------
#NOTEDATA:;
#CHARTNAME:;
#STEPSTYPE:dance-single;
#DESCRIPTION:;
#CHARTSTYLE:;
#DIFFICULTY:Hard;
#METER:14;
#RADARVALUES:0.638551,1.074151,0.147263,0.129938,0.290194,516.000000,499.000000,17.000000,15.000000,0.000000,0.000000,0.000000,0.000000,0.000000,0.638551,1.074151,0.147263,0.129938,0.290194,516.000000,499.000000,17.000000,15.000000,0.000000,0.000000,0.000000,0.000000,0.000000;
#CREDIT:Pandemonium X;
#NOTES:
// measure 0
0000
0000
0000
0000
,  // measure 1
0000
0000
0000
0000
,  // measure 2
0000
0000
0000
0000
,  // measure 3
0000
0000
0000
0000
,  // measure 4
0000
0000
0000
0000
,  // measure 5
0000
0000
0000
0000
,  // measure 6
0000
0000
0000
0000
,  // measure 7
0000
0000
0000
0000
,  // measure 8
0000
0000
0000
0000
,  // measure 9
1000
0100
0010
0100
,  // measure 10
1000
0001
0110
1001
,  // measure 11
0001
0010
0100
0010
,  // measure 12
0001
0000
0100
0000
0010
1000
0100
0000
,  // measure 13
0010
0100
1000
0010
,  // measure 14
0100
0001
1000
0100
,  // measure 15
0010
0100
1000
0010
,  // measure 16
0001
0010
0100
0001
0010
0100
1000
0001
,  // measure 17
0000
0000
0000
0000
,  // measure 18
1000
0001
0010
0100
0010
0001
1000
0010
0100
0001
0010
0001
1000
0000
0001
0000
,  // measure 19
1000
0010
0100
0010
1000
0100
0010
0001
1000
0000
0001
0000
0010
0100
1000
0000
,  // measure 20
0100
0010
0001
0100
0010
0100
0001
0010
0100
0010
0001
1000
0100
0010
0100
1000
,  // measure 21
0001
0100
0010
0100
0001
1000
0100
0010
0100
0000
0010
0001
0100
0010
1000
0000
,  // measure 22
0001
0010
0001
0100
0001
1000
0001
0010
0100
0010
0001
1000
0100
0000
0010
0000
,  // measure 23
0100
1000
0010
0100
0010
1000
0010
0100
0001
0000
0010
0000
0100
0010
0001
0000
,  // measure 24
1000
0001
0010
0001
1000
0010
1000
0001
0010
0100
1000
0100
0010
0100
1000
0001
,  // measure 25
0100
0010
1000
0001
1000
0100
0010
0001
,  // measure 26
1000
0010
1000
0010
1000
0010
1000
0010
,  // measure 27
0100
0001
0100
0001
0100
0001
0010
0000
,  // measure 28
0100
0010
0100
0010
0100
0010
0100
0010
,  // measure 29
0001
1000
0001
1000
0001
1000
0001
0000
,  // measure 30
1000
0010
0100
0001
1000
0010
0100
0001
,  // measure 31
1000
0010
0100
0001
1000
0010
0100
0000
,  // measure 32
0002
0013
0100
1000
,  // measure 33
0002
0103
0010
1001
,  // measure 34
0001
1000
0010
1000
0001
0010
0100
0010
,  // measure 35
0001
1000
0010
0101
,  // measure 36
0100
0010
1000
0001
0010
0001
1000
0100
,  // measure 37
0010
1001
0010
1001
,  // measure 38
1000
0001
0010
0100
0010
0001
0100
0010
,  // measure 39
1000
0001
0010
0100
0010
0001
1000
0100
,  // measure 40
0010
0100
1000
0010
0100
0001
0010
0001
,  // measure 41
1000
0001
1000
0001
1000
0001
1000
0001
1000
0001
1000
0001
1000
0001
1000
0001
,  // measure 42
2000
0000
3020
2030
,  // measure 43
3200
0000
0320
0032
,  // measure 44
0203
0000
0302
0000
,  // measure 45
2003
3020
0230
0302
,  // measure 46
1003
0100
0010
0100
,  // measure 47
1000
0010
0100
1001
,  // measure 48
0001
0010
0001
0100
,  // measure 49
0010
0000
1000
0000
0010
0100
0001
0000
,  // measure 50
1000
0001
0010
0001
,  // measure 51
1000
0100
0010
0100
,  // measure 52
1000
0010
0001
0010
,  // measure 53
1000
0100
0001
0100
,  // measure 54
1000
0100
1000
0100
1000
0100
1000
0010
,  // measure 55
0100
0001
0010
0100
1000
0000
1001
0000
,  // measure 56
0001
0010
0001
0010
0001
0010
0001
1000
,  // measure 57
0100
0000
0010
0000
0100
1000
0010
0000
,  // measure 58
0100
0001
0100
0001
0010
0001
0010
0100
,  // measure 59
1000
0100
0010
0100
1000
0001
0010
0100
,  // measure 60
0010
0001
0100
0010
1000
0001
0010
0001
,  // measure 61
1000
0010
1000
0010
1000
0010
1000
0010
1000
0010
1000
0010
1000
0010
1000
0000
,  // measure 62
0000
0000
0000
0000
,  // measure 63
1000
0010
0001
0010
1000
0010
0001
0010
,  // measure 64
1000
0100
0010
0001
1000
0000
1001
0000
,  // measure 65
1000
0100
0001
0100
1000
0100
0001
0100
,  // measure 66
0110
0000
0011
0000
0001
1000
1001
0000
,  // measure 67
0001
0100
1000
0100
0001
0100
1000
0100
,  // measure 68
0010
1000
0001
0010
0100
1000
0100
0010
,  // measure 69
0001
1000
0100
0010
0001
0010
0100
0010
,  // measure 70
0001
1000
0100
0010
0100
1000
0001
0000
,  // measure 71
1000
1000
0001
0100
0010
0010
1000
0100
,  // measure 72
0010
0010
0100
0100
1100
0000
0011
0000
,  // measure 73
0010
0010
0001
1000
0001
0001
1000
0001
,  // measure 74
0101
0000
1010
0000
1000
0100
0110
0000
,  // measure 75
0010
0010
0100
1000
0001
0001
1000
0010
,  // measure 76
0100
0100
0001
0001
0100
0010
1000
0100
,  // measure 77
0010
1000
0010
0001
0100
1000
0100
0001
,  // measure 78
1000
0001
1000
0001
1000
0001
1000
0001
1000
0001
1000
0001
1000
0001
1000
0001
,  // measure 79
0200
0000
0000
0000
,  // measure 80
0300
0000
0000
0000
;

//---------------dance-single - ----------------
#NOTEDATA:;
#CHARTNAME:;
#STEPSTYPE:dance-single;
#DESCRIPTION:;
#CHARTSTYLE:;
#DIFFICULTY:Easy;
#METER:7;
#RADARVALUES:0.318038,0.450450,0.069300,0.051975,0.000000,257.000000,249.000000,8.000000,6.000000,0.000000,0.000000,0.000000,0.000000,0.000000,0.318038,0.450450,0.069300,0.051975,0.000000,257.000000,249.000000,8.000000,6.000000,0.000000,0.000000,0.000000,0.000000,0.000000;
#CREDIT:Pandemonium X;
#NOTES:
0000
0000
0000
0000
,
0000
0000
0000
0000
,
0000
0000
0000
0000
,
0000
0000
0000
0000
,
0000
0000
0000
0000
,
0000
0000
0000
0000
,
0000
0000
0000
0000
,
0000
0000
0000
0000
,
0000
0000
0000
0000
,
1000
0000
0001
0000
,
0100
0010
1000
0000
,
0001
0000
0010
0000
,
0100
0010
0001
1000
,
0100
0000
1000
0000
,
0010
0000
1000
0000
,
0001
0010
0100
0010
,
0001
1000
0010
0100
,
0000
0000
0000
0000
,
0001
0000
1000
0000
0010
1000
0010
1000
,
0100
0000
0010
0000
0001
0010
0100
0010
,
0001
0000
1000
0000
0001
0100
0001
0100
,
0010
0000
0100
0000
0010
1000
0100
0010
,
0001
0000
0010
0000
0100
1000
0010
0000
,
0100
0000
0001
0000
0010
0100
1000
0100
,
0010
0000
0100
0000
1000
0010
0100
0000
,
0102
0000
0000
0000
,
0013
0001
0100
0001
,
1000
0100
0010
0100
,
1000
0010
0100
0001
,
0010
0100
0010
0001
,
1000
0010
1000
0100
,
1000
0010
0100
0001
,
0020
0000
0000
0000
,
0130
0000
2000
0000
,
3001
1000
0010
0100
,
0001
1000
1000
1001
,
0001
1000
0010
0001
,
0100
0110
0000
0110
,
0100
0010
1000
0001
,
0010
0001
1000
0100
,
0010
0100
1000
0010
,
0200
0000
0000
0000
,
0301
0000
0010
0001
,
1000
0000
0010
1000
,
0001
0000
0010
0000
,
0001
0100
0010
1000
,
0001
0000
0001
0000
,
0001
1000
0001
0000
,
1000
0000
1000
0000
,
0001
1000
0010
1000
,
0001
0000
0001
0000
,
1000
0000
1000
0000
,
0001
0000
0010
0000
,
0100
0000
0010
0000
,
0001
0100
0001
0100
,
0001
0100
0001
1001
,
1000
0100
1000
0100
,
1000
1000
0001
1000
,
0001
1000
0001
1000
,
0010
1000
0010
1000
,
0010
0100
0001
0010
,
1000
0010
0001
1000
,
0000
0000
0000
0000
,
0001
0100
0001
0010
,
0100
0010
0001
1001
,
1000
0001
0100
0001
,
0010
0000
0100
0000
1000
0100
1000
0000
,
0100
1000
0010
0100
,
0001
0010
0100
0010
,
0001
1000
0010
0100
,
0001
0001
0001
0001
,
1000
0001
0010
1000
,
0010
0100
1000
1001
,
0001
1000
0010
0001
,
0010
0000
0100
0000
0010
1000
0010
0000
,
1000
0100
0010
0100
,
1000
0010
0001
0010
,
0100
0010
1000
0001
,
1000
0100
0010
0001
,
2002
0000
0000
0000
,
3003
0000
0000
0000
;

//---------------dance-single - ----------------
#NOTEDATA:;
#CHARTNAME:;
#STEPSTYPE:dance-single;
#DESCRIPTION:;
#CHARTSTYLE:;
#DIFFICULTY:Medium;
#METER:10;
#RADARVALUES:0.445500,0.693001,0.138600,0.129938,0.008663,360.000000,344.000000,16.000000,15.000000,0.000000,0.000000,0.000000,0.000000,0.000000,0.445500,0.693001,0.138600,0.129938,0.008663,360.000000,344.000000,16.000000,15.000000,0.000000,0.000000,0.000000,0.000000,0.000000;
#CREDIT:Pandemonium X;
#NOTES:
0000
0000
0000
0000
,
0000
0000
0000
0000
,
0000
0000
0000
0000
,
0000
0000
0000
0000
,
0000
0000
0000
0000
,
0000
0000
0000
0000
,
0000
0000
0000
0000
,
0000
0000
0000
0000
,
0000
0000
0000
0000
,
1000
0010
0100
0001
,
0010
0100
1000
1001
,
1000
0010
0100
0001
,
0010
0000
0100
0000
0010
0100
1000
0000
,
0100
1000
0010
0100
,
0001
0010
1000
0010
,
0100
0010
0001
0100
,
1000
0000
0100
0000
0010
0000
1000
0001
,
0000
0000
0000
0000
,
1000
0100
0001
0100
0010
0001
0100
0010
,
1000
0000
0100
0000
0001
0000
0100
0000
0010
0000
0100
0000
1000
0001
1000
0000
,
0010
1000
0010
0100
0001
0010
1000
0010
,
0100
1000
0010
0100
0001
0010
0100
0110
,
0010
0000
0001
0101
0100
0000
0010
1010
,
1000
0000
0000
0000
0100
0000
0110
0000
0010
0000
0100
0000
1000
0010
0110
0000
,
0100
0000
0001
0011
0010
0000
0010
1100
,
2000
3020
0230
0302
,
0013
0000
0100
0000
1000
0010
0100
0000
,
0001
0000
1000
0000
0001
0010
0001
0000
,
0010
0000
0100
0000
1000
0100
0010
0000
,
0100
0000
1000
0000
0010
0100
0001
0010
,
0001
0000
0010
0000
0100
0010
0001
0000
,
0010
0000
0100
0000
1000
0010
1000
0000
,
0002
0000
0000
0000
,
2003
0000
3020
0000
,
0130
0001
0010
0100
,
0010
0011
1000
1100
,
1000
0001
0100
0010
,
1000
0011
1000
0011
,
0100
0001
0010
0100
,
0010
0001
1000
0010
,
0100
0010
1000
0000
0001
0010
0100
0000
,
0010
0001
0100
0010
1000
0100
0010
0001
,
1000
0000
0001
1000
,
0200
0000
0310
0001
,
0200
0000
0320
0000
,
2030
3002
0023
0230
,
1300
0100
1000
0010
,
0100
0001
0010
0010
,
0100
0010
0001
0100
,
0010
0000
0010
0000
0100
0010
0100
0000
,
0010
1000
0001
0010
,
0100
0010
0001
1000
,
0001
0100
1000
0100
,
0001
0100
0010
1000
,
0001
0010
0100
1000
,
0100
1000
0100
1000
0100
0000
1000
0000
,
0010
0100
0001
0010
,
0100
0000
0010
0000
0001
0100
0010
0000
,
0100
0001
1000
0010
,
1000
0100
0010
0001
,
0010
0001
0100
0010
,
1000
0010
0100
0010
1000
0001
0010
0100
,
0000
0000
0000
0000
,
1000
0100
0010
0100
,
1000
0010
0100
0001
0010
0000
0100
0000
,
0010
0001
0100
0010
,
1000
0000
1010
0000
1000
0010
0100
0000
,
0001
0010
0100
0010
,
0001
1000
0010
0100
,
0001
0100
0010
1000
,
1001
0000
0001
0010
0100
0010
0001
0000
,
1000
0010
1000
0010
1000
0010
1000
0010
,
1000
0010
1000
0010
1000
0000
1010
0000
,
0001
0100
0001
0100
0001
0100
0001
0100
,
0001
0000
0101
0000
0001
0010
0100
0000
,
1000
0100
1000
0100
1000
0100
1000
0100
,
1000
0100
1000
0100
1000
0100
1000
0100
,
1000
0100
0010
0001
0010
0100
0010
0001
,
1000
0100
0010
0001
1000
0100
0010
0100
,
2000
0000
0000
0000
,
3000
0000
0000
0000
;

//---------------dance-single - ----------------
#NOTEDATA:;
#CHARTNAME:;
#STEPSTYPE:dance-single;
#DESCRIPTION:;
#CHARTSTYLE:;
#DIFFICULTY:Beginner;
#METER:5;
#RADARVALUES:0.183150,0.311850,0.008663,0.008663,0.000000,148.000000,147.000000,1.000000,1.000000,0.000000,0.000000,0.000000,0.000000,0.000000,0.183150,0.311850,0.008663,0.008663,0.000000,148.000000,147.000000,1.000000,1.000000,0.000000,0.000000,0.000000,0.000000,0.000000;
#CREDIT:Pandemonium X;
#NOTES:
0000
0000
0000
0000
,
0000
0000
0000
0000
,
0000
0000
0000
0000
,
0000
0000
0000
0000
,
0000
0000
0000
0000
,
0000
0000
0000
0000
,
0000
0000
0000
0000
,
0000
0000
0000
0000
,
0000
0000
0000
0000
,
1000
0000
1000
0000
,
1000
0000
0000
0000
,
0001
0000
0001
0000
,
0001
0000
0000
0000
,
0100
0000
0000
0000
,
0010
0000
0000
0000
,
1000
0000
0010
0000
,
0100
0000
0001
0000
,
0000
0000
0000
0000
,
1000
0000
1000
0000
,
0001
0000
0001
0000
,
0100
0000
0100
0000
,
0010
0000
0010
0000
,
0100
0000
0000
0010
0000
0000
0000
0010
,
0000
0000
0000
0010
0000
0000
0000
0010
,
0000
0000
0000
0100
0000
0000
0000
0100
,
0000
0000
0000
0000
,
0001
0000
0000
0000
,
1000
0000
0000
0000
,
0010
0000
0000
0000
,
1000
0000
0001
0000
,
0010
0000
0000
0000
,
0001
0000
0000
0000
,
1000
0000
0000
0000
,
0100
0000
1000
0000
,
0010
0000
0000
0000
,
0100
0000
0100
0010
,
0100
0000
0100
0000
,
0010
0100
0000
0100
,
0010
0000
0000
0000
,
1000
0000
0000
0000
,
0001
0000
1000
0000
,
0010
0000
0100
0000
,
1001
0000
0001
0001
,
0001
0000
1000
1000
,
1000
0000
0010
0000
,
0100
0010
1000
0001
,
0010
0000
0100
0000
,
1000
0000
0000
0000
,
0100
0000
0010
0000
,
0001
0001
1000
0000
,
0001
0000
0100
0000
,
0010
0000
0100
0000
,
0001
0000
1000
0000
,
0100
0000
1000
0000
,
0001
0000
1000
0000
,
0001
1000
0010
1000
,
0001
0000
1000
0000
,
0010
0000
1000
0000
,
0100
0000
1000
0000
,
0010
0000
0100
0000
,
0001
0000
0010
0000
,
0100
0010
0001
1000
,
0000
0000
0000
0000
,
1000
0000
0001
0000
,
0100
0010
0100
0000
,
0010
0000
1000
0000
,
0001
0010
0001
1000
,
0100
0000
1000
0000
,
0010
1000
0010
0000
,
0100
0000
0001
0000
,
0010
0000
0000
0000
,
0100
1000
0100
1000
,
0100
1000
0100
0000
,
0010
0001
0010
0001
,
0010
0010
0001
0001
,
1000
0001
1000
0000
,
0001
0100
0001
0000
,
0100
0000
0010
0000
,
1000
0010
0100
0001
,
0020
0000
0000
0000
,
0030
0000
0000
0000
;
