#TITLE:Canvas;
#SUBTITLE:(feat. Nicole Curry);
#ARTIST:aran;
#TITLETRANSLIT:;
#SUBTITLETRANSLIT:;
#ARTISTTRANSLIT:;
#GENRE:GARAGE;
#CREDIT:;
#BANNER:banner.png;
#BACKGROUND:background.png;
#LYRICSPATH:;
#CDTITLE:CDTITLE.png;
#MUSIC:Canvas (feat. Nicole Curry).ogg;
#OFFSET:-1.557001;
#SAMPLESTART:52.757000;
#SAMPLELENGTH:25.600002;
#SELECTABLE:YES;
#BPMS:0.000000=150.000000
;
#STOPS:
;
#BGCHANGES:;
#KEYSOUNDS:;
#ATTACKS:;

//---------------dance-single - ----------------
#NOTES:
     dance-single:
     :
     Hard:
     13:
     0.536522,0.673826,0.249099,0.268261,0.167663,392.000000,366.000000,26.000000,28.000000,0.000000,0.000000,0.536522,0.673826,0.249099,0.268261,0.167663,392.000000,366.000000,26.000000,28.000000,0.000000,0.000000:
// measure 0
0000
0000
1000
0000
0001
0000
0010
0001
,  // measure 1
0100
0000
0000
0000
0010
0000
0010
0100
,  // measure 2
0001
1000
0100
0000
0000
0000
0000
1000
,  // measure 3
0001
1000
0000
0000
0000
0000
0000
0000
,  // measure 4
0000
0000
0001
0000
1000
0000
0100
0010
,  // measure 5
0001
0000
0000
0010
0100
0000
0000
0010
,  // measure 6
0001
1000
0001
0000
0000
0000
0000
0100
,  // measure 7
0010
0100
0000
0000
0000
0000
0000
0000
,  // measure 8
0000
0000
2000
0000
3100
0000
0010
0001
,  // measure 9
1000
0000
0000
0001
0100
0000
0010
0000
,  // measure 10
1000
0100
0010
0000
0000
0000
0000
0000
,  // measure 11
0100
1000
0002
0000
2003
0000
3020
0000
,  // measure 12
2000
0000
3030
0000
,  // measure 13
0002
0023
0230
0320
,  // measure 14
0032
0000
0000
0203
0000
0000
0300
0010
,  // measure 15
0200
0000
0302
0013
,  // measure 16
2100
0000
0000
3010
0000
0100
0000
0001
,  // measure 17
0000
0010
0000
0000
1000
0010
0001
0100
,  // measure 18
0002
0000
0000
1003
0000
0001
0000
1000
,  // measure 19
0000
0100
1000
0010
0100
0010
1000
0000
,  // measure 20
0021
0000
0000
0130
0000
0010
0000
0001
,  // measure 21
0000
0100
0000
0000
1000
0100
0001
0100
,  // measure 22
0020
0000
0000
0130
0000
0001
0000
0010
,  // measure 23
0000
0100
0010
0001
0100
0010
0100
0000
,  // measure 24
2001
0000
0000
3001
0000
0011
0000
1100
,  // measure 25
0000
0101
0000
0000
0001
0010
1000
0010
,  // measure 26
0200
0000
0000
1300
0000
1100
0000
0011
,  // measure 27
0000
0001
0010
1000
0010
0100
1000
0000
,  // measure 28
1002
0000
0000
1003
0000
0101
0000
0011
,  // measure 29
0000
0101
0000
0000
0001
0100
0010
1000
,  // measure 30
0200
0000
0000
0310
0000
0110
0000
1001
,  // measure 31
0000
0001
1000
0100
0001
0010
1000
0000
,  // measure 32
0001
0000
0000
1000
0000
0000
0010
0000
0000
1000
0000
0001
1000
0000
0000
0100
0000
0000
0010
0000
0000
0100
0000
0000
,  // measure 33
1000
0000
0000
0001
0000
0000
0100
0000
0000
0010
0000
1000
0100
0000
0000
0010
0000
0000
0001
0000
0000
1000
0000
0000
,  // measure 34
0001
0000
0000
0100
0000
0000
0001
0000
0000
0010
0000
0100
0010
0000
0000
0001
0000
0000
1000
0000
0000
0100
0000
0000
,  // measure 35
1000
0000
0000
0100
0000
0000
0001
0000
0000
0100
0000
0010
0001
0000
0000
1000
0000
0001
0010
0000
0000
0100
0000
0000
,  // measure 36
0010
0000
0000
0001
0000
0000
0100
0000
0000
0010
0000
1000
0001
0000
0000
1000
0000
0000
0010
0000
0000
1000
0000
0000
,  // measure 37
0100
0000
0000
0010
0000
0000
0100
0000
0000
1000
0000
0010
0100
0000
0000
0010
0000
0000
1000
0000
0000
0100
0000
0000
,  // measure 38
0010
0000
0000
0100
0000
0000
1000
0000
0000
0010
0000
0100
0001
0000
0000
0010
0000
0000
0001
0000
0000
1000
0000
0000
,  // measure 39
0001
0000
0000
0100
0000
0000
0010
0000
0000
1000
0000
0010
1000
0000
0000
0010
0000
0000
0100
0000
0000
0001
0000
0000
,  // measure 40
1000
0000
0000
0100
0000
0000
1000
0000
0000
0010
0000
0000
0001
0000
0000
0010
0000
0000
0100
0000
0000
0001
0000
1000
,  // measure 41
0001
0000
0000
0010
0000
0000
0100
0000
0000
0010
0000
0000
0001
0000
0000
0100
0000
0000
0010
0000
0000
1000
0000
0100
,  // measure 42
1000
0000
0000
0100
0000
0000
1000
0000
0000
0001
0000
0000
0010
0000
0000
0001
0000
0000
0100
0000
0000
0010
0000
1000
,  // measure 43
0100
0000
0000
0010
0000
0000
0100
0000
0000
1000
0000
0000
0001
0000
0100
0001
0000
0000
1000
0000
0100
0010
0000
0000
,  // measure 44
0001
0000
0000
0010
0000
0000
1000
0000
0000
0010
0000
0000
0100
0000
0000
0010
0000
0000
0001
0000
0000
1000
0000
0001
,  // measure 45
0100
0000
0000
0001
0000
0000
0010
0000
0000
0001
0000
0000
1000
0000
0000
0010
0000
0000
0100
0000
0000
0001
0000
0010
,  // measure 46
0100
0000
0000
0010
0000
0000
0001
0000
0000
1000
0000
0000
0010
0000
0000
0100
0000
0000
0010
0000
0000
1000
0000
0100
,  // measure 47
0010
0000
0000
0001
0000
0000
0010
0000
0000
0100
0000
0000
1000
0000
0001
1000
0000
1000
0001
0000
0001
1000
0000
1000
,  // measure 48
0001
0000
0000
0000
1020
0000
0000
0100
0000
0100
0000
0000
1030
0000
0000
0000
,  // measure 49
0011
0000
0000
0000
2100
0000
0000
0010
0000
0010
0000
0000
3001
0000
0000
0000
,  // measure 50
0011
0000
0000
0000
0210
0000
0000
1000
0000
1300
0000
0000
1001
0000
1000
0000
,  // measure 51
0100
0000
0000
0001
0000
0000
0100
0000
0000
0010
0000
0001
0010
0000
0000
0010
0000
0100
1000
0000
0000
0001
0000
0000
,  // measure 52
2001
0000
0000
0000
0010
0000
0000
0001
0000
3001
0000
0000
0101
0000
0000
0000
,  // measure 53
0021
0000
0000
0000
0100
0000
0000
0001
0000
0031
0000
0000
1100
0000
0000
0000
,  // measure 54
0102
0000
0000
0000
0100
0000
0000
0010
0000
0013
0000
0000
1100
0000
1000
0000
,  // measure 55
0100
0001
0100
1000
0010
0001
0010
1000
,  // measure 56
0001
1000
0000
0001
0000
0010
0100
1000
,  // measure 57
0000
0100
0000
1000
0000
0010
0100
0001
,  // measure 58
0000
1000
0000
0001
0000
0010
0100
1000
,  // measure 59
0000
0100
0000
1000
0000
0010
0100
0001
,  // measure 60
0000
0010
0000
0100
0000
0010
0001
0100
,  // measure 61
0000
0010
0000
1000
0000
0100
0010
0001
,  // measure 62
1000
0001
0100
0010
,  // measure 63
2000
0000
0000
0000
0000
0000
0000
0000
0000
0000
0000
0000
0000
0000
0000
3000
;

//---------------dance-single - ----------------
#NOTES:
     dance-single:
     :
     Medium:
     7:
     0.343538,0.429217,0.086227,0.086227,0.000000,251.000000,242.000000,9.000000,9.000000,0.000000,0.000000,0.343538,0.429217,0.086227,0.086227,0.000000,251.000000,242.000000,9.000000,9.000000,0.000000,0.000000:
// measure 0
0000
1000
0001
1000
,  // measure 1
0001
0000
0100
0001
,  // measure 2
0010
0000
0000
0000
,  // measure 3
0100
0000
0000
0000
,  // measure 4
0000
0010
0001
1000
,  // measure 5
0010
0000
1000
0000
,  // measure 6
0001
1000
0000
0000
,  // measure 7
0010
0000
0000
0000
,  // measure 8
0100
0010
1000
0001
,  // measure 9
0010
0000
1000
0010
,  // measure 10
0100
0010
0000
0000
,  // measure 11
0100
1000
0010
0001
,  // measure 12
0010
0000
0000
0000
,  // measure 13
0100
0010
1000
0001
,  // measure 14
0010
0000
0000
0100
0000
0000
0000
0010
,  // measure 15
0001
0000
1000
0001
,  // measure 16
0012
0000
0000
0103
0000
0010
0000
1000
,  // measure 17
0000
0001
0000
0000
1000
0000
0001
0000
,  // measure 18
0020
0000
0000
0031
0000
0010
0000
0001
,  // measure 19
0000
0100
0010
0000
1000
0000
0001
0000
,  // measure 20
2100
0000
0000
3001
0000
1000
0000
0010
,  // measure 21
0000
1000
0000
0000
0010
0000
0100
0000
,  // measure 22
0002
0000
0000
0013
0000
0001
0000
0010
,  // measure 23
0000
0001
0100
0000
0010
0000
1000
0000
,  // measure 24
0201
0000
0000
0310
0000
0100
0000
0001
,  // measure 25
0000
1000
0000
0000
0100
0000
0010
0000
,  // measure 26
0002
0000
0000
0013
0000
0001
0000
0100
,  // measure 27
0000
0010
1000
0000
0100
0000
0001
0000
,  // measure 28
0201
0000
0000
0310
0000
0100
0000
1000
,  // measure 29
0000
0010
0000
0000
0100
0010
1000
0001
,  // measure 30
2000
0000
0000
3001
0000
0010
0000
0001
,  // measure 31
0000
0100
0010
1000
0001
0100
0010
0000
,  // measure 32
1000
0001
0010
0001
,  // measure 33
0100
0001
1000
0100
,  // measure 34
0010
0100
1000
0001
,  // measure 35
1000
0010
1000
0000
0010
0100
0010
0000
,  // measure 36
0100
0001
1000
0100
,  // measure 37
1000
0001
0010
0100
,  // measure 38
0010
0001
0100
0010
,  // measure 39
1000
0010
1000
0000
0010
0100
0010
0000
,  // measure 40
0100
0001
1000
0100
,  // measure 41
0001
0100
1000
0010
,  // measure 42
0001
0010
0100
0001
,  // measure 43
1000
0001
1000
0000
0010
0100
0010
0000
,  // measure 44
0100
0001
0100
1000
,  // measure 45
0100
0010
1000
0100
,  // measure 46
0001
0100
0010
0001
,  // measure 47
0011
0011
1100
0010
,  // measure 48
1001
0000
0001
0000
0010
0001
0010
0000
,  // measure 49
0001
0000
0100
0000
0010
1000
0010
0000
,  // measure 50
1000
0000
0001
0000
0010
0001
0010
0000
,  // measure 51
0100
0010
0001
0100
,  // measure 52
0010
0000
1000
0000
0100
0010
0100
0000
,  // measure 53
0010
0000
0001
0000
1000
0010
1000
0000
,  // measure 54
0001
0100
0010
1000
,  // measure 55
0100
0010
0001
0000
0010
0100
1000
0000
,  // measure 56
1001
0001
1000
0010
,  // measure 57
1000
0001
0010
0100
,  // measure 58
0010
0001
1000
0010
,  // measure 59
0100
0010
1000
0001
,  // measure 60
0010
0001
1000
0100
,  // measure 61
1000
0010
0100
0010
,  // measure 62
1000
1000
1000
1000
,  // measure 63
0002
0000
0000
0000
,  // measure 64
0003
0000
0000
0000
;

//---------------dance-single - ----------------
#NOTES:
     dance-single:
     :
     Easy:
     4:
     0.168347,0.337242,0.038323,0.047904,0.000000,123.000000,119.000000,4.000000,5.000000,0.000000,0.000000,0.168347,0.337242,0.038323,0.047904,0.000000,123.000000,119.000000,4.000000,5.000000,0.000000,0.000000:
// measure 0
0000
0000
0000
0000
,  // measure 1
0000
0000
0000
0000
,  // measure 2
0000
0000
0000
0000
,  // measure 3
0000
0000
0000
0000
,  // measure 4
1000
0000
0000
0000
,  // measure 5
0000
0000
0000
0000
,  // measure 6
0100
0000
0000
0000
,  // measure 7
1000
0000
0001
0000
,  // measure 8
0100
0000
0000
0000
,  // measure 9
0010
0000
0000
0000
,  // measure 10
1000
0000
0000
0000
,  // measure 11
0001
0000
1000
0000
,  // measure 12
0100
0000
0000
0000
,  // measure 13
1000
0000
0010
0000
,  // measure 14
0100
0000
0000
0000
,  // measure 15
0001
0000
1000
0001
,  // measure 16
0200
0000
0000
0310
0000
0000
0000
0000
,  // measure 17
0010
0000
0000
0000
,  // measure 18
1000
0000
0000
0000
,  // measure 19
0001
0000
1000
0000
,  // measure 20
0200
0000
0000
1300
0000
0000
0000
0000
,  // measure 21
0100
0000
0000
0000
,  // measure 22
1000
0000
0000
0000
,  // measure 23
0010
0000
0100
0000
,  // measure 24
0002
0000
0000
0013
0000
0000
0000
0000
,  // measure 25
0001
0000
1000
0000
,  // measure 26
0001
0000
0000
0000
,  // measure 27
0100
0000
0010
0000
,  // measure 28
0200
0000
0000
0301
0000
0000
0000
0000
,  // measure 29
0010
0000
0001
0000
,  // measure 30
1000
0000
0000
0000
,  // measure 31
0001
1000
0010
0100
,  // measure 32
1001
0000
0001
0000
,  // measure 33
1000
0000
0010
0000
,  // measure 34
1000
0000
0100
0000
,  // measure 35
1000
0001
0100
0010
,  // measure 36
1000
0000
0010
0000
,  // measure 37
0100
0000
0001
0000
,  // measure 38
0010
0000
0001
0000
,  // measure 39
1000
0100
1000
0010
,  // measure 40
0100
0000
0010
0000
,  // measure 41
1000
0000
0001
0000
,  // measure 42
0010
0000
0001
0000
,  // measure 43
1000
0001
0100
0001
,  // measure 44
1000
0000
0100
0000
,  // measure 45
1000
0000
0010
0000
,  // measure 46
0100
0010
1000
0000
,  // measure 47
1001
1001
0110
1000
,  // measure 48
0001
1000
0010
0000
,  // measure 49
1000
0001
0010
0000
,  // measure 50
0100
0010
0001
0000
,  // measure 51
0010
0001
1000
0100
,  // measure 52
0010
0100
1000
0000
,  // measure 53
0100
1000
0010
0000
,  // measure 54
0100
0001
1000
0100
,  // measure 55
0010
0001
0010
0100
,  // measure 56
1000
0000
0000
0000
,  // measure 57
0001
0000
0000
0000
,  // measure 58
0100
0000
0000
0000
,  // measure 59
0010
0000
0000
0000
,  // measure 60
1000
0000
0000
0000
,  // measure 61
0001
0000
0000
0000
,  // measure 62
0200
0000
0000
0000
,  // measure 63
0000
0000
0000
0000
,  // measure 64
0300
0000
0000
0000
;

//---------------dance-single - ----------------
#NOTES:
     dance-single:
     :
     Beginner:
     3:
     0.095807,0.150897,0.047904,0.000000,0.000000,70.000000,65.000000,5.000000,0.000000,0.000000,0.000000,0.095807,0.150897,0.047904,0.000000,0.000000,70.000000,65.000000,5.000000,0.000000,0.000000,0.000000:
// measure 0
0000
0000
0000
0000
,  // measure 1
0000
0000
0000
0000
,  // measure 2
0000
0000
0000
0000
,  // measure 3
0000
0000
0000
0000
,  // measure 4
0000
0000
0000
0000
,  // measure 5
0000
0000
0000
0000
,  // measure 6
0000
0000
0000
0000
,  // measure 7
0000
0000
0000
0000
,  // measure 8
1000
0000
0000
0000
,  // measure 9
0001
0000
0000
0000
,  // measure 10
0100
0000
0000
0000
,  // measure 11
0010
0000
1000
0000
,  // measure 12
0100
0000
0000
0000
,  // measure 13
0010
0000
0001
0000
,  // measure 14
1000
0000
0000
0000
,  // measure 15
0001
0000
1000
0000
,  // measure 16
0110
0000
0000
0000
,  // measure 17
0010
0000
0000
0000
,  // measure 18
0100
0000
0000
0000
,  // measure 19
0010
0000
0000
0000
,  // measure 20
1001
0000
0000
0000
,  // measure 21
1000
0000
0000
0000
,  // measure 22
0001
0000
0000
0000
,  // measure 23
1000
0000
0000
0000
,  // measure 24
0110
0000
0000
0000
,  // measure 25
1000
0000
0000
0000
,  // measure 26
0010
0000
0000
0000
,  // measure 27
0100
0000
0000
0000
,  // measure 28
0110
0000
0000
0000
,  // measure 29
0010
0000
0000
0000
,  // measure 30
0100
0000
0000
0000
,  // measure 31
0001
0000
1000
0000
,  // measure 32
0110
0000
0000
0000
,  // measure 33
0010
0000
0000
0000
,  // measure 34
1000
0000
0000
0000
,  // measure 35
0100
0000
1000
0000
,  // measure 36
0001
0000
0000
0000
,  // measure 37
0100
0000
0000
0000
,  // measure 38
0010
0000
0000
0000
,  // measure 39
1000
0000
0001
0000
,  // measure 40
1000
0000
0000
0000
,  // measure 41
0100
0000
0000
0000
,  // measure 42
1000
0000
0000
0000
,  // measure 43
0010
0000
0100
0000
,  // measure 44
0010
0000
0000
0000
,  // measure 45
0100
0000
0000
0000
,  // measure 46
0001
0000
0000
0000
,  // measure 47
1000
0000
0001
0000
,  // measure 48
0100
0000
0000
0000
,  // measure 49
0010
0000
0000
0000
,  // measure 50
1000
0000
0000
0000
,  // measure 51
0100
0000
0000
0000
,  // measure 52
1000
0000
0000
0000
,  // measure 53
0010
0000
0000
0000
,  // measure 54
0100
0000
0010
0000
,  // measure 55
0100
0000
0000
0000
,  // measure 56
0001
0000
0000
0000
,  // measure 57
1000
0000
0000
0000
,  // measure 58
0010
0000
0000
0000
,  // measure 59
1000
0000
0000
0000
,  // measure 60
0100
0000
0000
0000
,  // measure 61
1000
0000
0000
0000
,  // measure 62
0001
0000
0000
0000
,  // measure 63
0100
0000
0000
0000
;
