#VERSION:0.83;
#TITLE:CODE 0;
#SUBTITLE:;
#ARTIST:HEXA;
#TITLETRANSLIT:;
#SUBTITLETRANSLIT:;
#ARTISTTRANSLIT:;
#GENRE:BIG BEAT;
#ORIGIN:;
#CREDIT:;
#BANNER:CODE 0.png;
#BACKGROUND:background.png;
#PREVIEWVID:;
#JACKET:jacket.png;
#CDIMAGE:;
#DISCIMAGE:;
#LYRICSPATH:;
#CDTITLE:CDTITLE.png;
#MUSIC:CODE-0.ogg;
#OFFSET:-0.016000;
#SAMPLESTART:7.692000;
#SAMPLELENGTH:15.360000;
#SELECTABLE:YES;
#BPMS:0.000=125.000;
#STOPS:119.500=0.120,
127.250=0.120,
131.000=0.120,
134.750=0.120,
225.750=0.480;
#DELAYS:;
#WARPS:;
#TIMESIGNATURES:0.000=4=4;
#TICKCOUNTS:0.000=4;
#COMBOS:0.000=1;
#SPEEDS:0.000=1.000=0.000=0;
#SCROLLS:0.000=1.000;
#FAKES:;
#LABELS:0.000=Song Start;
#BGCHANGES:0.000=code 0.avi=1.000=0=0=1=====,
241.750=background.png=1.000=1=0=1===CrossFade==,
99999=-nosongbg-=1.000=0=0=0 // don't automatically add -songbackground-
;
#KEYSOUNDS:;
#ATTACKS:
;

//---------------dance-single - ----------------
#NOTEDATA:;
#CHARTNAME:;
#STEPSTYPE:dance-single;
#DESCRIPTION:;
#CHARTSTYLE:;
#DIFFICULTY:Hard;
#METER:16;
#RADARVALUES:0.779383,0.857091,0.125130,0.375391,1.201251,654.000000,639.000000,15.000000,45.000000,0.000000,0.000000,0.000000,0.000000,0.000000,0.779383,0.857091,0.125130,0.375391,1.201251,654.000000,639.000000,15.000000,45.000000,0.000000,0.000000,0.000000,0.000000,0.000000;
#CREDIT:Pandemonium X;
#NOTES:
// measure 0
0000
0000
0000
0000
,  // measure 1
0000
0000
0000
0000
,  // measure 2
0000
0000
0000
0000
,  // measure 3
0000
0000
0000
0000
0000
0000
1001
0110
,  // measure 4
0001
0000
1000
0000
0010
1000
0000
0100
0020
0000
0000
0000
0031
0000
0000
0000
,  // measure 5
0100
0000
0001
0000
0010
0001
0000
1000
0020
0000
0000
0000
0130
0000
0000
0000
,  // measure 6
0001
0000
0010
0000
0100
0010
0000
0001
2000
0000
0000
0000
3010
0000
0000
0000
,  // measure 7
0100
0000
0001
0000
0010
0100
0000
1000
0002
0000
0000
0000
0103
0000
0000
0000
,  // measure 8
0010
1000
0001
0000
0010
0100
0000
0010
0002
0000
0000
0000
0103
0000
0000
0000
,  // measure 9
0010
1000
0100
0000
0010
0100
0000
1000
0002
0000
0000
0000
1003
0000
0000
0000
,  // measure 10
0100
1000
0010
0000
0100
0001
0000
0010
0200
0000
0000
0000
0310
0000
0000
0000
,  // measure 11
0100
1000
0010
0000
0100
0001
0000
0010
0200
0000
0000
0000
1300
0000
1001
0000
,  // measure 12
0001
0000
1000
0010
1000
0000
0001
0000
0010
0000
0100
0010
0000
0010
0001
0010
,  // measure 13
0000
0100
1000
0100
1000
0100
1000
0001
0100
0000
0001
1000
0010
1000
0001
0010
,  // measure 14
0100
1000
0100
0000
1000
0010
0000
0100
0000
0001
0000
0010
0100
0010
0001
1000
,  // measure 15
0010
0100
0000
0001
1000
0100
0010
0100
1000
0000
0001
1000
0010
0000
0010
1000
,  // measure 16
0100
0010
0001
0000
0010
0100
0000
0010
0001
0000
0100
0010
0000
1000
0001
0010
,  // measure 17
0100
0010
0001
0000
1000
0010
0000
0100
0001
0000
0010
0100
0010
0001
1000
0001
,  // measure 18
0010
0000
0000
0001
0000
0000
0100
0000
0000
0000
0000
0000
0010
0000
0000
0100
0000
0000
0001
0000
0000
1000
0000
0000
0010
0000
0000
0000
0000
0000
0100
0000
0000
0001
0000
0000
0010
0000
0000
0100
0000
0000
1000
0000
0001
0000
1000
0000
,  // measure 19
0001
0000
0000
0000
0000
0000
1000
0000
0001
0000
1000
0000
0001
0000
0000
0000
0000
0000
1000
0000
0001
0000
1000
0000
0001
0000
0000
0000
0000
0000
1000
0000
0001
0000
1000
0000
0001
0000
0000
0010
0000
0000
0100
0000
0000
1000
0000
0000
,  // measure 20
0002
0000
0000
0203
0000
0000
1300
0000
1200
0000
0000
0000
0301
0000
0000
0000
,  // measure 21
2000
0000
0000
3020
0000
0000
0031
0000
0021
0000
0000
0000
1030
0000
0000
0000
,  // measure 22
1002
0000
0000
0010
0000
0000
1003
0000
0210
0000
0000
0000
0301
0000
0000
0000
,  // measure 23
2001
0000
0000
0100
0000
0000
3001
0000
0120
0000
0000
0000
1030
0000
0000
0000
,  // measure 24
0100
1000
0000
0100
0010
0001
0000
1000
0020
0000
0000
0000
0130
0000
0000
0000
,  // measure 25
0010
1000
0000
0001
0010
0100
0000
0010
0002
0000
0000
0000
0103
0000
0000
0000
,  // measure 26
0010
1000
0000
0001
0010
0100
0000
0010
0002
0000
0000
0000
1003
0000
0000
0000
,  // measure 27
0100
0010
0000
0100
1000
0010
0000
0100
0020
0000
0000
0000
1030
0000
0000
0000
,  // measure 28
0001
1000
0000
0100
0010
0001
0000
0010
0100
1000
0000
0100
1000
0010
0100
0001
,  // measure 29
1000
0100
0000
1000
0010
0100
0000
0010
1000
0001
0000
0010
0100
0010
0001
1000
,  // measure 30
0010
0000
0100
0001
0010
0000
0100
0010
0001
0000
1000
0010
0000
1000
0000
0001
,  // measure 31
1000
0000
0100
1000
0010
0000
0100
0001
0010
0000
0100
0010
0000
0001
1000
0010
,  // measure 32
0000
0100
0001
0010
0000
0100
0010
0001
0000
1000
0001
0000
0100
0010
1000
0000
,  // measure 33
0001
0010
0100
0000
0010
0001
1000
0000
0010
1000
0000
0001
1000
0100
0010
0000
,  // measure 34
0001
0000
0000
0000
0000
0000
0011
0000
0000
0000
0000
0000
1100
0000
0000
0000
0000
0000
0100
0000
0000
0010
0000
0000
0001
0000
0000
0000
0000
0000
1000
0000
0001
0000
1000
0000
0001
0000
0000
0000
0000
0000
1000
0000
0001
0000
1000
0000
,  // measure 35
0001
0000
0000
0000
0000
0000
1000
0000
0001
0000
1000
0000
0001
0000
0000
0000
0000
0000
1000
0000
0001
0000
1000
0000
1001
0000
0000
0000
0000
0000
0110
0000
0000
0000
0000
0000
0001
0000
0000
0100
0000
0000
0010
0000
0000
0100
0000
0000
,  // measure 36
0001
0010
0100
0010
0001
0100
0010
0100
0001
0010
0100
0000
1000
0010
0100
0010
,  // measure 37
1000
0100
0010
0100
1000
0010
0100
0010
1000
0100
1000
0000
0001
1000
0010
1000
,  // measure 38
0001
0010
0001
1000
0010
1000
0001
0010
0001
1000
0001
0000
1000
0001
0100
0001
,  // measure 39
1000
0100
1000
0001
0100
0001
1000
0100
1000
0001
1000
0000
0001
0100
0010
1000
,  // measure 40
0001
0100
0010
1000
0001
0010
0100
1000
0001
0010
0100
0000
1000
0010
0100
0001
,  // measure 41
1000
0010
0100
0001
1000
0100
0010
0001
1000
0100
0010
0000
0100
1000
0010
0100
,  // measure 42
0001
0010
0100
0010
0001
1000
0010
1000
0001
0010
0100
0000
0010
0001
0100
0010
,  // measure 43
1000
0100
0010
0100
1000
0001
0100
0001
1000
0100
0010
0000
0100
1000
0010
0000
,  // measure 44
0001
0010
0000
1000
0100
0000
0001
0100
0000
1000
0010
0000
0100
0001
0010
0000
,  // measure 45
1000
0010
0000
0001
0100
0000
1000
0100
0000
0010
1000
0000
0001
1000
0100
0000
,  // measure 46
0001
0100
0000
1000
0010
0000
0100
0001
0000
0010
0100
0000
1000
0100
0001
0000
,  // measure 47
0100
1000
0000
0010
0001
0000
0010
0100
0000
0100
0010
0010
1000
0001
0020
0000
,  // measure 48
0130
2000
0000
3010
0200
0000
0301
0020
0000
0130
2000
0000
3001
0100
0020
0000
,  // measure 49
1030
0200
0000
0301
0200
0000
0310
0002
0000
1003
0200
0000
1300
0002
0000
0103
,  // measure 50
0010
2000
0000
3001
0020
0000
0130
0020
0000
0031
2000
0000
3001
1000
0001
0000
,  // measure 51
1000
0001
1000
0000
0001
0100
0010
1000
0001
0100
0010
1000
0200
0000
0000
0000
,  // measure 52
0000
0000
0000
0000
0300
0000
1001
0000
0110
0000
2000
3000
0001
0000
0100
0000
,  // measure 53
0001
0010
0000
0100
0020
0000
0031
1000
0001
0000
0200
0310
1000
0000
0001
0010
,  // measure 54
0100
0000
0010
0001
0000
1000
0100
0000
0010
0100
2000
3010
0100
0010
0000
1000
,  // measure 55
0001
0000
0010
0100
0000
0010
0001
0000
1000
0001
0200
0301
0010
0100
0000
0100
,  // measure 56
0010
0001
0000
1000
0001
0100
0001
0100
0001
0100
1000
0000
0100
0010
1000
0001
,  // measure 57
0010
0100
0010
0001
1000
0010
0200
0301
1000
0100
0001
0000
0100
0010
0001
1000
,  // measure 58
0010
0100
0001
0010
0100
1000
0200
0310
0001
1000
0000
0010
1000
0001
0010
0001
,  // measure 59
1000
0000
0000
0100
0000
0000
0010
0000
0000
0100
0000
0000
1000
0000
0000
0001
0000
0000
1000
0000
0001
0000
1000
0000
0100
0000
0000
0000
0000
0000
1000
0000
0001
0000
1000
0000
0010
0000
0000
0000
0000
0000
1000
0000
0001
0000
1000
0000
,  // measure 60
0100
0000
0000
0000
0000
0000
1000
0000
0001
0000
1000
0000
0001
0000
0000
0010
0000
0000
0100
0000
0000
1000
0000
0000
0000
0000
0000
0000
0000
0000
0000
0000
0000
0000
0000
0000
0000
0000
0000
0000
0000
0000
0000
0000
0000
0000
0000
0000
;

//---------------dance-single - ----------------
#NOTEDATA:;
#CHARTNAME:;
#STEPSTYPE:dance-single;
#DESCRIPTION:;
#CHARTSTYLE:;
#DIFFICULTY:Medium;
#METER:11;
#RADARVALUES:0.468345,0.554588,0.200209,0.325339,0.246090,393.000000,369.000000,24.000000,39.000000,0.000000,0.000000,0.000000,0.000000,0.000000,0.468345,0.554588,0.200209,0.325339,0.246090,393.000000,369.000000,24.000000,39.000000,0.000000,0.000000,0.000000,0.000000,0.000000;
#CREDIT:Pandemonium X;
#NOTES:
// measure 0
0000
0000
0000
0000
,  // measure 1
0000
0000
0000
0000
,  // measure 2
0000
0000
0000
0000
,  // measure 3
0000
0000
0000
0000
0000
0000
1001
0110
,  // measure 4
1000
0100
0010
0001
0011
0000
0000
0000
,  // measure 5
0001
0010
0100
1000
1100
0000
0000
0000
,  // measure 6
1000
0010
0100
0001
0101
0000
0000
0000
,  // measure 7
0001
0010
0001
1000
1100
0000
0000
0000
,  // measure 8
1000
0100
0001
0100
1100
0000
0000
0000
,  // measure 9
1000
0010
0001
0010
1010
0000
0000
0000
,  // measure 10
1000
0010
0001
0010
0110
0000
0000
0000
,  // measure 11
0100
1000
0100
0001
0011
0000
0000
0001
,  // measure 12
1000
0100
0010
0000
0100
1000
0001
0000
,  // measure 13
0100
0001
0010
1000
0010
0100
1000
0001
,  // measure 14
1000
0001
0100
0000
0010
1000
0100
0000
,  // measure 15
0010
0100
1000
0001
0100
0001
0010
0100
,  // measure 16
1000
0001
0010
0000
0100
0010
0001
0000
,  // measure 17
0010
0001
1000
0100
0010
0100
1000
0001
,  // measure 18
0100
0001
0010
0000
0100
1000
0010
0000
,  // measure 19
0100
0010
1000
0001
0010
0001
1000
0100
,  // measure 20
0020
0032
0200
0303
,  // measure 21
0020
2030
0200
3300
,  // measure 22
2000
3002
0020
0033
,  // measure 23
2000
3200
0020
0330
,  // measure 24
0100
2000
0020
3030
,  // measure 25
0200
0302
0020
0033
,  // measure 26
0200
0320
0002
0033
,  // measure 27
2000
3002
0020
0033
,  // measure 28
0001
0000
0010
0000
0100
0000
0010
0001
,  // measure 29
0100
0000
0000
0000
0010
0000
0000
0000
1000
0000
0000
0000
0001
0000
1001
1000
,  // measure 30
0000
0000
0000
0100
0000
0000
0000
0010
0000
0000
0000
0100
0000
1000
0000
0001
,  // measure 31
0000
0000
0000
0100
0000
0000
0000
0010
0000
0000
0000
1000
0000
1001
0001
0000
,  // measure 32
0000
0000
1000
0000
0000
0000
0100
0000
0000
0000
0010
0000
0110
0100
0000
0000
,  // measure 33
0000
0010
0000
0000
0000
0001
0000
0000
0000
1000
0000
1001
0001
0000
0000
0000
,  // measure 34
0100
0010
1000
0000
0010
1000
0001
1000
,  // measure 35
0100
1000
0001
0100
1001
0110
0001
1000
,  // measure 36
0100
1000
0000
0100
0020
0000
0000
0000
0031
0000
0000
0000
1000
0000
0001
0000
,  // measure 37
0100
0001
0000
0010
0200
0000
0000
0000
1300
0000
0000
0000
0100
0000
1000
0000
,  // measure 38
0010
1000
0000
0100
0020
0000
0000
0000
0031
0000
0000
0000
0100
0000
0010
0000
,  // measure 39
1000
0010
0000
0100
0020
0000
0000
0000
1030
0000
0000
0000
0001
0000
1000
0000
,  // measure 40
0100
0010
0000
0100
2000
0000
0000
0000
3010
0000
0000
0000
0100
0000
0001
0000
,  // measure 41
0010
0100
0000
0010
0002
0000
0000
0000
1003
0000
0000
0000
0010
0000
0100
0000
,  // measure 42
0001
0010
0000
0100
0020
0000
0000
0000
0031
0000
0000
0000
1000
0001
0000
0010
,  // measure 43
0100
0000
0010
0000
0001
0010
0000
0100
1000
0000
0001
0000
0100
0000
1000
0000
,  // measure 44
0100
0010
2000
3010
0100
0110
0010
1000
,  // measure 45
0001
0010
2000
3010
0001
0011
0001
0010
,  // measure 46
0100
1000
0200
0310
0100
1100
0100
1000
,  // measure 47
0010
0000
0100
0000
0010
1000
0010
1000
0000
0001
0010
0001
1000
0000
0001
0000
,  // measure 48
0010
0100
2000
3100
0010
0011
0010
0100
,  // measure 49
0010
0100
2000
3001
0100
1010
1000
0001
,  // measure 50
0010
0100
0020
0031
0010
0110
0100
1000
,  // measure 51
0010
0000
0100
0000
0001
0000
1000
0000
0001
0100
0010
1000
0000
0000
0000
0000
,  // measure 52
0000
0000
0010
0110
1001
0100
0001
0010
,  // measure 53
0100
0000
1000
0000
0100
0000
0000
0000
1000
0000
0000
0000
0100
1000
0000
0100
,  // measure 54
0010
0000
0100
1000
0000
0100
0010
0000
0100
1000
0010
0100
0001
0000
0000
0000
,  // measure 55
1000
0000
0010
0000
0100
0000
0000
0000
0010
0000
0000
0000
1000
0001
0000
0010
,  // measure 56
0100
0000
0010
0001
1000
0010
1000
0001
1000
0000
0100
0000
0010
0001
0010
0001
,  // measure 57
0020
0000
0000
0000
0130
0000
0000
0000
1000
0000
0010
0000
0100
0001
0100
0001
,  // measure 58
0200
0000
0000
0000
0310
0000
1000
0000
0001
0000
1000
0000
0100
1000
0100
1000
,  // measure 59
0200
0000
0310
0001
1000
0001
0100
1000
,  // measure 60
0100
0000
0010
1000
0001
0010
0100
1000
0000
0000
0000
0000
0000
0000
0000
0000
;

//---------------dance-single - ----------------
#NOTEDATA:;
#CHARTNAME:;
#STEPSTYPE:dance-single;
#DESCRIPTION:;
#CHARTSTYLE:;
#DIFFICULTY:Easy;
#METER:7;
#RADARVALUES:0.287204,0.377737,0.208551,0.075078,0.050052,241.000000,216.000000,25.000000,9.000000,0.000000,0.000000,0.000000,0.000000,11.000000,0.287204,0.377737,0.208551,0.075078,0.050052,241.000000,216.000000,25.000000,9.000000,0.000000,0.000000,0.000000,0.000000,11.000000;
#CREDIT:Pandemonium X;
#NOTES:
// measure 0
0000
0000
0000
0000
,  // measure 1
0000
0000
0000
0000
,  // measure 2
0000
0000
0000
0000
,  // measure 3
0000
0000
0000
0000
0000
0000
0001
0001
,  // measure 4
0001
1000
0010
0000
,  // measure 5
1000
0100
0010
0000
,  // measure 6
0100
1000
0001
0000
,  // measure 7
0100
0010
1000
0000
,  // measure 8
0010
1000
1100
0000
,  // measure 9
1000
0001
0101
0000
,  // measure 10
0001
1000
1010
0000
,  // measure 11
1000
0100
0011
0001
,  // measure 12
1000
0001
0100
0001
,  // measure 13
0010
0100
0010
0001
,  // measure 14
1000
0100
1000
0010
,  // measure 15
0100
0001
1000
0100
,  // measure 16
1000
0010
0100
0001
,  // measure 17
0010
0100
0010
0001
,  // measure 18
1000
0010
1000
0001
,  // measure 19
1001
0110
1001
0110
,  // measure 20
1000
0010
0200
0000
,  // measure 21
0310
1000
0200
0000
,  // measure 22
0310
0001
2000
0000
,  // measure 23
3001
1000
0200
0000
,  // measure 24
0310
0001
0020
0000
,  // measure 25
0130
1000
0020
0000
,  // measure 26
0130
0001
2000
0000
,  // measure 27
3001
1000
0200
0000
,  // measure 28
1300
0100
1000
0010
,  // measure 29
0100
0000
0000
0000
0001
0000
0000
0000
1000
0000
0000
0000
000F
0000
0000
0100
,  // measure 30
0000
0000
0000
0010
0000
0000
0000
1000
0000
0000
0000
0001
0000
0000
0000
0010
,  // measure 31
0000
0000
0000
0001
0000
0000
0000
0100
0000
0000
0000
0010
0000
0000
0100
0000
,  // measure 32
0000
0000
0001
0000
0000
0000
1000
0000
0000
0000
0100
0000
0000
0010
0000
0000
,  // measure 33
0000
0001
0000
0000
0000
0100
0000
0000
0000
0010
0000
0000
0100
0000
0000
0000
,  // measure 34
0001
1000
0100
1000
,  // measure 35
0001
0000
0100
0000
0010
0010
0100
0000
,  // measure 36
000F
0F0F
0100
000F
,  // measure 37
0010
0110
0100
F000
,  // measure 38
000F
F00F
F000
0001
,  // measure 39
0F00
1001
0001
1000
,  // measure 40
0010
0110
0010
1000
,  // measure 41
0100
0110
0010
0001
,  // measure 42
1000
1001
0001
0100
,  // measure 43
0001
0011
0010
0100
,  // measure 44
1000
0000
0100
0000
1000
0100
0010
0000
,  // measure 45
0100
0000
1000
0000
0010
0100
0001
0000
,  // measure 46
1000
0000
0001
0000
0100
0010
1000
0000
,  // measure 47
0100
1000
0000
0100
,  // measure 48
1000
0000
0010
0000
0100
0010
1000
0000
,  // measure 49
0001
0000
0010
0000
0100
0010
0001
0000
,  // measure 50
0010
0000
0100
0000
1000
0100
0010
0000
,  // measure 51
0100
0000
1000
0000
0010
0100
0002
0000
,  // measure 52
0000
0000
0000
1000
1000
0000
1003
0000
,  // measure 53
0001
0110
1000
0101
,  // measure 54
1010
0101
1010
0001
,  // measure 55
1000
0100
0010
0000
0100
0000
1100
0000
,  // measure 56
0110
0000
0011
0000
0001
0000
0100
0010
,  // measure 57
1000
0000
0100
0000
0010
0000
0001
0010
,  // measure 58
0100
0000
0010
0000
0001
0000
1000
0001
,  // measure 59
0100
0001
1010
0101
,  // measure 60
1010
0000
0001
1000
0000
0000
0000
0000
;

//---------------dance-single - ----------------
#NOTEDATA:;
#CHARTNAME:;
#STEPSTYPE:dance-single;
#DESCRIPTION:;
#CHARTSTYLE:;
#DIFFICULTY:Beginner;
#METER:4;
#RADARVALUES:0.132281,0.175912,0.033368,0.000000,0.025026,111.000000,107.000000,4.000000,0.000000,0.000000,0.000000,0.000000,0.000000,0.000000,0.132281,0.175912,0.033368,0.000000,0.025026,111.000000,107.000000,4.000000,0.000000,0.000000,0.000000,0.000000,0.000000,0.000000;
#CREDIT:Pandemonium X;
#NOTES:
// measure 0
0000
0000
0000
0000
,  // measure 1
0000
0000
0000
0000
,  // measure 2
0000
0000
0000
0000
,  // measure 3
0000
0000
0000
0000
,  // measure 4
1000
0000
0010
0000
,  // measure 5
1000
0000
0100
0000
,  // measure 6
1000
0000
0001
0000
,  // measure 7
0100
0000
0010
0000
,  // measure 8
1000
0000
0100
0000
,  // measure 9
0010
0000
0100
0000
,  // measure 10
1000
0000
0010
0000
,  // measure 11
0100
0000
0001
0000
,  // measure 12
1000
0000
0100
0000
,  // measure 13
1000
0000
0001
0000
,  // measure 14
0100
0000
0010
0000
,  // measure 15
1000
0000
0010
0000
,  // measure 16
1000
0000
0001
0000
,  // measure 17
0010
0000
0100
0000
,  // measure 18
0010
0000
0001
0000
,  // measure 19
1000
0001
0100
0010
,  // measure 20
1000
0000
0000
0000
,  // measure 21
0001
0000
0000
0000
,  // measure 22
0010
0000
0000
0000
,  // measure 23
0100
0000
0000
0000
,  // measure 24
0010
0000
0000
0000
,  // measure 25
0001
0000
0000
0000
,  // measure 26
1000
0000
0000
0000
,  // measure 27
0010
0000
0000
0000
,  // measure 28
1000
0000
0001
0000
,  // measure 29
0010
0000
0000
0000
0000
0000
0000
0000
0001
0000
0000
0000
0000
0000
0000
1000
,  // measure 30
0000
0000
0000
0000
0000
0000
0000
0010
0000
0000
0000
0000
0000
0000
0000
0100
,  // measure 31
0000
0000
0000
0000
0000
0000
0000
0010
0000
0000
0000
0000
0000
0000
1000
0000
,  // measure 32
0000
0000
0000
0000
0000
0000
0100
0000
0000
0000
0000
0000
0000
0010
0000
0000
,  // measure 33
0000
0000
0000
0000
0000
0001
0000
0000
0000
0000
0000
0000
1000
0000
0000
0000
,  // measure 34
0000
0001
0000
0100
,  // measure 35
0010
1000
0000
1001
,  // measure 36
0000
0010
0000
1000
,  // measure 37
0000
0100
0000
1000
,  // measure 38
0000
0010
0000
0100
,  // measure 39
0000
0001
0000
0010
,  // measure 40
0000
0001
0000
1000
,  // measure 41
0000
0010
0000
1000
,  // measure 42
0000
0100
0000
1000
,  // measure 43
0000
0001
0000
0110
,  // measure 44
0000
0010
0000
0100
,  // measure 45
0000
0001
0000
1000
,  // measure 46
0000
0100
0000
1000
,  // measure 47
0000
0010
0000
0010
,  // measure 48
0000
0100
0000
0010
,  // measure 49
0000
1000
0000
0001
,  // measure 50
0000
0010
0000
0001
,  // measure 51
0000
1000
0000
0010
,  // measure 52
0000
0000
0000
0100
,  // measure 53
0000
0000
0000
0110
,  // measure 54
0000
0000
0000
0001
,  // measure 55
0000
0000
0000
1001
,  // measure 56
0000
1000
0010
0000
,  // measure 57
0100
0000
0001
0000
,  // measure 58
1000
0000
0100
0000
,  // measure 59
0010
0000
0001
1000
,  // measure 60
0010
0100
0000
0000
;

//---------------dance-single - ----------------
#NOTEDATA:;
#CHARTNAME:;
#STEPSTYPE:dance-single;
#DESCRIPTION:;
#CHARTSTYLE:;
#DIFFICULTY:Challenge;
#METER:17;
#RADARVALUES:0.906897,0.907508,0.108446,0.400417,1.539103,761.000000,748.000000,13.000000,48.000000,0.000000,0.000000,0.000000,0.000000,0.000000,0.906897,0.907508,0.108446,0.400417,1.539103,761.000000,748.000000,13.000000,48.000000,0.000000,0.000000,0.000000,0.000000,0.000000;
#CREDIT:Pandemonium X;
#NOTES:
// measure 0
0000
0000
0000
0000
,  // measure 1
0000
0000
0000
0000
,  // measure 2
0000
0000
0000
0000
0000
0000
0000
0000
0000
0000
0000
0000
0000
0000
0000
0000
0000
0000
0000
0000
0000
1000
0001
1000
,  // measure 3
0001
0000
0000
1000
0001
1000
0001
0000
0000
1000
0001
1000
0001
0000
0000
1000
0001
1000
0001
0000
0000
1010
0000
0000
,  // measure 4
0001
0100
0010
0100
0001
1000
0100
0010
0200
0000
0000
0000
0300
0000
0000
0000
,  // measure 5
0010
0001
0000
0010
1000
0010
0001
1000
0020
0000
0000
0000
0030
0000
0000
0000
,  // measure 6
0100
0001
0100
0010
1000
0100
0010
0100
2000
0000
0000
0000
3000
0000
0000
0000
,  // measure 7
0001
0100
0000
1000
0100
0010
0100
0001
0020
0000
0000
0000
0030
0000
0000
0000
,  // measure 8
0100
0010
0100
1000
0010
0100
0010
1000
0002
0000
0000
0000
0003
0000
0000
0000
,  // measure 9
1000
0100
0000
0001
0100
0010
0100
1000
0020
0000
0000
0000
0030
0000
0000
0000
,  // measure 10
0100
0001
0010
0001
1000
0100
0010
0001
0200
0000
0000
0000
0300
0000
0000
0000
,  // measure 11
0010
1000
0000
0001
0100
1000
0100
0010
0100
0010
1000
0001
1000
0000
0110
0000
,  // measure 12
1000
0000
0000
0000
0000
0000
0001
0000
0100
0000
0001
0000
0100
0000
0000
0000
0000
0000
0010
0000
0000
1000
0000
0000
0100
0000
0000
0100
0000
0000
0010
0000
0000
0100
0000
0000
0000
0000
0000
0100
0000
0000
1000
0000
0000
0100
0000
0000
,  // measure 13
0000
0000
0000
0010
0001
0000
0010
0000
0000
0010
0000
0000
0001
0000
0000
0001
0000
0000
0010
0000
0000
0100
0000
0000
1000
0000
0000
0000
0000
0000
1000
0000
0001
1000
0000
0000
0100
0000
0000
1000
0000
0000
1000
0000
0000
0001
0000
0000
,  // measure 14
0000
0100
0100
0010
1000
0100
0000
0010
0000
0010
0000
0100
0010
0100
1000
0001
,  // measure 15
0100
0000
0000
0010
0000
0000
0000
0000
0000
1000
0000
0000
0001
0000
0000
0010
0000
0000
0100
0000
1000
0000
0100
0000
1000
0000
0000
0000
0000
0000
1000
0000
0000
0001
0000
0000
0100
0000
0000
0100
0000
0000
0010
0000
0000
0010
0000
0000
,  // measure 16
0100
0000
0000
0001
0000
0000
1000
0000
0000
0000
0000
0000
0001
0000
1000
0000
0001
0000
1000
0000
0000
0100
0000
0000
1000
0000
0000
0010
0000
0000
0000
0000
0000
0100
0000
0000
0000
0000
0000
0001
0000
0000
1000
0000
0000
0100
0000
0000
,  // measure 17
0010
0000
0000
0010
0000
0000
0000
0000
0000
0001
0000
0000
1000
0000
0001
1000
0000
0000
0001
0000
0000
0001
0000
0000
0100
0000
0000
0010
0000
0000
0000
0000
0000
0100
0000
0000
0010
0000
0000
0100
0000
0000
0100
0000
0000
0001
0000
0000
,  // measure 18
0010
0000
0000
0100
1000
0000
0100
0000
0000
0000
0000
0000
0100
0000
0000
0010
0000
0000
0000
0000
0000
0001
0000
0000
0000
0000
0000
0010
0000
0000
0100
0000
0000
0010
0000
0000
0010
0000
0000
0001
0000
0000
1000
0000
0001
0000
1000
0000
,  // measure 19
0001
0000
0000
0000
0000
0000
1000
0000
0001
0000
1000
0000
0001
0000
0000
0000
0000
0000
1000
0000
0001
0000
1000
0000
0001
0000
0000
0000
0000
0000
1000
0000
0001
0000
1000
0000
0001
0000
0000
0010
0000
0000
0100
0000
0000
1000
0000
0000
,  // measure 20
0010
2000
0000
3100
0001
0100
0010
0001
2000
0000
0000
0000
0010
0000
3000
0000
,  // measure 21
0001
0200
0000
1300
0100
0010
1000
0001
0020
0000
0000
0000
0100
0000
0030
0000
,  // measure 22
0001
0200
0000
0310
1000
0100
0010
0100
2000
0000
0000
0000
0100
0000
3000
0000
,  // measure 23
0001
0200
0000
0301
0010
0001
1000
0100
0020
0000
0000
0000
0100
0000
0030
0000
,  // measure 24
0001
2000
0000
3010
1000
0100
0001
0100
2000
0000
0000
0000
0010
0000
3000
0000
,  // measure 25
0100
0020
0000
0130
1000
0010
0100
0001
0020
0000
0000
0000
0100
0000
0030
0000
,  // measure 26
0001
0200
0000
0301
0100
1000
0100
0010
2000
0000
0000
0000
0010
0000
3000
0000
,  // measure 27
0001
0020
0000
0130
1000
0100
0001
0100
1000
0100
0010
0001
1000
0100
0010
0001
,  // measure 28
1000
0001
1000
0010
1000
0001
1000
0100
1000
0001
1000
0010
1000
0001
1000
0100
,  // measure 29
1000
0100
1000
0001
1000
0001
1000
0010
1000
0010
1000
0010
0100
0001
0010
0001
,  // measure 30
0100
0001
1000
0001
0010
0001
1000
0001
0100
0001
1000
0001
0010
0001
1000
0001
,  // measure 31
0100
0001
0100
0001
0010
0001
0010
0001
1000
0001
1000
0001
0010
0100
1000
0100
,  // measure 32
0001
0100
1000
0100
0010
0001
0010
0100
1000
0100
0001
0100
1000
0010
0001
0010
,  // measure 33
1000
0010
0001
0010
1000
0010
0001
0010
0100
0001
0010
0100
0010
1000
0001
0010
,  // measure 34
1000
0000
0000
0010
0000
0000
0001
0000
0000
0100
0000
0000
0010
0000
0000
1000
0000
0000
0001
0000
0000
1000
0000
0000
0100
0000
0000
0010
0000
0000
0001
0000
0010
0000
0001
0000
0010
0000
0000
0000
0000
0000
1000
0000
0100
0000
1000
0000
,  // measure 35
0100
0000
0000
1000
0010
1000
0010
0000
0000
0100
0001
0100
0001
0000
0000
1010
0000
0000
1000
0001
0100
0001
0000
0000
,  // measure 36
0100
0000
0000
0001
0000
0000
0010
0000
0000
0100
0000
0000
0020
0000
0000
0000
0000
0000
0000
0000
0000
0000
0000
0000
0001
0000
0000
0000
0000
0000
0030
0000
0000
0000
0000
0000
0100
0000
1000
0000
0010
0000
0100
0000
0000
0000
0000
0000
,  // measure 37
0010
0000
0000
1000
0000
0000
0001
0000
0000
0010
0000
0000
0200
0000
0000
0000
0000
0000
0000
0000
0000
0000
0000
0000
1000
0000
0000
0000
0000
0000
0300
0000
0000
0000
0000
0000
0010
0000
0001
0000
0010
0000
0100
0000
0000
0000
0000
0000
,  // measure 38
0010
0000
0000
0001
0000
0000
0100
0000
0000
0001
0000
0000
2000
0000
0000
0000
0000
0000
0000
0000
0000
0000
0000
0000
0100
0000
0000
0000
0000
0000
3000
0000
0000
0000
0000
0000
0010
0000
1000
0000
0001
0000
1000
0000
0000
0000
0000
0000
,  // measure 39
0100
0000
0000
0010
0000
0000
0100
0000
0000
1000
0000
0000
0002
0000
0000
0000
0000
0000
0000
0000
0000
0000
0000
0000
0100
0000
0000
0000
0000
0000
0003
0000
0000
0000
0000
0000
1000
0000
0100
0000
0010
0000
0001
0000
0000
0000
0000
0000
,  // measure 40
1000
0000
0000
0001
0000
0000
0100
0000
0000
0001
0000
0000
0020
0000
0000
0000
0000
0000
0000
0000
0000
0000
0000
0000
0100
0000
0000
0000
0000
0000
0030
0000
0000
0000
0000
0000
0100
0000
0010
0000
0001
0000
1000
0000
0000
0000
0000
0000
,  // measure 41
0010
0000
0000
1000
0000
0000
0001
0000
0000
0010
0000
0000
0002
0000
0000
0000
0000
0000
0000
0000
0000
0000
0000
0000
0100
0000
0000
0000
0000
0000
0003
0000
0000
0000
0000
0000
1000
0000
0010
0000
1000
0000
0100
0000
0000
0000
0000
0000
,  // measure 42
0010
0000
0000
0100
0000
0000
1000
0000
0000
0010
0000
0000
0200
0000
0000
0000
0000
0000
0000
0000
0000
0000
0000
0000
0010
0000
0000
0000
0000
0000
0300
0000
0000
0000
0000
0000
0001
0000
0010
0000
0001
0000
1000
0000
0000
0000
0000
0000
,  // measure 43
0100
0000
0000
0010
0000
0000
0001
0000
0000
1000
0000
0000
0010
0000
0000
0001
0000
0000
0010
0000
0000
0100
0000
0000
0001
0000
0000
1000
0000
0000
0100
0000
0000
0010
0000
0000
0001
0000
1000
0000
0001
0000
1000
0000
0000
0001
0000
0000
,  // measure 44
0100
0000
0010
0000
1000
0000
0010
0000
0000
0100
0000
0000
0001
0000
0000
0010
0000
0000
0100
0000
0000
1000
0000
0000
0100
0000
0000
0000
0000
0000
1001
0000
0000
0000
0000
0000
1000
0000
0100
0000
1000
0000
0100
0000
0000
0010
0000
0000
,  // measure 45
0001
0000
0100
0000
0001
0000
1000
0000
0000
0001
0000
0000
0010
0000
0000
0100
0000
0000
0010
0000
0000
0001
0000
0000
1000
0000
0000
0000
0000
0000
0101
0000
0000
0000
0000
0000
0100
0000
0001
0000
0100
0000
0001
0000
0000
1000
0000
0000
,  // measure 46
0100
0000
0010
0000
0001
0000
1000
0000
0000
0001
0000
0000
0100
0000
0000
0001
0000
0000
0010
0000
0000
0100
0000
0000
1000
0000
0000
0000
0000
0000
0110
0000
0000
0000
0000
0000
1000
0000
0001
0000
1000
0000
0001
0000
0000
0010
0000
0000
,  // measure 47
0100
0000
0010
0000
0001
0000
0010
0000
0000
0001
0000
0000
1000
0000
0000
1000
0000
0000
0001
0000
0000
0010
0000
0000
0000
0000
0000
0100
0000
0000
0100
0000
0000
0100
0000
0000
0010
0000
0100
0000
1000
0000
0001
0000
0000
0000
0000
0000
,  // measure 48
0100
0001
1000
0100
0000
0000
0010
0100
1000
0001
0000
0000
0100
0001
0010
0001
0000
0000
1000
0001
0100
0010
0000
0000
,  // measure 49
1000
0100
0010
0100
0000
0000
0010
0001
0100
0010
0000
0000
0100
0001
1000
0100
0000
0000
0010
0100
1000
0001
0000
0000
,  // measure 50
1000
0100
0010
0100
0000
0000
0010
0001
0100
0010
0000
0000
0100
0001
1000
0100
0000
0000
0010
0100
1000
0001
0000
0000
,  // measure 51
1000
0000
0001
0000
0100
0000
0010
0000
0000
0000
0000
0000
1000
0000
0100
0000
0010
0000
0001
0000
0000
0100
0000
0000
0010
0000
0000
1000
0000
0000
0001
0000
0000
0010
0000
0000
0200
0000
0000
0020
0000
0000
0300
0000
0000
0230
0000
0000
,  // measure 52
0302
0000
0000
0203
0000
0000
2300
0000
0000
3020
0000
0000
0200
0000
0000
0030
0300
0000
0202
0000
0000
0000
0303
0000
2020
0000
0000
0000
0000
0000
3030
0000
0000
0000
0000
0000
1000
0000
0000
0100
0000
0000
0010
0000
0000
0000
0000
0000
,  // measure 53
0100
0000
1000
0000
0010
0000
0100
0000
0000
0010
0000
0000
2000
0000
0000
0000
0000
0000
0000
0000
0000
0000
0000
0000
3001
0000
0000
0000
0000
0000
1000
0000
0010
0000
0100
0000
0001
0000
0000
0000
0000
0000
0100
0000
0010
0000
1000
0000
,  // measure 54
0100
0000
0010
0010
0000
0100
0100
0000
0010
0010
0001
0001
1000
0001
0010
0000
,  // measure 55
0100
0000
0010
0000
0001
0000
1000
0000
0000
0010
0000
0000
0200
0000
0000
0000
0000
0000
0301
0000
1000
0000
0001
0000
1000
0000
0000
0100
0000
0000
0010
0000
0000
0001
0000
0000
0010
0000
0000
0010
0000
0000
0100
0000
0000
1000
0000
0000
,  // measure 56
0010
0000
0000
0010
0000
0000
0100
0000
0000
0010
0000
0000
1000
0000
0000
0100
0000
0000
0001
0000
0000
0100
0000
0000
0010
0000
0001
0000
0100
0000
0020
0000
0000
0000
0000
0000
0130
0000
0001
0000
1000
0000
0100
0000
0000
0010
0000
0000
,  // measure 57
0100
0000
0000
1000
0000
0000
0100
0000
0000
0010
0000
0000
0001
0000
0000
1000
0000
0000
0010
0000
0000
0100
0000
0000
0001
0000
1000
0000
0010
0000
0200
0000
0000
0000
0000
0000
0301
0000
0010
0000
0100
0000
0010
0000
0000
0001
0000
0000
,  // measure 58
1000
0001
0100
0001
0010
0100
1000
0100
0110
0000
0010
0011
0000
0000
0110
0100
,  // measure 59
1100
0000
0000
0000
0000
0000
0000
0000
0000
1001
0000
0000
0000
0000
0000
0000
0000
0000
1000
0000
0100
0000
0010
0000
0002
0000
0000
0000
0000
0000
0013
0000
0100
0000
1000
0000
0020
0000
0000
0000
0000
0000
0130
0000
0010
0000
1000
0000
,  // measure 60
0002
0000
0000
0000
0000
0000
1003
0000
0100
0000
0010
0000
0100
0000
0000
1000
0000
0000
0001
0000
0000
0100
0000
0000
0000
0000
0000
0000
0000
0000
0000
0000
0000
0000
0000
0000
0000
0000
0000
0000
0000
0000
0000
0000
0000
0000
0000
0000
;
