#VERSION:0.83;
#TITLE:Broadway Walk;
#SUBTITLE:;
#ARTIST:Dirty Androids;
#TITLETRANSLIT:;
#SUBTITLETRANSLIT:;
#ARTISTTRANSLIT:;
#GENRE:JUKE FUNK;
#ORIGIN:;
#CREDIT:;
#BANNER:banner.png;
#BACKGROUND:background.png;
#PREVIEWVID:;
#JACKET:jacket.png;
#CDIMAGE:;
#DISCIMAGE:;
#LYRICSPATH:;
#CDTITLE:CDTITLE.png;
#MUSIC:Broadway Walk.ogg;
#OFFSET:0.000000;
#SAMPLESTART:16.410255;
#SAMPLELENGTH:16.410255;
#SELECTABLE:YES;
#BPMS:0.000=117.000;
#STOPS:;
#DELAYS:;
#WARPS:;
#TIMESIGNATURES:0.000=4=4;
#TICKCOUNTS:0.000=4;
#COMBOS:0.000=1;
#SPEEDS:0.000=1.000=0.000=0;
#SCROLLS:0.000=1.000;
#FAKES:;
#LABELS:0.000=Song Start;
#BGCHANGES:;
#KEYSOUNDS:;
#ATTACKS:
;

//---------------dance-single - ----------------
#NOTEDATA:;
#CHARTNAME:;
#STEPSTYPE:dance-single;
#DESCRIPTION:;
#CHARTSTYLE:;
#DIFFICULTY:Hard;
#METER:12;
#RADARVALUES:0.459931,0.508736,0.569915,0.279958,0.564915,322.000000,265.000000,57.000000,28.000000,0.000000,0.000000,0.000000,0.000000,0.000000,0.459931,0.508736,0.569915,0.279958,0.564915,322.000000,265.000000,57.000000,28.000000,0.000000,0.000000,0.000000,0.000000,0.000000;
#CREDIT:Pandemonium X;
#NOTES:
// measure 0
0000
0000
0000
0000
,  // measure 1
0000
0000
0000
0000
,  // measure 2
0000
0000
0000
0000
,  // measure 3
0000
0000
0000
0000
,  // measure 4
2000
0010
0000
3001
,  // measure 5
0002
0100
0000
1003
,  // measure 6
0020
0000
0000
0000
0000
0000
1000
0000
0000
0000
0000
0000
0130
0000
0000
0001
0000
0000
0000
0000
0010
0000
0000
0000
,  // measure 7
0100
0000
0000
1000
0000
0010
0000
0000
0100
0000
0000
0010
0000
0000
1000
0000
0000
0001
0000
0000
0000
0000
0000
0000
,  // measure 8
1010
0000
0000
0000
0000
1010
0000
0000
0000
1000
0000
0001
0000
0000
0010
0000
0000
0100
0000
0000
1001
0000
0000
0000
,  // measure 9
0011
0000
0000
0000
0000
0000
0010
0000
0100
1000
0000
0001
0000
0000
1000
0000
0000
0010
0000
0000
0110
0000
0000
0000
,  // measure 10
0000
0000
0000
0101
0000
0000
0000
0000
0001
0000
0000
0010
0000
0000
0000
0100
0000
0000
0000
0000
0110
0000
0000
0000
,  // measure 11
1100
0000
0000
0000
0000
0000
1000
0000
1001
0000
0000
0100
0000
0000
0000
0001
0000
0000
0000
0000
0010
0000
0000
0000
,  // measure 12
0110
0000
0000
0000
0000
1100
0000
0000
0000
1000
0000
0010
0000
0000
0100
0000
0010
0100
0000
0000
1001
0000
0000
0000
,  // measure 13
0101
0000
0000
0000
0000
0000
0011
0000
0010
0000
0000
0100
0000
0000
0000
0010
0000
0000
0001
0000
1000
0000
0000
0000
,  // measure 14
0000
0000
0000
0101
0000
0000
0000
0000
0010
0000
0000
0001
0000
0000
1000
0000
0000
0001
0000
0000
0110
0000
0000
0000
,  // measure 15
0101
0000
1000
0010
0000
0000
0200
0000
0301
0010
0000
0200
0000
0000
0000
0000
0000
0000
1300
0000
0000
0000
0000
0000
,  // measure 16
1001
0000
0000
0000
0000
0011
0000
0000
0000
0010
0000
0100
0000
0000
0010
0000
0000
0001
0000
0000
1001
0000
0000
0000
,  // measure 17
1010
0000
0000
1000
0100
0000
0020
0000
0000
0032
0000
0000
,  // measure 18
0103
0000
0000
1001
0000
0000
0000
0000
1000
0000
0000
0010
0000
0000
0000
0100
0000
0000
0000
0000
0010
0000
0000
0000
,  // measure 19
1000
0000
0000
0000
0000
0000
0001
0000
0100
0000
0000
0001
0000
0000
0000
0010
0000
0000
0000
0000
0100
0000
0000
0000
,  // measure 20
1100
0000
0000
0000
0000
0101
0000
0000
0000
0001
0000
0000
0220
0000
0000
0330
0000
1001
0000
0000
1001
0000
0000
0000
,  // measure 21
1010
0000
0000
0000
0000
0000
1000
0000
0100
0000
0000
0010
0000
0000
0000
0200
0000
0000
0000
0300
0010
0000
0000
0000
,  // measure 22
0001
0000
0000
0100
0000
0000
0000
0000
0000
0010
0000
0000
1001
0000
0000
0000
0000
1010
0000
0000
1000
0000
0000
0000
,  // measure 23
1100
0000
0000
0000
0000
0000
0001
0000
0010
0000
0000
1010
0000
0000
0000
0100
0000
0000
0000
0000
0001
0000
0000
0000
,  // measure 24
1001
0000
0000
0000
0000
0000
1000
0000
1000
0001
0000
0001
0100
0000
0000
0000
0000
0000
0000
0000
0000
0010
0000
0000
,  // measure 25
0000
0000
0000
0000
0000
0000
1000
0000
1000
0001
0000
0001
0100
0000
0000
0000
0000
0000
0000
0000
0000
0010
0000
0000
,  // measure 26
0000
0000
0000
0000
0000
0000
1000
0000
1000
0001
0000
0001
0100
0000
0010
0000
0000
0010
0000
0000
0010
0000
0000
0000
,  // measure 27
0100
0002
0000
0000
0000
0000
0000
0000
,  // measure 28
1003
0000
0000
0000
0000
0000
1000
0000
1000
0100
0000
0100
1000
0000
0000
0000
0000
0000
0000
0000
0000
0010
0000
0000
,  // measure 29
0100
0000
0000
0000
0000
0000
0001
0000
0001
0010
0000
0010
0001
0000
0000
0000
0000
0000
0100
0000
0000
0000
0000
0000
,  // measure 30
0010
0000
0000
0000
0000
0000
1000
0000
1000
0001
0000
0001
1000
0000
0000
0000
0000
0000
0000
0000
0000
0000
0000
0000
,  // measure 31
1000
0000
0000
0010
0000
0000
0100
0000
0000
0001
0000
0000
0010
0000
0100
1000
0000
0001
0020
0000
0000
0030
0000
0000
,  // measure 32
0110
0000
0000
0000
0000
0011
0000
0000
0000
0001
0000
0100
0000
0000
0010
0000
0000
1000
0000
0000
1100
0000
0000
0000
,  // measure 33
1001
0000
0000
0001
0010
0000
0002
0000
0000
1003
0000
0000
,  // measure 34
0000
0000
0000
1001
0000
0000
0000
0000
0001
0000
0000
0010
0000
0000
0000
0110
0000
0000
0000
0000
0110
0000
0000
0000
,  // measure 35
1100
0000
0000
0000
0000
0000
1000
0000
0010
0000
0000
0110
0000
0000
0000
0100
0000
0000
0000
0000
0001
0000
0000
0000
,  // measure 36
1100
0000
0000
0000
0000
0011
0000
0000
0000
0000
0000
0000
0201
0000
0000
0000
0000
0310
0000
0000
0010
0000
0000
0000
,  // measure 37
0110
0000
0000
0000
0000
0000
0100
0000
0001
0000
0000
0010
0000
0000
0000
0200
0000
0000
0000
0300
1000
0000
0000
0000
,  // measure 38
0000
0000
0000
0010
0000
0000
0000
0000
0000
0100
0000
0000
1010
0000
0000
0000
0000
0011
0000
0000
0100
0000
0000
0000
,  // measure 39
1001
0000
0000
0000
0000
0000
1000
0000
0001
0000
0000
0011
0000
0000
0000
1100
0000
0000
0000
0000
1001
0000
0000
0000
,  // measure 40
1020
0000
0000
0000
0000
0000
0000
0130
,  // measure 41
0002
0000
2003
3002
,  // measure 42
0203
0000
0000
0000
0000
0000
0000
0310
,  // measure 43
1000
0100
0001
0100
0010
0001
0100
0010
,  // measure 44
2000
3200
0320
0032
0023
0230
0320
0032
,  // measure 45
1003
0000
0000
0001
0000
0000
0100
0000
0010
0000
0000
1000
0000
0000
0000
0100
0000
0000
0000
0000
0010
0000
0000
0000
,  // measure 46
0100
0000
0000
1000
0000
0000
0010
0000
0000
0100
0000
0000
0110
0000
0000
0000
0000
0101
0000
0000
0001
0000
0000
0000
,  // measure 47
0011
0000
0000
0000
0000
0000
0010
0000
0100
0000
0000
1000
0000
0000
0000
0001
0000
0000
0000
0000
0110
0000
0000
0000
,  // measure 48
1000
0000
0000
0000
0000
0010
0000
0000
0010
0000
0000
0010
0000
0000
0000
0000
0000
0000
0000
0000
0000
0000
0000
0000
;

//---------------dance-single - ----------------
#NOTEDATA:;
#CHARTNAME:;
#STEPSTYPE:dance-single;
#DESCRIPTION:;
#CHARTSTYLE:;
#DIFFICULTY:Easy;
#METER:5;
#RADARVALUES:0.194257,0.242464,0.089987,0.069990,0.000000,136.000000,127.000000,9.000000,7.000000,0.000000,0.000000,0.000000,0.000000,0.000000,0.194257,0.242464,0.089987,0.069990,0.000000,136.000000,127.000000,9.000000,7.000000,0.000000,0.000000,0.000000,0.000000,0.000000;
#CREDIT:Pandemonium X;
#NOTES:
// measure 0
0000
0000
0000
0000
,  // measure 1
0000
0000
0000
0000
,  // measure 2
0000
0000
0000
0000
,  // measure 3
0000
0000
0000
0000
,  // measure 4
0000
1000
0000
1000
,  // measure 5
0000
0001
0000
0001
,  // measure 6
0000
0100
0000
0100
,  // measure 7
0000
0010
0000
0010
,  // measure 8
1001
0000
0000
1000
,  // measure 9
0001
0000
0100
0010
,  // measure 10
1000
0000
0100
0000
,  // measure 11
1000
1000
0001
1000
,  // measure 12
0001
0000
0100
0000
,  // measure 13
0010
0010
0100
0000
,  // measure 14
0010
0000
1000
0000
,  // measure 15
0001
1000
0100
1000
,  // measure 16
0010
0010
0000
0000
,  // measure 17
0100
0001
0010
0100
,  // measure 18
0010
0001
0000
1000
,  // measure 19
0001
0100
0001
1000
,  // measure 20
0001
0000
0110
0000
,  // measure 21
0010
0000
1000
0000
,  // measure 22
0100
0000
1000
0001
,  // measure 23
0100
0001
0010
0100
,  // measure 24
0000
0010
0011
0000
,  // measure 25
0000
1000
1100
0000
,  // measure 26
0000
1000
1001
0000
,  // measure 27
0020
0000
0000
0030
,  // measure 28
0100
0001
0011
0000
,  // measure 29
0010
0100
1100
0000
,  // measure 30
0100
0000
1000
0000
,  // measure 31
0010
0100
0001
1000
,  // measure 32
1001
0001
1000
1000
,  // measure 33
0001
0100
0001
0010
,  // measure 34
0001
0100
0010
0010
,  // measure 35
1000
0100
1000
0001
,  // measure 36
0100
0100
1001
0000
,  // measure 37
0001
0000
0010
0001
,  // measure 38
1000
0000
0100
1000
,  // measure 39
0010
1000
0001
0100
,  // measure 40
0002
0000
0000
0000
,  // measure 41
2003
0000
3001
1000
,  // measure 42
0020
0000
1030
0000
,  // measure 43
0200
0000
1300
0100
,  // measure 44
0020
0031
0001
0100
,  // measure 45
0001
1000
0100
0010
,  // measure 46
0100
1000
0010
0000
,  // measure 47
0100
0010
1000
0001
,  // measure 48
0200
0000
0300
0000
;

//---------------dance-single - ----------------
#NOTEDATA:;
#CHARTNAME:;
#STEPSTYPE:dance-single;
#DESCRIPTION:;
#CHARTSTYLE:;
#DIFFICULTY:Medium;
#METER:8;
#RADARVALUES:0.291385,0.363383,0.149978,0.169975,0.279958,204.000000,189.000000,15.000000,17.000000,0.000000,0.000000,0.000000,0.000000,0.000000,0.291385,0.363383,0.149978,0.169975,0.279958,204.000000,189.000000,15.000000,17.000000,0.000000,0.000000,0.000000,0.000000,0.000000;
#CREDIT:Pandemonium X;
#NOTES:
// measure 0
0000
0000
0000
0000
,  // measure 1
0000
0000
0000
0000
,  // measure 2
0000
0000
0000
0000
,  // measure 3
0000
0000
0000
0000
,  // measure 4
0002
0000
0000
0003
,  // measure 5
2000
0000
0000
3000
,  // measure 6
0200
0000
0310
0001
,  // measure 7
1000
0001
1000
0001
1000
0000
0000
0000
,  // measure 8
0001
0000
0000
0000
0000
1000
0000
0000
0000
0000
0000
0000
0000
0000
0000
0000
0000
0000
0000
0000
0010
0000
0000
0000
,  // measure 9
1000
0000
0000
0100
0000
0000
0000
0000
0000
0000
1000
0000
,  // measure 10
0000
0000
0000
0010
0000
0000
0000
0000
0000
0000
0000
0000
0000
0000
0000
0000
0000
0000
0000
0000
0100
0000
0000
0000
,  // measure 11
0010
0000
0000
0000
0000
0000
1000
0000
0000
0000
0000
0001
0000
0000
0000
0010
0000
0000
0000
0000
0100
0000
0000
0000
,  // measure 12
1000
0000
0000
0000
0000
0010
0000
0000
0000
0000
0000
0000
0000
0000
0000
0000
0000
0000
0000
0000
0100
0000
0000
0000
,  // measure 13
0010
0000
0000
0000
0000
0000
1000
0000
0000
0000
0000
0100
0000
0000
0000
0000
0000
0000
0000
0000
1000
0000
0000
0000
,  // measure 14
0000
0000
0000
0010
0000
0000
0000
0000
0100
0000
0000
0000
0000
0000
0000
0000
0000
0000
0000
0000
0010
0000
0000
0000
,  // measure 15
1000
0100
0010
0001
1000
0010
0200
0300
,  // measure 16
0001
0000
0000
0000
0000
1000
0000
0000
0000
0000
0000
0000
0000
0000
0000
0000
0000
0000
0000
0000
0100
0000
0000
0000
,  // measure 17
1000
0000
0000
0000
0000
0000
0010
0000
0000
0000
0000
0200
0000
0000
0000
0000
0000
0000
0000
0000
0310
0000
0000
0000
,  // measure 18
0000
0000
0000
1000
0000
0000
0000
0000
0001
0000
0000
0010
0000
0000
0000
0100
0000
0000
0000
0000
0100
0000
0000
0000
,  // measure 19
0010
0000
0000
0000
0000
0000
0001
0000
0000
0000
0000
0100
0000
0000
0000
0010
0000
0000
0000
0000
1000
0000
0000
0000
,  // measure 20
0001
0000
0000
0000
0000
1000
0000
0000
0000
0000
0000
0000
1010
0000
0000
0000
0000
0101
0000
0000
0101
0000
0000
0000
,  // measure 21
0001
0000
0000
0000
0000
0000
0010
0000
0000
0000
0000
0200
0000
0000
0000
0000
0000
0000
0000
0000
0310
0000
0000
0000
,  // measure 22
0000
0000
0000
0100
0000
0000
0000
0000
0000
1000
0000
0000
1001
0000
0000
0000
0000
1010
0000
0000
1000
0000
0000
0000
,  // measure 23
0100
0000
0000
0000
0000
0000
1000
0000
0000
0000
0000
0010
0000
0000
0000
0100
0000
0000
0000
0000
0001
0000
0000
0000
,  // measure 24
1000
0000
0100
1000
0010
0000
0000
0100
,  // measure 25
0000
0000
0010
0100
0001
0000
0000
1000
,  // measure 26
0000
0000
0001
0010
0100
0000
0010
0100
,  // measure 27
2000
0100
0010
3001
,  // measure 28
1000
0000
0010
1000
0001
0000
0000
0010
,  // measure 29
0000
0000
0100
0010
0001
0000
1000
0000
,  // measure 30
0001
0000
0010
0100
1000
0000
0001
0000
,  // measure 31
1000
0100
0010
0001
1000
1000
1000
0000
,  // measure 32
1001
0000
0000
0000
0000
0001
0000
0000
0000
0000
0000
0000
0000
0000
0000
0000
0000
0000
0000
0000
0010
0000
0000
0000
,  // measure 33
0001
0000
0000
0000
0000
0000
0100
0000
0000
0000
0000
0020
0000
0000
0000
0000
0000
0000
0000
0000
0130
0000
0000
0000
,  // measure 34
0000
0000
0000
0001
0000
0000
0000
0000
1000
0000
0000
0100
0000
0000
0000
0010
0000
0000
0000
0000
0010
0000
0000
0000
,  // measure 35
0100
0000
0000
0000
0000
0000
1000
0000
0000
0000
0000
0010
0000
0000
0000
0100
0000
0000
0000
0000
0001
0000
0000
0000
,  // measure 36
1000
0000
0000
0000
0000
0001
0000
0000
0000
0000
0000
0000
0101
0000
0000
0000
0000
1010
0000
0000
1010
0000
0000
0000
,  // measure 37
1000
0000
0000
0000
0000
0000
0100
0000
0000
0000
0000
0020
0000
0000
0000
0000
0000
0000
0000
0000
0130
0000
0000
0000
,  // measure 38
0000
0000
0000
0010
0000
0000
0000
0000
0000
0001
0000
0000
1001
0000
0000
0000
0000
0101
0000
0000
0001
0000
0000
0000
,  // measure 39
0010
0000
0000
0000
0000
0000
0001
0000
0000
0000
0000
0100
0000
0000
0000
0010
0000
0000
0000
0000
1000
0000
0000
0000
,  // measure 40
0200
0000
0000
0000
0000
0000
0000
1300
,  // measure 41
0020
0000
2030
3002
,  // measure 42
0023
0000
0031
0000
,  // measure 43
0100
0010
1000
0001
0010
0000
0100
0000
,  // measure 44
1000
0001
0110
0000
0102
0000
1003
0000
,  // measure 45
0200
0310
0002
1003
,  // measure 46
0010
0000
0000
0000
0000
0000
1000
0000
0000
0100
0000
0000
0110
0000
0000
0000
0000
0011
0000
0000
0001
0000
0000
0000
,  // measure 47
1000
0000
0000
0000
0000
0000
0010
0000
0100
0000
0000
0010
0000
0000
0000
0100
0000
0000
0000
0000
0010
0000
0000
0000
,  // measure 48
1000
0000
0000
0000
0000
0100
0000
0000
0010
0000
0000
0100
0000
0000
0000
0000
0000
0000
0000
0000
0000
0000
0000
0000
;

//---------------dance-single - ----------------
#NOTEDATA:;
#CHARTNAME:;
#STEPSTYPE:dance-single;
#DESCRIPTION:;
#CHARTSTYLE:;
#DIFFICULTY:Beginner;
#METER:2;
#RADARVALUES:0.081416,0.119982,0.029996,0.000000,0.000000,57.000000,54.000000,3.000000,0.000000,0.000000,0.000000,0.000000,0.000000,0.000000,0.081416,0.119982,0.029996,0.000000,0.000000,57.000000,54.000000,3.000000,0.000000,0.000000,0.000000,0.000000,0.000000,0.000000;
#CREDIT:Pandemonium X;
#NOTES:
// measure 0
0000
0000
0000
0000
,  // measure 1
0000
0000
0000
0000
,  // measure 2
0000
0000
0000
0000
,  // measure 3
0000
0000
0000
0000
,  // measure 4
1000
0000
0000
0000
,  // measure 5
0001
0000
0000
0000
,  // measure 6
1000
0000
0000
0000
,  // measure 7
0000
0000
0000
0000
,  // measure 8
1001
0000
0000
0000
,  // measure 9
1000
0000
0000
0000
,  // measure 10
0010
0000
0000
0000
,  // measure 11
0100
0000
0000
0000
,  // measure 12
0001
0000
0000
0000
,  // measure 13
0100
0000
0000
0000
,  // measure 14
0001
0000
0000
0000
,  // measure 15
0010
0000
0001
0000
,  // measure 16
1001
0000
0000
0000
,  // measure 17
0100
0000
0000
0000
,  // measure 18
1000
0000
0000
0000
,  // measure 19
0010
0000
0000
0000
,  // measure 20
0100
0000
0001
0000
,  // measure 21
1000
0000
0000
0000
,  // measure 22
0100
0000
1000
0000
,  // measure 23
0010
0000
0000
0000
,  // measure 24
0000
0100
0000
0000
,  // measure 25
0000
0100
0000
0000
,  // measure 26
0000
0100
0000
0000
,  // measure 27
0000
0000
0000
0000
,  // measure 28
0000
0010
0000
0000
,  // measure 29
0000
0010
0000
0000
,  // measure 30
0000
0010
0000
0000
,  // measure 31
1000
0000
0001
0000
,  // measure 32
0110
0000
0000
0000
,  // measure 33
0010
0000
0000
0000
,  // measure 34
1000
0000
0000
0000
,  // measure 35
0100
0000
0000
0000
,  // measure 36
1000
0000
0001
0000
,  // measure 37
0100
0000
0000
0000
,  // measure 38
0010
0000
0100
0000
,  // measure 39
0001
0000
0000
0000
,  // measure 40
1000
0000
0000
0000
,  // measure 41
0001
0000
1000
1000
,  // measure 42
0001
0000
0000
0000
,  // measure 43
0100
0000
0010
0000
,  // measure 44
1000
0001
0000
0000
,  // measure 45
0100
0000
0000
0000
,  // measure 46
0010
0000
0000
0000
,  // measure 47
1000
0000
0001
0000
,  // measure 48
0100
0000
0000
0000
;
