#TITLE:Black Cat;
#SUBTITLE:;
#ARTIST:Coyote Kisses;
#TITLETRANSLIT:;
#SUBTITLETRANSLIT:;
#ARTISTTRANSLIT:;
#GENRE:TRIBE HOP;
#CREDIT:;
#BANNER:banner.png;
#BACKGROUND:background.png;
#LYRICSPATH:;
#CDTITLE:CDTITLE.png;
#MUSIC:Black Cat.ogg;
#OFFSET:0.000000;
#SAMPLESTART:39.183674;
#SAMPLELENGTH:19.591835;
#SELECTABLE:YES;
#BPMS:0.000000=98.000000
;
#STOPS:
;
#BGCHANGES:0.000=Black Cat.avi=1.000=1=0=1===CrossFade==,
99999=-nosongbg-=1.000=0=0=0 // don't automatically add -songbackground-
;
#KEYSOUNDS:;
#ATTACKS:;

//---------------dance-single - ----------------
#NOTES:
     dance-single:
     :
     Hard:
     11:
     0.430625,0.479981,0.293708,0.100479,0.502396,390.000000,352.000000,38.000000,13.000000,0.000000,0.000000,0.430625,0.479981,0.293708,0.100479,0.502396,390.000000,352.000000,38.000000,13.000000,0.000000,0.000000:
// measure 0
0000
0000
0000
0000
,  // measure 1
0000
0000
0000
0000
,  // measure 2
0000
0000
0000
0000
,  // measure 3
0000
0000
0000
0000
,  // measure 4
1000
0010
0000
0000
0100
0001
0010
0001
0000
0000
0000
0000
0000
1000
0100
1000
,  // measure 5
0010
0000
0000
0100
0010
1000
0010
0100
0000
0000
0000
0000
0000
0000
1001
0000
,  // measure 6
0001
0000
0000
0010
0000
0001
1000
0100
0000
0010
0100
0000
0100
0010
0001
1000
,  // measure 7
0010
0000
0100
0000
0010
1000
0001
0010
0000
0000
0000
0000
0200
0000
0000
0000
,  // measure 8
1300
0000
0100
0000
0001
0100
0010
0001
0000
0000
0000
0000
0000
0000
1000
0001
,  // measure 9
0100
0000
0000
1000
0100
0010
1000
0100
0000
0000
0000
0000
0010
0001
2000
0000
,  // measure 10
3001
0000
0100
0000
1000
0100
0010
1000
0000
1000
0010
0000
0100
0001
0010
0001
,  // measure 11
1000
0000
0001
0000
0010
0100
1000
0001
0000
0000
0000
0000
0000
0000
0000
0000
,  // measure 12
1001
0000
1000
0100
0000
0100
0000
0100
1000
0000
0010
0000
0100
0000
0010
0100
,  // measure 13
0001
0000
0001
0010
0000
0010
0000
0010
0001
0000
0010
0000
0001
0000
1000
0001
,  // measure 14
0100
0000
0100
0000
0000
0010
0000
0010
1000
0000
0100
0000
0010
0000
0100
1000
,  // measure 15
0001
0000
0001
0010
0000
0010
0000
0010
0100
0000
0010
0000
0001
0000
0000
0000
,  // measure 16
1020
0000
0000
0100
0000
0130
0000
0100
0001
0000
0010
0000
0011
0000
0000
0000
,  // measure 17
0210
0000
0000
1000
0000
1300
0000
1000
0001
0000
0100
0000
0110
0000
0000
1000
,  // measure 18
0002
0000
0010
0000
0000
0013
0000
0000
0001
0000
0010
0000
0011
0000
0000
0000
,  // measure 19
2100
0000
0000
0001
0000
3001
0000
1000
0001
0000
0010
0000
0110
0000
0000
0000
,  // measure 20
0001
0000
0100
0010
0000
1000
0000
0010
1000
0000
0100
0000
0110
0000
0000
0000
,  // measure 21
0010
0000
0100
1000
0000
0010
0000
0100
0001
0000
0010
0000
0110
0000
0000
0000
,  // measure 22
0100
0000
0010
0000
0000
0001
0000
1000
0010
0000
0100
0000
0110
0000
0000
0001
,  // measure 23
0010
0000
0000
0100
0000
1000
0000
0100
1000
0000
0010
0000
0100
0010
0100
0000
,  // measure 24
1001
0000
0000
0001
0000
0000
0000
0000
0000
1000
0010
0000
1000
0000
0100
0000
,  // measure 25
0010
0000
0000
0100
0000
0000
0000
0000
0000
0000
1000
0000
0001
0000
0000
0000
,  // measure 26
1000
0000
0000
0001
0000
0000
0000
0000
0000
1000
0001
0000
0010
0000
0001
0000
,  // measure 27
0100
0000
0010
0000
0000
0100
0010
0000
,  // measure 28
1000
0000
0000
0100
0000
0000
0000
0000
0000
1000
0001
0000
0010
0000
0100
0000
,  // measure 29
0010
0000
0000
0001
0000
0000
0000
0000
0000
0000
0100
0000
0001
0000
0000
0000
,  // measure 30
1000
0000
0000
0001
0000
0000
0000
0000
0000
0010
0100
0000
1000
0000
0001
0000
,  // measure 31
0010
0100
1000
0001
0010
0100
1000
0001
,  // measure 32
1000
0000
0101
0000
0001
0010
0000
1100
0000
0000
0000
0000
0000
0000
0000
0000
,  // measure 33
0100
0000
1010
0000
0010
0100
0000
1001
0000
1000
0100
0000
0000
0000
0000
1000
,  // measure 34
0100
0000
0011
0000
0001
0100
0010
1000
0000
0000
0000
0000
2000
0000
0000
0000
,  // measure 35
3100
0000
0010
0000
0001
0010
0001
1000
0100
0000
0000
0000
0000
0000
0000
0000
,  // measure 36
1000
0000
0110
0000
0001
0100
0000
0011
0000
0000
0000
0000
0000
0000
0002
0000
,  // measure 37
0103
0000
0110
0000
0001
1000
0000
0011
0000
0010
0001
0000
1000
0000
0100
1000
,  // measure 38
0010
0000
1010
0000
1000
0100
0000
0110
0000
0000
0000
0000
0000
0000
0000
0000
,  // measure 39
1001
0000
0000
0000
0001
0100
0001
1000
0001
0000
0000
0000
0000
0000
0000
0000
,  // measure 40
1001
0000
0001
0010
0000
1000
0000
0010
0100
0000
1000
0000
1010
0000
1000
0001
,  // measure 41
0010
0000
1000
0010
0000
0100
0000
0010
0001
0000
1000
0000
1100
0000
0000
0100
,  // measure 42
0010
0000
0100
1000
0000
0010
0000
0100
0001
0000
0010
0000
0011
0000
0010
0001
,  // measure 43
1000
0000
0010
0001
0000
0010
0000
0100
0001
0000
0010
0000
1001
0000
0000
0000
,  // measure 44
1001
0000
1000
0010
0000
0001
0000
0010
0100
0000
0001
0000
0011
0000
0010
0100
,  // measure 45
1000
0000
0100
0001
0000
0100
0000
0010
0100
0000
1000
0000
1001
0000
0001
1000
,  // measure 46
0100
0000
0010
0000
0000
0011
0000
0001
0100
0000
0010
0000
1010
0000
1000
0001
,  // measure 47
0010
0000
0100
1000
0000
0010
0000
0001
0010
0000
0100
0000
0101
0000
0000
0000
,  // measure 48
2000
0000
0000
0000
0000
0000
0000
0000
3000
0000
0000
0001
0010
0000
0001
0000
,  // measure 49
0200
0000
0000
0000
0000
0000
0000
0000
0300
0000
0000
0000
0000
0010
0000
0000
,  // measure 50
0200
0000
0000
0000
0300
0000
0000
0010
2000
0000
0000
0000
3000
0000
0001
0000
,  // measure 51
0020
0000
0000
0000
0030
1001
1001
0000
;

//---------------dance-single - ----------------
#NOTES:
     dance-single:
     :
     Easy:
     5:
     0.203167,0.239991,0.015458,0.000000,0.000000,184.000000,182.000000,2.000000,0.000000,0.000000,0.000000,0.203167,0.239991,0.015458,0.000000,0.000000,184.000000,182.000000,2.000000,0.000000,0.000000,0.000000:
// measure 0
0000
0000
0000
0000
,  // measure 1
0000
0000
0000
0000
,  // measure 2
0000
0000
0000
0000
,  // measure 3
0000
0000
0000
0000
,  // measure 4
1000
0001
0010
0000
,  // measure 5
0100
0010
0001
0000
,  // measure 6
1000
0010
1000
0100
,  // measure 7
0010
0001
0000
0000
,  // measure 8
1000
0001
0010
0000
,  // measure 9
0100
0010
0001
0000
,  // measure 10
0100
0010
1000
0010
,  // measure 11
0100
0001
1000
0000
,  // measure 12
0001
0000
1000
0000
0000
0001
1000
0000
,  // measure 13
0010
0000
0100
0000
0000
0010
0100
0000
,  // measure 14
0010
0000
1000
0000
0000
0010
1000
0000
,  // measure 15
0001
0000
0100
0000
0000
0001
0100
0000
,  // measure 16
0001
0000
1000
0000
0100
1000
0100
0000
,  // measure 17
1000
0000
0010
0000
0100
0010
0100
0000
,  // measure 18
0010
0000
1000
0000
0001
0010
0001
0000
,  // measure 19
0010
0000
0001
0000
0100
0010
0100
0000
,  // measure 20
0010
0000
1000
0000
0001
0010
0100
0000
,  // measure 21
0010
0000
0001
0000
1000
0100
0010
0000
,  // measure 22
0100
0000
1000
0000
0010
0100
0010
0000
,  // measure 23
1000
0000
0001
0000
0010
0001
0100
0000
,  // measure 24
0010
0000
0000
1000
,  // measure 25
0100
0000
0000
0000
,  // measure 26
1000
0000
0000
0001
,  // measure 27
1000
0000
0000
0000
,  // measure 28
0010
0000
0000
0100
,  // measure 29
0001
0000
0000
0000
,  // measure 30
0010
0000
0000
0100
,  // measure 31
1000
0000
0000
0000
,  // measure 32
1001
0000
0001
1000
0001
0000
0100
0000
,  // measure 33
0001
0000
1000
0010
1000
0000
0010
0000
,  // measure 34
0100
0000
0001
0010
0001
0000
0010
0000
,  // measure 35
0100
0000
1000
0100
0010
0000
0000
0000
,  // measure 36
0100
0000
1000
0001
0100
0000
0001
0000
,  // measure 37
0010
0000
0100
0010
0001
0000
0010
0000
,  // measure 38
0001
0000
0100
0010
1000
0000
0001
0000
,  // measure 39
1000
0000
0001
0010
0100
0000
0000
0000
,  // measure 40
1001
0000
0001
0000
0100
0010
1000
0000
,  // measure 41
0010
0000
0100
0000
0001
0010
0100
0000
,  // measure 42
0010
0000
0001
0000
1000
0001
0100
0000
,  // measure 43
0010
0000
1000
0000
0100
1000
0010
0100
,  // measure 44
0001
0000
0010
0000
0001
1000
0100
0000
,  // measure 45
1000
0000
0010
0000
0100
0010
1000
0000
,  // measure 46
0001
0000
0010
0000
0100
0010
0001
0000
,  // measure 47
0010
0000
0001
0000
1000
0001
0100
0010
,  // measure 48
1000
0000
0000
0000
0000
0000
0010
0100
,  // measure 49
0001
0000
0000
0000
,  // measure 50
1000
0000
1000
0000
,  // measure 51
0001
0000
0000
0000
0000
0100
0100
0000
;

//---------------dance-single - ----------------
#NOTES:
     dance-single:
     :
     Medium:
     8:
     0.305854,0.339987,0.285979,0.000000,0.142990,277.000000,240.000000,37.000000,0.000000,0.000000,0.000000,0.305854,0.339987,0.285979,0.000000,0.142990,277.000000,240.000000,37.000000,0.000000,0.000000,0.000000:
// measure 0
0000
0000
0000
0000
,  // measure 1
0000
0000
0000
0000
,  // measure 2
0000
0000
0000
0000
,  // measure 3
0000
0000
0000
0000
,  // measure 4
1000
0000
0000
0000
0001
0000
0000
0010
0000
0000
0000
0000
0000
0000
0100
0000
,  // measure 5
0010
0000
0000
0000
0001
0000
0000
1000
0000
0000
0000
0000
0000
0000
0010
0000
,  // measure 6
0100
0000
0000
0010
0000
0000
1000
0001
0000
1000
0100
0000
1000
0000
0010
0000
,  // measure 7
0100
0000
0001
0000
0010
0000
0000
0100
0000
0000
0000
0000
0000
0000
0000
0000
,  // measure 8
0010
0000
0001
0000
1000
0000
0000
0010
0000
0000
0000
0000
0000
0000
0100
0000
,  // measure 9
0001
0000
0000
0000
1000
0000
0000
0001
0000
0000
0000
0000
0010
0100
1000
0000
,  // measure 10
0001
0000
1000
0000
0100
0000
1000
0010
0000
0100
0001
0000
0010
0000
0100
0000
,  // measure 11
0010
0000
0001
0000
1000
0000
0000
0010
0000
0000
0000
0000
0000
0000
0000
0000
,  // measure 12
1000
0000
1001
0000
0001
0010
0110
0000
,  // measure 13
0100
0000
1100
0000
1000
0010
1010
0000
,  // measure 14
0010
0000
0110
0000
0100
0001
0101
0000
,  // measure 15
0001
0000
0011
0000
0001
0010
0100
0000
,  // measure 16
1000
0000
0000
0100
0000
1000
0000
0000
0010
0000
0100
0000
0101
0000
0000
0000
,  // measure 17
0001
0000
0000
0010
0000
0001
0000
0000
0010
0000
0100
0000
1100
0000
0000
0000
,  // measure 18
0100
0000
1000
0000
0000
0010
0000
0000
0100
0000
0010
0000
1010
0000
0000
0000
,  // measure 19
0001
0000
0000
0010
0000
0001
0000
0000
1000
0000
0001
0000
0101
0000
0000
0000
,  // measure 20
0001
0000
0000
0010
0000
0001
0000
0000
0010
0000
0100
0000
1100
0000
0000
0000
,  // measure 21
0100
0000
0000
0010
0000
0001
0000
0000
0100
0000
0010
0000
1001
0000
0000
0000
,  // measure 22
0001
0000
1000
0000
0000
0010
0000
0000
1000
0000
0010
0000
0101
0000
0000
0000
,  // measure 23
0001
0000
0000
0010
0000
0001
0000
0000
1000
0000
0100
0000
0010
0000
0001
0000
,  // measure 24
1001
0000
1000
0000
0000
0001
0010
0000
,  // measure 25
0001
0000
0100
0000
0000
0010
1000
0000
,  // measure 26
0010
0000
0100
0000
0000
0001
0010
0000
,  // measure 27
0100
0000
0010
0000
0000
0100
1000
0000
,  // measure 28
0100
0000
1000
0000
0000
0010
1000
0000
,  // measure 29
0010
0000
0100
0000
0000
0001
0010
0000
,  // measure 30
0100
0000
0010
0000
0000
0001
0010
0000
,  // measure 31
0001
1000
0001
1000
,  // measure 32
0001
0000
1000
0000
0100
0000
0000
1100
0000
0000
0000
0000
0000
0000
0000
0000
,  // measure 33
0100
0000
1000
0000
0010
0000
0000
0100
0000
0000
0010
0000
1000
0000
0000
0000
,  // measure 34
0001
0000
0010
0000
0100
0000
0000
0110
0000
0000
0000
0000
0000
0000
0000
0000
,  // measure 35
1001
0000
1000
0000
0001
0100
0010
1000
0001
0000
0000
0000
0000
0000
0000
0000
,  // measure 36
0010
0000
0100
0000
1000
0000
0000
0011
0000
0000
0000
0000
0000
0000
0000
0000
,  // measure 37
0010
0000
0001
0000
0100
0000
0000
0010
0000
0000
1000
0000
0001
0000
0000
0000
,  // measure 38
0010
0000
0001
0000
1000
0000
0000
0101
0000
0000
0000
0000
0000
0000
0000
0000
,  // measure 39
1010
0000
0000
0000
0010
0100
0001
1000
0100
0000
0000
0000
0000
0000
0000
0000
,  // measure 40
1000
0000
0101
0000
0001
0010
0110
0000
,  // measure 41
0100
0000
0011
0000
0010
0100
1100
0000
,  // measure 42
0100
0000
1001
0000
1000
0010
0101
0000
,  // measure 43
1001
0000
0001
0010
0100
0010
0001
1000
,  // measure 44
0010
0000
0101
0000
0001
1000
1100
0000
,  // measure 45
1000
0000
1010
0000
0010
0100
0101
0000
,  // measure 46
0001
0000
1001
0000
1000
0100
0110
0000
,  // measure 47
0100
0000
1001
0000
0001
1000
0010
0100
,  // measure 48
0001
0000
0000
0000
0000
0000
1000
0001
,  // measure 49
0100
0000
0000
0000
0000
0000
0000
0000
0000
0000
0000
0000
0000
0010
0000
0000
,  // measure 50
0010
0000
0000
0000
0100
0000
0000
0010
,  // measure 51
1000
0000
0000
0000
0000
1001
1001
0000
;

//---------------dance-single - ----------------
#NOTES:
     dance-single:
     :
     Beginner:
     2:
     0.097167,0.139995,0.038646,0.000000,0.000000,88.000000,83.000000,5.000000,0.000000,0.000000,0.000000,0.097167,0.139995,0.038646,0.000000,0.000000,88.000000,83.000000,5.000000,0.000000,0.000000,0.000000:
// measure 0
0000
0000
0000
0000
,  // measure 1
0000
0000
0000
0000
,  // measure 2
0000
0000
0000
0000
,  // measure 3
0000
0000
0000
0000
,  // measure 4
0010
0000
0000
0000
,  // measure 5
1000
0000
0000
0000
,  // measure 6
0001
0000
0000
0000
,  // measure 7
0001
0000
0000
0010
,  // measure 8
0100
0000
0000
0000
,  // measure 9
0010
0000
0000
0000
,  // measure 10
0001
0000
0000
0000
,  // measure 11
1000
0000
0000
0000
,  // measure 12
1000
0000
0010
0000
,  // measure 13
1000
0000
0100
0000
,  // measure 14
1000
0000
0001
0000
,  // measure 15
0100
0000
0001
0000
,  // measure 16
1001
0000
0010
0000
,  // measure 17
1000
0000
0100
0000
,  // measure 18
1000
0000
0001
0000
,  // measure 19
0100
0000
0010
0010
,  // measure 20
0100
0000
0001
0000
,  // measure 21
0010
0000
0100
0000
,  // measure 22
1000
0000
0001
0000
,  // measure 23
1000
0000
0010
0100
,  // measure 24
0010
0000
0000
1000
,  // measure 25
1000
0000
0000
0000
,  // measure 26
0100
0000
0000
0010
,  // measure 27
0010
0000
0000
0000
,  // measure 28
0001
0000
0000
0100
,  // measure 29
0100
0000
0000
0000
,  // measure 30
0010
0000
0000
1000
,  // measure 31
1000
0000
0000
0000
,  // measure 32
1001
0000
0000
0000
,  // measure 33
0010
0000
0000
0000
,  // measure 34
0100
0000
0000
0000
,  // measure 35
0001
1000
0001
0000
,  // measure 36
0110
0000
0000
0000
,  // measure 37
1000
0000
0000
0000
,  // measure 38
0001
0000
0000
0000
,  // measure 39
0010
0001
0010
0000
,  // measure 40
1001
0000
1000
0000
,  // measure 41
0001
0000
0100
0000
,  // measure 42
0010
0000
1000
0000
,  // measure 43
0100
0000
0010
0001
,  // measure 44
1000
0000
0001
0000
,  // measure 45
0100
0000
0010
0000
,  // measure 46
1000
0000
0100
0000
,  // measure 47
1000
0000
0001
0000
,  // measure 48
0100
0000
0000
0010
,  // measure 49
0100
0000
0000
0000
,  // measure 50
0001
0000
0001
0000
,  // measure 51
1000
0000
0000
1001
;

//---------------dance-single - ----------------
#NOTES:
     dance-single:
     :
     Challenge:
     13:
     0.421792,0.539979,0.255063,0.100479,0.552636,382.000000,349.000000,33.000000,13.000000,80.000000,0.000000,0.421792,0.539979,0.255063,0.100479,0.552636,382.000000,349.000000,33.000000,13.000000,80.000000,0.000000:
// measure 0
0000
0000
0000
0000
,  // measure 1
0000
0000
0000
0000
,  // measure 2
0000
0000
0000
0000
,  // measure 3
0000
0000
0000
0000
0000
0000
0000
0000
0000
1001
0000
0010
1001
0000
0110
0000
,  // measure 4
1000
0010
0000
0000
0100
0001
0010
0001
0000
0000
0000
0000
0000
1000
0100
1000
,  // measure 5
0010
0000
0000
0100
0010
1000
0010
0100
0000
0000
0000
0000
0000
0000
MMMM
0000
,  // measure 6
0001
0000
0000
0010
0000
0001
1000
0100
0000
0010
0100
0000
0100
0010
0001
1000
,  // measure 7
0010
0000
0100
0000
0010
1000
0001
0010
0000
0000
0000
0000
0400
0000
0000
0000
,  // measure 8
1300
0000
0100
0000
0001
0100
0010
0001
0000
0000
0000
0000
0000
0000
1000
0001
,  // measure 9
0100
0000
0000
1000
0100
0010
1000
0100
0000
0000
0000
0000
0010
0001
2000
0000
,  // measure 10
3001
0000
0100
0000
1000
0100
0010
1000
0000
1000
0010
0000
0100
0001
0010
0001
,  // measure 11
1000
0000
0001
0000
0010
0100
1000
0001
1000
1000
0000
0001
1001
0000
0110
0000
,  // measure 12
1001
0000
0000
0000
0000
0000
1000
0000
0000
0100
0000
0000
0000
0000
0000
0100
0000
0000
0000
0000
0000
0000
0100
0000
1000
0000
0000
0000
0000
0000
0010
0000
0000
0000
0000
0000
0100
0000
0000
0000
0000
0000
0010
0000
0000
0100
0000
0000
,  // measure 13
0001
0000
0000
0000
0000
0000
0001
0000
0000
0010
0000
0000
0000
0000
0000
0010
0000
0000
0000
0000
0000
0000
0010
0000
0001
0000
0000
0000
0000
0000
0010
0000
0000
0000
0000
0000
0001
0000
0000
0000
0000
0000
1000
0000
0000
0001
0000
0000
,  // measure 14
0100
0000
0000
0000
0000
0000
0100
0000
0000
0000
0000
0000
0000
0000
0000
0010
0000
0000
0000
0000
0000
0000
0010
0000
1000
0000
0000
0000
0000
0000
0100
0000
0000
0000
0000
0000
0010
0000
0000
0000
0000
0000
0100
0000
0000
1000
0000
0000
,  // measure 15
0001
0000
0000
0000
0000
0000
0001
0000
0000
0010
0000
0000
0000
0000
0000
0010
0000
0000
0000
0000
0000
0000
0010
0000
0100
0000
0000
0000
0000
0000
0010
0000
0000
0000
0000
0000
0001
0000
0000
0000
0000
0000
0000
0000
0000
0000
0000
0000
,  // measure 16
1020
0000
0000
0000
0000
0000
0000
0000
0000
0100
0000
0000
0000
0000
0000
0130
0000
0000
0000
0000
0000
0000
0100
0000
0001
0000
0000
0000
0000
0000
0010
0000
0000
0000
0000
0000
MMMM
0000
0000
0000
0000
0000
0000
0000
0000
0000
0000
0000
,  // measure 17
0210
0000
0000
0000
0000
0000
0000
0000
0000
1000
0000
0000
0000
0000
0000
1300
0000
0000
0000
0000
0000
0000
1000
0000
0001
0000
0000
0000
0000
0000
0100
0000
0000
0000
0000
0000
MMMM
0000
0000
0000
0000
0000
0000
0000
0000
0000
1000
0000
,  // measure 18
0002
0000
0000
0000
0000
0000
0010
0000
0000
0000
0000
0000
0000
0000
0000
0013
0000
0000
0000
0000
0000
0000
0010
0000
0001
0000
0000
0000
0000
0000
0010
0000
0000
0000
0000
0000
MMMM
0000
0000
0000
0000
0000
0000
0000
0000
0000
0000
0000
,  // measure 19
2100
0000
0000
0000
0000
0000
0000
0000
0000
0001
0000
0000
0000
0000
0000
3001
0000
0000
0000
0000
0000
0000
1000
0000
0001
0000
0000
0000
0000
0000
0010
0000
0000
0000
0000
0000
MMMM
0000
0000
0000
0000
0000
0000
0000
0000
0000
0000
0000
,  // measure 20
0001
0000
0000
0000
0000
0000
0100
0000
0000
0010
0000
0000
0000
0000
0000
1000
0000
0000
0000
0000
0000
0000
0010
0000
1000
0000
0000
0000
0000
0000
0100
0000
0000
0000
0000
0000
MMMM
0000
0000
0000
0000
0000
0000
0000
0000
0000
0000
0000
,  // measure 21
0010
0000
0000
0000
0000
0000
0100
0000
0000
1000
0000
0000
0000
0000
0000
0010
0000
0000
0000
0000
0000
0000
0100
0000
0001
0000
0000
0000
0000
0000
0010
0000
0000
0000
0000
0000
MMMM
0000
0000
0000
0000
0000
0000
0000
0000
0000
0000
0000
,  // measure 22
0100
0000
0000
0000
0000
0000
0010
0000
0000
0000
0000
0000
0000
0000
0000
0001
0000
0000
0000
0000
0000
0000
1000
0000
0010
0000
0000
0000
0000
0000
0100
0000
0000
0000
0000
0000
MMMM
0000
0000
0000
0000
0000
0000
0000
0000
0000
0001
0000
,  // measure 23
0010
0000
0000
0000
0000
0000
0000
0000
0000
0100
0000
0000
0000
0000
0000
1000
0000
0000
0000
0000
0000
0000
0100
0000
1000
0000
0000
0000
0000
0000
0010
0000
0000
0000
0000
0000
0100
0000
0000
0010
0000
0000
0100
0000
0000
0000
0000
0000
,  // measure 24
1001
0000
0000
0000
0000
0000
0000
0000
0000
MMMM
0000
0000
0000
0000
0000
0000
0000
0000
0000
0000
0000
0000
0000
0000
0000
0000
0000
0000
1000
0000
0010
0000
0000
0000
0000
0000
1000
0000
0000
0000
0000
0000
0100
0000
0000
0000
0000
0000
,  // measure 25
0010
0000
0000
MMMM
0000
0000
0000
0000
0000
0000
1000
0000
0001
0000
0000
0000
,  // measure 26
1000
0000
0000
0000
0000
0000
0000
0000
0000
MMMM
0000
0000
0000
0000
0000
0000
0000
0000
0000
0000
0000
0000
0000
0000
0000
0000
0000
0000
1000
0000
0001
0000
0000
0000
0000
0000
0010
0000
0000
0000
0000
0000
0001
0000
0000
0000
0000
0000
,  // measure 27
0100
0000
0010
0000
0000
0100
0010
0000
,  // measure 28
1000
0000
0000
0000
0000
0000
0000
0000
0000
MMMM
0000
0000
0000
0000
0000
0000
0000
0000
0000
0000
0000
0000
0000
0000
0000
0000
0000
0000
1000
0000
0001
0000
0000
0000
0000
0000
0010
0000
0000
0000
0000
0000
0100
0000
0000
0000
0000
0000
,  // measure 29
0010
0000
0000
MMMM
0000
0000
0000
0000
0000
0000
0100
0000
0001
0000
0000
0000
,  // measure 30
1000
0000
0000
0000
0000
0000
0000
0000
0000
0001
0000
0000
0000
0000
0000
0000
0000
0000
0000
0000
0000
0000
0000
0000
0000
0000
0000
0000
0010
0000
0100
0000
0000
0000
0000
0000
1000
0000
0000
0000
0000
0000
0001
0000
0000
0000
0000
0000
,  // measure 31
0010
0100
1000
0001
0010
0100
1000
0001
0010
0100
1000
0001
0010
0100
1000
0001
,  // measure 32
1001
0000
0000
0000
0000
0000
0101
0000
0000
0000
0000
0000
0001
0000
0000
0000
0010
0000
0000
0000
0000
MMMM
0000
0000
0000
0000
0000
0000
0000
0000
0000
0000
0000
0000
0000
0000
0000
0000
0000
0000
0000
0000
0000
0000
0000
0000
0000
0000
,  // measure 33
0100
0000
0000
0000
0000
0000
1010
0000
0000
0000
0000
0000
0010
0000
0000
0000
0100
0000
0000
0000
0000
MMMM
0000
0000
0000
0000
0000
0000
1000
0000
0100
0000
0000
0000
0000
0000
0000
0000
0000
0000
0000
0000
0000
0000
0000
0000
1000
0000
,  // measure 34
0001
0000
0000
0011
0000
0000
0001
0000
0100
0010
0000
MMMM
0000
0000
0000
0000
0000
0000
4000
0000
0000
0000
0000
0000
,  // measure 35
3100
0000
0000
0010
0000
0000
0001
0000
0010
0001
0000
1000
0100
0000
0000
0000
0000
0000
0000
0000
0000
0000
0000
0000
,  // measure 36
1000
0000
0000
0000
0000
0000
0110
0000
0000
0000
0000
0000
0001
0000
0000
0000
0100
0000
0000
0000
0000
MMMM
0000
0000
0000
0000
0000
0000
0000
0000
0000
0000
0000
0000
0000
0000
0000
0000
0000
0000
0000
0000
0002
0000
0000
0000
0000
0000
,  // measure 37
0103
0000
0000
0000
0000
0000
0110
0000
0000
0000
0000
0000
0001
0000
0000
0000
1000
0000
0000
0000
0000
MMMM
0000
0000
0000
0000
0000
0000
0010
0000
0001
0000
0000
0000
0000
0000
1000
0000
0000
0000
0000
0000
0100
0000
0000
0000
1000
0000
,  // measure 38
0010
0000
0000
0000
0000
0000
1010
0000
0000
0000
0000
0000
1000
0000
0000
0000
0100
0000
0000
0000
0000
MMMM
0000
0000
0000
0000
0000
0000
0000
0000
0000
0000
0000
0000
0000
0000
0000
0000
0000
0000
0000
0000
0000
0000
0000
0000
0000
0000
,  // measure 39
1001
0000
0000
0000
0000
0000
0001
0000
0100
0001
0000
1000
0001
0000
0000
0000
0000
0000
0000
0000
0000
0000
0000
0000
,  // measure 40
1001
0000
0000
0000
0000
0000
0001
0000
0000
0010
0000
0000
0000
0000
0000
1000
0000
0000
0000
0000
0000
0000
0010
0000
0100
0000
0000
0000
0000
0000
1000
0000
0000
0000
0000
0000
1100
0000
0000
0000
0000
0000
0000
0000
0000
0000
0001
0000
,  // measure 41
0010
0000
0000
0000
0000
0000
0001
0000
0000
0100
0000
0000
0000
0000
0000
0100
0000
0000
0000
0000
0000
0000
0010
0000
0100
0000
0000
0000
0000
0000
0001
0000
0000
0000
0000
0000
1100
0000
0000
0000
0000
0000
0000
0000
0000
0000
0100
0000
,  // measure 42
0010
0000
0000
0000
0000
0000
1010
0000
0000
0000
0000
0000
0000
0000
0000
0110
0000
0000
0000
0000
0000
0000
0100
0000
0010
0000
0000
0000
0000
0000
0001
0000
0000
0000
0000
0000
0011
0000
0000
0000
0000
0000
0000
0000
0000
0000
0000
0000
,  // measure 43
1001
0000
0000
0000
0000
0000
1000
0000
0000
0000
0001
0000
0000
0000
0000
0010
0000
0000
0000
0000
0000
0000
0100
0000
1000
0000
0000
0000
0000
0000
0010
0000
0000
0000
0000
0000
1001
0000
0000
0000
0000
0000
0000
0000
0000
0000
0000
0000
,  // measure 44
1001
0000
0000
0000
0000
0000
1000
0000
0000
0010
0000
0000
0000
0000
0000
0001
0000
0000
0000
0000
0000
0000
0010
0000
0100
0000
0000
0000
0000
0000
0001
0000
0000
0000
0000
0000
0011
0000
0000
0000
0000
0000
0010
0000
0000
0100
0000
0000
,  // measure 45
1000
0000
0000
0000
0000
0000
0100
0000
0000
0001
0000
0000
0000
0000
0000
0100
0000
0000
0000
0000
0000
0000
0010
0000
0100
0000
0000
0000
0000
0000
1000
0000
0000
0000
0000
0000
1001
0000
0000
0000
0000
0000
0001
0000
0000
1000
0000
0000
,  // measure 46
0100
0000
0000
0000
0000
0000
0010
0000
0000
0000
0000
0000
0000
0000
0000
0011
0000
0000
0000
0000
0000
0000
0001
0000
0100
0000
0000
0000
0000
0000
0010
0000
0000
0000
0000
0000
1010
0000
0000
0000
0000
0000
1000
0000
0000
0001
0000
0000
,  // measure 47
0010
0000
0000
0000
0000
0000
0100
0000
0000
1000
0000
0000
0000
0000
0000
0010
0000
0000
0000
0000
0000
0000
0001
0000
0010
0000
0000
0000
0000
0000
0100
0000
0000
0000
0000
0000
0001
0000
0000
0100
0000
0000
0020
0000
0000
0000
0000
0000
,  // measure 48
2030
0000
0000
0000
0000
0000
0000
0000
0000
0000
0000
0000
3000
0000
0000
0000
0000
0001
0010
0000
0000
0001
0000
0000
,  // measure 49
0200
0000
0000
0000
0000
0000
0000
0000
0300
0000
0000
0000
0000
0020
0000
0000
,  // measure 50
0230
0000
0000
0000
0000
0000
0300
0000
0000
0000
0000
0010
2000
0000
0000
0000
0000
0000
3000
0000
0000
0001
0000
0000
,  // measure 51
0020
0000
0000
0000
0000
0000
0000
0000
0030
0000
1001
MMMM
1001
0000
0000
0000
;
