#TITLE:Artist;
#SUBTITLE:;
#ARTIST:CANVAS feat. Quimär;
#TITLETRANSLIT:;
#SUBTITLETRANSLIT:;
#ARTISTTRANSLIT:CANVAS feat. Quimar;
#GENRE:MYSTICAL HARD DANCE;
#CREDIT:;
#BANNER:Artist.png;
#BACKGROUND:Artist-bg.png;
#LYRICSPATH:;
#CDTITLE:CDTITLE.png;
#MUSIC:Artist.ogg;
#OFFSET:0.000000;
#SAMPLESTART:72.000000;
#SAMPLELENGTH:15.000000;
#SELECTABLE:YES;
#BPMS:0.000000=165.000000
;
#STOPS:
;
#BGCHANGES:0.000=Artist.avi=1.000=0=0=0=StretchNoLoop====,
99999=-nosongbg-=1.000=0=0=0 // don't automatically add -songbackground-
;
#KEYSOUNDS:;
#ATTACKS:;

//---------------dance-single - PanVAS----------------
#NOTES:
     dance-single:
     PanVAS:
     Beginner:
     6:
     0.201797,0.384353,0.164254,0.000000,0.000000,172.000000,152.000000,20.000000,0.000000,0.000000,0.000000,0.201797,0.384353,0.164254,0.000000,0.000000,172.000000,152.000000,20.000000,0.000000,0.000000,0.000000:
0000
0000
0000
0000
,
0000
0000
0000
0000
,
0000
0000
0000
0000
,
0000
0000
0000
0000
,
0000
0000
0000
0010
,
1001
0000
0000
0000
,
0110
0000
0010
0000
,
0100
0000
0001
1000
,
1001
0000
0000
0000
,
0010
0000
1000
0000
,
0001
0000
0010
0000
,
0100
0000
0010
0000
,
0001
0000
1000
0000
,
0001
0000
1000
0000
,
0010
0000
1000
0000
,
0001
0000
1000
0000
,
0010
0010
0010
0000
,
0100
0000
0000
0001
,
0010
0000
0000
0100
,
0010
0000
0000
0001
,
1000
1000
1000
0000
,
0001
0000
0000
1000
,
0010
0000
0000
0100
,
0001
0000
0010
0000
,
0100
0010
0001
1000
,
1001
0000
0010
0000
,
1000
0000
0000
0000
,
1001
0000
0001
0000
,
0010
0000
0000
0100
,
1001
0000
0010
0000
,
0001
0000
0000
0000
,
1000
0000
0010
0000
,
1000
0000
0000
0000
,
1000
0000
0001
0001
,
1000
0000
0010
0010
,
0100
0000
0001
0001
,
0010
0100
1000
0001
,
0100
0100
0100
0000
,
0010
0010
0010
0000
,
1000
0000
0001
0000
,
1000
0001
0100
0010
,
1001
0000
0000
0000
,
0000
0000
0000
0000
,
0000
0000
0000
0000
,
0000
0000
0000
0000
,
1000
0000
0000
0000
,
0100
0000
0000
0000
,
0010
0000
0000
0000
,
0001
0000
0000
0000
,
1000
0000
0000
0010
,
1001
0000
0001
0000
,
1000
0010
1000
0000
,
0010
0000
0100
0000
,
0001
0010
0001
0000
,
1000
0000
0001
0000
,
0100
0010
0100
0000
,
0010
0000
1000
0000
,
1001
1001
1001
0000
,
0010
0000
0000
0000
,
0110
0000
0000
0010
,
1000
0000
0001
0000
,
0010
0001
0100
0000
,
0010
0000
1000
0000
,
0100
1000
0010
0000
,
0100
0000
0000
0000
,
1001
0000
0000
0000
,
0110
0000
0010
0000
,
0001
0000
1000
0001
,
0110
0000
0010
0000
,
1000
0001
1000
0000
,
0010
0000
1000
0000
,
0100
0010
0100
0000
,
0010
0000
0001
0000
,
1000
0001
1000
0000
,
0001
0000
0100
0000
,
0110
1001
0110
1001
,
0110
0000
0000
0000
,
0000
0000
0000
0000
,
0010
0000
0000
0000
;

//---------------dance-single - Quit7r----------------
#NOTES:
     dance-single:
     Quit7r:
     Easy:
     9:
     0.335546,0.427059,0.229955,0.402421,0.053382,286.000000,258.000000,28.000000,49.000000,0.000000,0.000000,0.335546,0.427059,0.229955,0.402421,0.053382,286.000000,258.000000,28.000000,49.000000,0.000000,0.000000:
0000
0000
0000
0000
,
0000
0000
0000
0000
,
0000
0000
0000
0000
,
0000
0000
0000
0000
,
0000
0000
0000
0000
,
0002
0000
0000
0000
0000
0000
0000
1003
,
1000
2000
0000
3001
0001
0000
0100
0000
,
0010
0000
0000
0010
0000
0000
1000
0000
1000
0000
0000
0001
0000
0000
0001
0000
,
0200
0000
0000
0310
,
1001
0100
0010
0001
,
1000
0000
0100
0000
1000
0001
1000
0000
,
0001
0100
0010
1000
,
0001
0000
0010
0000
0100
0010
0100
0000
,
0110
0001
0100
0010
,
0110
1000
0100
0010
,
1001
0010
1001
0100
,
0220
0000
0000
0330
,
1000
0000
0000
0100
0000
0000
0110
0000
,
0001
0000
0000
0100
0000
0000
0110
0000
,
1000
0000
0000
0010
0000
0000
0110
0000
,
0001
0001
0001
0000
0010
0000
0110
0000
,
1000
0000
0000
1000
0000
0000
0001
0000
0000
0001
0000
0000
1000
0000
0000
0000
,
0010
0000
0000
0010
0000
0000
0100
0000
0000
0100
0000
0000
0010
0000
0000
0000
,
1000
0000
0000
1001
0000
0000
0000
0000
0110
0000
0000
0000
0010
0000
0000
0000
,
2002
0000
0000
3003
,
0002
0000
0010
0103
,
2000
0000
0100
3010
,
0002
0000
0100
0013
,
2000
0000
0010
3100
,
0002
0000
0100
1003
,
0200
0000
0010
1300
,
0020
0000
0230
0000
,
0301
1000
0002
0003
,
2001
0001
0002
3003
,
0201
0001
0002
0303
,
0120
0100
0200
0330
,
1002
1000
2000
3003
,
1000
0100
1000
0000
2200
0000
3300
0000
,
0001
0100
0001
0000
0202
0000
0303
0000
,
0100
0000
0000
0110
0000
0000
0000
0000
0010
0000
0000
0000
1000
0000
0000
0000
,
0001
0001
1000
1000
,
2002
0000
0000
0000
,
0000
0000
0000
0000
,
3003
0000
0000
0000
,
0000
0000
0000
0000
,
0001
0100
0010
0010
,
1000
0100
0010
0010
,
0001
0100
1000
0100
,
0001
0010
1000
0010
,
2002
0000
3003
0010
,
1001
0100
0010
0001
,
1000
0000
0100
1000
0100
0000
1000
0000
,
0001
0100
0010
1000
,
0001
0010
0001
0000
0100
0000
0010
0000
,
1000
0001
0100
0010
,
1000
0001
0100
0000
0001
0000
1000
0000
,
0001
0010
0100
1000
,
0001
0000
0100
0000
0010
0000
1000
0000
0010
0000
0100
0000
,
0002
0000
0000
0000
,
1003
0001
2002
3003
,
0110
0001
0110
1000
,
0010
1000
0010
0000
1000
0000
0100
0000
,
1000
0000
0010
0000
0100
0000
0001
1000
,
0010
1000
0001
0100
,
0220
0000
0000
0330
,
2000
0000
0000
3000
,
0001
1000
0100
0000
1000
0001
0100
0000
,
0220
0330
0001
0020
,
0032
0000
2003
0000
,
3010
1000
0100
0001
,
0100
0100
0010
0010
,
0001
0000
0001
0000
1000
1000
0001
0001
,
2000
0000
3010
0100
,
0002
0000
0013
0100
,
1000
0100
0010
0000
0001
0100
0010
0000
,
2000
0000
0000
0000
3010
0000
0000
0000
0100
0000
0000
0010
0000
0000
0100
0000
,
0002
0010
0000
0010
,
0000
1000
0000
1003
,
2000
0100
0000
0100
,
0000
0001
0000
0002
,
3003
0000
0000
0000
;

//---------------dance-single - PanVAS----------------
#NOTES:
     dance-single:
     PanVAS:
     Medium:
     13:
     0.552596,0.821267,0.229955,0.295656,0.336720,471.000000,443.000000,28.000000,36.000000,0.000000,0.000000,0.552596,0.821267,0.229955,0.295656,0.336720,471.000000,443.000000,28.000000,36.000000,0.000000,0.000000:
0000
0000
0000
0000
,
0000
0000
0000
0000
,
0000
0000
0000
0000
,
0000
0000
0000
0000
,
0000
0000
0000
0000
,
0001
2010
0000
0100
0000
3100
0000
0010
,
1000
0200
0000
0310
0001
0200
0000
0310
,
1000
0000
0000
1000
0000
0000
1000
0000
0001
0000
0000
0001
0000
0000
0001
0000
,
0200
0000
0000
0300
,
0010
1000
0100
0010
,
0100
0000
1000
0000
0010
0000
0100
0001
,
1000
0001
0010
0001
,
1000
0000
0010
0000
0100
0001
0010
0100
,
1000
0000
0100
1000
0000
1000
0001
0000
,
0100
0000
0001
0000
0010
0000
0100
0010
,
0001
1000
0010
1000
,
0001
0100
1000
0100
0001
0010
1000
0010
,
0001
0000
0000
1000
0000
0000
0010
0000
0000
1000
0000
0000
0001
0000
0010
0000
,
0100
0000
0000
0010
0000
0000
0001
0000
0000
0100
0000
0000
0010
0000
1000
0000
,
0100
0000
0000
1000
0000
0000
0010
0000
0000
0100
0000
0000
0010
0000
0100
0000
,
0001
0001
1000
1000
0001
0100
0010
1000
,
0100
0000
0000
0010
0000
0000
0001
0000
0000
0100
0000
0000
0010
0000
1000
0000
,
0001
0000
0000
0010
0000
0000
0001
0000
0000
1000
0000
0000
0010
0000
1000
0000
,
1100
0000
0000
0110
0000
0000
1100
0000
0000
1010
0000
0000
0001
0000
1000
0000
,
0200
2300
3020
0230
,
0301
0000
0000
0000
1000
0100
0001
0100
,
0010
0001
1000
0001
0000
1000
0010
0100
,
0010
0000
0000
0100
0001
0010
0001
1000
,
0001
0000
0010
0000
0100
0000
1000
0000
0000
0000
1000
0001
1000
0000
0001
0000
,
0100
0000
0000
0000
0001
0010
1000
0010
,
0100
0010
0001
1000
0000
0010
1000
0001
,
1000
0000
0000
0000
0000
0000
0001
0100
0001
0000
0100
0000
0000
0000
0010
1000
,
0010
1000
0100
1000
0000
0001
0100
0000
,
0110
0000
0000
0000
0110
0000
0000
0000
0110
0000
0000
0110
0000
0000
0110
0000
,
1001
0000
0000
0000
1001
0000
0000
0000
1001
0000
0000
1001
0000
0000
1001
0000
,
1010
0000
0000
0000
1010
0000
0000
0000
1010
0000
0000
1010
0000
0000
1010
0000
,
0101
0000
0001
0000
1000
0000
0002
0000
0000
0000
0013
0100
0010
0000
0100
0000
,
1000
0000
0001
0000
0100
0000
0001
0000
0010
0100
0010
0000
0200
0000
0000
0000
,
1300
0001
1000
0000
1000
0001
1000
0000
0000
0000
0000
0000
0000
0000
0000
0000
,
0001
0000
0000
0101
0000
0000
0100
0000
0010
0000
0000
1010
0000
0000
1000
0000
,
0200
0320
0032
2003
,
3002
0100
0100
0100
,
0100
0100
0100
0103
,
2000
0100
0100
0100
,
0100
0100
0100
3100
,
0002
0010
0010
0010
,
0010
0010
0010
0013
,
2000
0010
0010
0010
,
0010
0010
0010
3010
,
2002
0000
0000
3003
,
0001
0000
0000
1000
0000
0000
0100
0000
0000
1000
0000
0000
0010
0000
0100
0000
,
0001
0000
0000
0000
1000
0000
0100
0000
0000
1000
0000
0001
0000
0010
0000
0100
,
1000
0000
0100
0000
0010
0000
0000
0100
0000
1000
0000
0000
0001
0000
0100
0000
,
0010
0000
1000
0000
0000
0001
0000
1000
0100
0000
0000
0010
0000
0001
0000
0100
,
0010
0000
0000
0100
0000
0000
0001
0000
1000
0000
0100
0000
0010
0000
0100
0000
,
1000
0000
0000
0000
0001
0000
0010
0000
0000
0100
0000
0010
0000
0001
0000
1000
,
0010
0000
0000
0010
0000
0000
0010
0000
0100
0000
0010
0000
1000
0000
0001
0000
,
0010
0100
1000
0010
0100
0001
1000
0000
0000
0002
0000
0000
,
0023
0000
0000
0030
,
1000
0001
1000
0000
0000
0101
0000
0011
0000
0000
0000
0000
0000
0000
0000
0000
,
0010
0100
1000
0001
0100
0001
1000
0100
,
0010
0000
0000
0000
0000
0000
0001
0000
0000
0000
0000
0000
0000
0000
0000
0100
0000
0000
0000
0000
0000
0010
0000
0000
1000
0000
0000
0000
0010
0000
0000
0000
1000
0000
0000
0000
0001
0000
0000
0000
0100
0000
0000
0000
0001
0000
0000
0000
,
0010
0100
0010
0000
0100
0000
1000
0000
0001
0000
0000
0000
1000
0000
0001
0000
,
0100
0000
0000
0010
1000
0000
0001
0000
0010
0000
0100
0000
0010
0000
0001
0000
,
1000
0000
0000
1000
0000
0000
1000
0000
0001
0000
0010
0000
0100
0000
1000
0000
,
0001
0000
0000
0001
0000
0000
0001
0000
1000
0000
0100
0000
0010
0000
0001
0000
,
1000
0010
0100
0001
0010
0100
0010
0001
,
1000
0000
0000
0000
0000
0000
0000
0000
0001
0010
0100
1000
0001
0000
0000
0000
,
1001
0000
0000
0000
1000
0000
0001
0000
0010
0000
0000
0100
0000
0000
0010
0000
,
0001
0000
0000
0001
0000
0000
1000
0000
0010
0000
0000
0010
0000
0000
1000
0000
,
0100
0000
0010
0100
0000
0010
0000
0001
,
1000
0000
0010
0000
0100
0001
0100
0001
0100
0000
0001
0000
1000
0000
0001
1000
,
0001
0000
0000
1000
0000
0000
0100
0000
1000
0000
0000
0010
0000
0000
0100
0000
,
0001
0000
0000
0010
0000
0000
0100
0000
1000
0010
1000
0010
1000
0010
1000
0010
,
1000
0000
0000
0000
0100
0000
0000
0000
0010
0000
0000
0000
0001
0000
0000
1000
0000
0000
0001
0000
0000
1000
0000
0000
0001
0000
0000
0000
0000
0000
0100
0000
0000
0001
0000
0000
0100
0000
0000
0000
0000
0000
0010
0000
0000
0000
0000
0000
,
1000
0100
0010
0001
0010
0100
1000
0001
,
1001
2000
3200
0320
,
0230
2300
3020
0200
,
0330
0200
0320
2030
,
3002
0023
0230
0020
,
0330
0000
0000
0000
;

//---------------dance-single - Quit7r----------------
#NOTES:
     dance-single:
     Quit7r:
     Hard:
     16:
     0.736794,0.985521,0.320294,0.262806,0.837693,628.000000,589.000000,39.000000,32.000000,0.000000,0.000000,0.736794,0.985521,0.320294,0.262806,0.837693,628.000000,589.000000,39.000000,32.000000,0.000000,0.000000:
// measure 0
0000
0000
0000
0000
,  // measure 1
0000
0000
0000
0000
,  // measure 2
0000
0000
0000
0000
,  // measure 3
0000
0000
0000
0000
,  // measure 4
0000
0000
0000
0000
,  // measure 5
0010
0000
0220
0000
0000
0000
0000
0000
0000
0000
0000
0000
0330
0000
0001
1000
,  // measure 6
0001
0000
1002
0000
0000
0000
1003
0000
2001
0000
0000
0000
3010
0100
0010
0100
,  // measure 7
0010
0000
1000
0100
0000
1000
0001
0000
0100
0000
0001
0010
0000
0001
1000
0001
,  // measure 8
0200
0000
0000
0310
,  // measure 9
1000
0000
0000
1000
0100
0000
0000
0100
0010
0000
0000
0010
0001
0000
0000
0001
,  // measure 10
0100
0000
0000
0100
0010
0000
0000
0010
1000
0000
0000
1000
0001
0000
0100
0000
,  // measure 11
0101
0000
0000
0001
0100
0000
0000
0100
0010
0000
0000
0010
1000
0000
0000
1000
,  // measure 12
0001
0000
0000
0001
0010
0000
0000
0010
0100
0000
0000
0100
1000
0001
1000
0000
,  // measure 13
1001
0001
0100
1000
0100
0010
1000
0001
,  // measure 14
1001
0000
0000
1000
0100
0000
0000
0100
0010
0000
0000
0010
0001
1000
0001
0000
,  // measure 15
1000
0000
0000
0001
0100
0001
0010
0000
0001
0000
0000
1000
0100
1000
0010
0000
,  // measure 16
0110
0100
0002
0000
1000
0000
0103
0000
,  // measure 17
0001
0000
0001
0010
0000
0010
0100
0000
0100
1000
0000
1000
0001
0000
0100
0000
,  // measure 18
0010
0000
0010
1000
0000
1000
0001
0000
0001
0100
0000
0100
0001
0000
0010
0000
,  // measure 19
0100
0000
0100
0010
0000
0010
0001
0000
0001
1000
0000
1000
0100
0000
1000
0000
,  // measure 20
0010
0000
0110
0000
0100
0000
0110
0000
0001
0000
1000
0001
1000
0010
1000
0000
,  // measure 21
1001
0000
1000
0100
0000
0100
0001
0000
0100
0000
0010
0000
0012
0000
0000
0000
,  // measure 22
1003
0000
0001
0100
0000
0100
1000
0000
0100
0010
0100
0010
2000
0000
0000
0000
,  // measure 23
3001
0000
1000
0100
0000
0001
0100
0000
0010
0001
0000
1000
0010
0000
1000
0000
,  // measure 24
0001
0100
0001
0100
0001
0100
0001
0100
0010
1000
0010
1000
0010
1000
0001
0000
,  // measure 25
2000
0000
0000
0000
3100
0000
0010
0000
0100
1000
0000
0001
1000
0000
0001
0000
,  // measure 26
0100
0001
0010
1000
0010
0100
1000
0001
,  // measure 27
0200
0000
0000
0000
0301
0000
0010
0000
0001
0100
0000
1000
0100
0000
0001
0000
,  // measure 28
1000
0000
0010
0000
0001
0000
0010
0000
0100
0000
0001
1000
0001
0000
1000
0000
,  // measure 29
1002
0000
0000
0000
0103
0000
0010
0000
0100
0001
0000
0100
0010
0000
1000
0000
,  // measure 30
0001
0000
1000
0000
0100
0000
0001
0000
0100
0000
0010
0001
0010
0000
0001
0000
,  // measure 31
0200
0000
0000
0000
0000
0000
0301
1000
0001
0000
0010
0000
0000
0000
0001
0100
,  // measure 32
0010
1000
0001
0010
0000
0100
1000
0000
,  // measure 33
1100
0000
0000
0000
0110
0000
0000
0000
0011
0000
0000
1001
0000
0000
0110
0000
,  // measure 34
0010
1000
0010
0002
0000
0013
0100
0000
,  // measure 35
0101
0000
0000
0000
0110
0000
0000
0000
1010
0000
0000
1001
0000
0000
0110
0000
,  // measure 36
0100
0000
0110
0000
0001
0000
1001
0000
0010
0000
0110
0000
0010
1000
0100
1000
,  // measure 37
0001
0100
0001
0000
1000
0000
0100
1000
0001
0010
0100
0000
0020
0000
0000
0000
,  // measure 38
0031
1000
0001
0000
0100
0010
0100
0000
0020
0000
0000
0000
2030
0000
0000
0000
,  // measure 39
3001
0000
0100
1000
0000
0100
0001
0100
0010
0000
1000
0010
0000
0001
0010
0100
,  // measure 40
0002
0000
0000
0003
,  // measure 41
2002
0000
0000
0000
,  // measure 42
0000
0000
0000
0000
,  // measure 43
3003
0000
0000
0000
,  // measure 44
0000
0000
0000
0000
,  // measure 45
1000
0000
0100
0000
1000
0000
0000
0010
0000
1000
0010
0000
1000
0000
0001
0000
,  // measure 46
0100
0000
0001
0000
0100
0000
0000
0001
0000
0010
0001
0000
1000
0000
0100
0000
,  // measure 47
1000
0010
1000
0010
0100
0001
1000
0000
0001
0010
0001
0010
0100
1000
0001
0000
,  // measure 48
1000
0100
1000
0100
1000
0100
1000
0100
0010
0001
0010
0001
1000
0000
0001
0000
,  // measure 49
0220
0000
0330
0002
,  // measure 50
1003
0000
0000
1000
0100
0000
1000
0010
0000
0010
0100
0000
0010
0000
1000
0000
,  // measure 51
0001
0000
0000
0001
0010
0100
0000
0010
0000
0010
0000
0001
0000
1000
0100
0000
,  // measure 52
1000
0000
0000
1000
0010
0100
0000
0010
0000
0010
0100
0000
0010
0000
1000
0000
,  // measure 53
0001
0010
0100
1000
0000
1000
0100
0000
1000
0010
0100
0001
0000
1000
0001
0000
,  // measure 54
1001
0000
0000
0001
0100
0000
0010
1000
0000
1000
0001
0000
1000
0000
0100
0000
,  // measure 55
1000
0000
0000
0100
0010
0001
0100
0010
0000
0100
0000
0001
0000
0001
0100
0000
,  // measure 56
0001
0000
1000
0100
0000
0001
0100
0000
1000
0001
0010
0000
0001
0000
0100
0000
,  // measure 57
0001
0000
0000
0000
0010
0000
0000
0000
1000
0000
0000
0000
0010
0000
0000
0000
0100
0000
0000
0000
1000
0000
0000
0000
0001
0000
0000
0000
0000
0000
0100
0000
0000
0010
0000
0000
1000
0000
0000
0001
0000
0000
1000
0000
0000
0001
0000
0000
,  // measure 58
2000
0000
0000
0000
,  // measure 59
3001
0100
0001
0000
0000
1100
0000
0101
0000
0000
0000
0000
0000
0100
0010
0100
,  // measure 60
0001
0000
0000
0001
0010
0100
0000
1000
0000
1000
0010
0000
1000
0000
0001
0000
,  // measure 61
1000
0000
0000
0100
0000
0000
0010
0000
0000
0001
0000
0000
0000
0000
0000
0001
0000
0000
0100
0000
0000
0000
0000
0000
0001
0000
0000
0000
0100
0000
0000
0000
1000
0000
0000
0000
0100
0000
0000
0000
0010
0000
0000
0000
1000
0000
0000
0000
,  // measure 62
0001
0100
0001
0100
0001
0000
0000
0001
0010
0000
0000
0010
0100
0000
0100
0000
,  // measure 63
1000
0000
0000
1000
0010
0100
0010
1000
0000
0001
0000
0100
0000
0001
1000
0001
,  // measure 64
0010
0000
0000
0010
0000
0000
0010
0000
0001
0000
0100
0000
0010
0000
1000
0000
,  // measure 65
0200
0000
0000
0300
,  // measure 66
0010
0000
0011
0000
0001
0000
0101
0000
0100
0000
0110
0000
0010
1000
0010
1000
,  // measure 67
0002
0000
0000
0000
0000
0000
0000
0000
1003
0100
0010
0001
2000
0000
0000
0000
,  // measure 68
3002
0000
0000
0000
0103
0000
0010
1000
0020
0000
0000
0000
1030
0000
0000
0000
,  // measure 69
0001
0000
0010
1000
0000
0010
0001
0000
1000
0000
0100
0001
0000
0100
0010
0000
,  // measure 70
0001
0000
0000
0001
0100
0000
0000
0100
0010
0000
0000
0010
1000
0000
1001
0000
,  // measure 71
1100
0000
0000
0100
0010
0001
0010
0001
1000
0000
1001
0000
0101
0000
0001
1000
,  // measure 72
0100
0000
0000
0100
1000
0000
0000
1000
0010
0000
0000
0010
0100
0000
0110
0000
,  // measure 73
0101
0000
0000
0001
0100
0000
0000
0100
0010
1000
0010
1000
0001
1000
0001
1000
,  // measure 74
0001
0010
0100
1000
0001
0010
0100
1000
0001
0100
0010
1000
0001
0100
0010
1000
,  // measure 75
0002
0000
0000
0000
0000
0000
0000
0000
0013
0000
0001
0100
0000
1000
0100
0000
,  // measure 76
0020
1000
0100
0001
,  // measure 77
0100
1000
0001
0130
,  // measure 78
0002
0010
1000
0100
,  // measure 79
1000
0010
0100
2000
,  // measure 80
3003
0000
0000
0000
;

//---------------dance-single - PanVAS feat. Quit7r----------------
#NOTES:
     dance-single:
     PanVAS feat. Quit7r:
     Challenge:
     18:
     0.956190,1.116924,0.525611,0.312082,1.153881,815.000000,751.000000,64.000000,38.000000,0.000000,0.000000,0.956190,1.116924,0.525611,0.312082,1.153881,815.000000,751.000000,64.000000,38.000000,0.000000,0.000000:
// measure 0
0000
0000
0000
0000
,  // measure 1
0000
0000
0000
0000
,  // measure 2
0000
0000
0000
0000
,  // measure 3
0000
0000
0000
0000
,  // measure 4
0000
0000
0000
0000
0000
0000
0000
0000
0000
0000
0000
0000
0001
1000
0001
1000
,  // measure 5
1001
0000
1100
0000
0000
0000
0010
0000
0000
0000
0100
0000
0000
0000
1000
0010
,  // measure 6
0110
0000
0101
0000
0000
0000
0001
0000
0011
0000
0000
0000
1000
0010
1000
0010
,  // measure 7
0100
0000
0010
1000
0000
0010
0001
0010
1000
0000
0001
1000
0001
1000
0010
1000
,  // measure 8
0100
0000
1000
0010
0000
0000
0100
0010
2000
0000
3001
1000
0100
0010
0001
1000
,  // measure 9
0001
0000
1000
0010
1000
0010
1000
0010
0100
0000
0001
0010
0100
0010
0100
0010
,  // measure 10
0001
0000
1000
0001
0100
0001
0100
0010
1000
0000
0001
0010
0100
0010
0100
0010
,  // measure 11
0001
0000
1000
0010
0100
0010
0100
0001
1000
0000
0100
0010
0001
1000
0001
1000
,  // measure 12
0100
0000
0010
0001
1000
0010
1000
0010
0100
0000
0010
0000
0100
0010
0100
0000
,  // measure 13
0001
0000
1000
0010
0100
0010
0100
0010
1000
0000
0001
0010
0100
0010
0100
0010
,  // measure 14
0001
0000
1000
0001
0100
0010
0100
0010
1000
0000
0001
0010
0100
0000
1000
0000
,  // measure 15
1001
0000
1001
0000
0001
0100
0001
0100
0010
0000
0100
0010
1000
0001
1000
0001
,  // measure 16
0010
0000
0100
0010
0002
0000
0103
0010
2000
0000
3001
0010
0200
0000
1300
0000
,  // measure 17
0001
0000
1000
0010
0000
0100
0001
0000
0010
0100
0000
0010
0001
0000
1000
0000
,  // measure 18
0010
0000
1000
0100
0000
0010
0001
0000
0010
0100
0000
0010
0001
0000
0100
0000
,  // measure 19
0010
0000
1000
0001
0000
0010
0100
0000
0010
0001
0000
1000
0100
0000
1000
0000
,  // measure 20
1010
0000
0101
0000
1010
0000
0101
0000
1001
0000
0001
0010
0100
1000
0100
0010
,  // measure 21
0001
0000
0010
0100
0000
1000
0010
0000
0100
0001
0000
0010
0100
0000
1000
0000
,  // measure 22
0010
0000
1000
0001
0000
0010
0100
0000
0010
0001
0000
1000
0010
0000
0100
0000
,  // measure 23
1001
0000
0000
1010
0000
0000
1001
0000
0000
0011
0000
0000
0110
0000
1100
0000
,  // measure 24
2000
0000
3010
0100
0002
0000
0013
0100
2000
0000
3100
0010
0002
0000
1003
0010
,  // measure 25
0100
0000
0000
0000
0000
0000
0000
0000
0000
0000
0000
0000
0001
1000
0001
1000
0000
0000
0100
0000
0000
0001
0000
0000
,  // measure 26
0100
0010
0001
1000
0000
0010
0100
0001
,  // measure 27
0011
0000
0000
0000
0000
0000
0100
1000
0010
0000
0010
0000
0010
0000
0000
0000
,  // measure 28
0100
0000
1000
0000
0100
0000
0001
0000
0000
0000
1000
0001
0100
0000
0010
0000
,  // measure 29
1001
0000
0000
0000
0000
0000
0000
0000
0000
0000
0000
0000
1000
0010
1000
0010
0000
0000
0100
0000
0000
0001
0000
0000
,  // measure 30
0010
0000
1000
0000
0010
0000
0100
0000
0000
0000
0010
0001
1000
0000
0001
0000
,  // measure 31
1010
0000
0000
0000
0000
0000
1000
0100
0010
0000
0011
0000
0000
0000
0010
0100
,  // measure 32
1100
0110
0011
1001
0000
0010
1001
0000
,  // measure 33
1001
0000
0001
0100
0101
0000
0100
0010
0110
0000
0010
1000
0000
0100
0001
0000
,  // measure 34
1001
0000
1000
0100
1100
0000
0100
0010
0110
0000
0010
0001
0000
1000
0100
0000
,  // measure 35
1001
0000
0001
0010
0011
0000
1000
0100
1100
0000
1000
0010
0000
0100
0001
0000
,  // measure 36
1001
0000
1000
0010
1010
0000
0001
0100
0101
0000
0001
0010
0000
0100
1000
0000
,  // measure 37
0001
1000
0001
0000
0110
0000
1000
0001
0020
0230
0320
0230
0320
0000
0000
0000
,  // measure 38
0031
0100
0101
0000
0001
0100
0101
0000
0000
0000
0000
0000
0000
0000
0000
0000
,  // measure 39
0110
0000
0100
0001
0000
0010
1000
0010
0001
0000
1000
0100
0010
0100
1000
0001
,  // measure 40
0100
0000
0010
0000
0100
0000
0010
0000
0100
0000
0010
0000
1000
0100
0010
0001
,  // measure 41
1001
0002
0023
0230
,  // measure 42
0320
0032
2003
0002
,  // measure 43
3003
2000
3200
0302
,  // measure 44
0203
0000
2300
0000
3020
0000
0200
0030
,  // measure 45
0310
0000
1000
0000
0100
0001
0000
0100
0000
1000
0001
0000
0010
0100
1000
0001
,  // measure 46
0100
0000
0010
0000
1000
0010
0000
0001
0000
0010
0100
0000
0010
1000
0001
1000
,  // measure 47
0001
0010
0001
0010
0001
0010
0001
0010
0100
1000
0100
1000
0100
1000
0100
1000
,  // measure 48
0001
0010
0100
1000
0001
0010
0100
1000
0001
0100
0010
1000
0001
0100
0010
1000
,  // measure 49
1001
0000
0100
0010
0100
0010
2000
0000
0000
0000
0000
0000
3001
0000
0000
0000
,  // measure 50
1010
0000
0100
1000
0010
0100
0000
0010
0000
1000
0100
0000
1000
0010
0100
0001
,  // measure 51
0010
0000
0001
0100
0001
0010
0100
1000
0000
0001
0000
0100
0000
0001
1000
0010
,  // measure 52
0100
0000
0010
1000
0100
1000
0000
0010
0000
0100
0010
0000
1000
0000
0001
0000
,  // measure 53
1000
0100
0001
0100
0000
0010
0000
0001
0100
1000
0100
0010
0000
1000
0001
0000
,  // measure 54
1001
0000
1000
0100
0010
0000
0100
1000
0000
0100
0001
0100
0010
0001
1000
0010
,  // measure 55
1000
0000
0001
0100
0010
1000
0001
1000
0010
1000
0010
0001
0010
0000
0100
0010
,  // measure 56
1000
0000
0001
0100
0000
0100
1000
0000
0001
0010
1000
0000
0001
0000
0100
0000
,  // measure 57
0010
0000
0000
0000
0001
0000
0000
0000
0100
0000
0000
0000
1000
0000
0000
0000
0001
0000
0000
0000
0010
0000
0000
0000
1000
0000
0000
0000
0000
0000
0010
0000
0000
0100
0000
0000
0001
0000
0000
1000
0000
0000
0001
0000
1000
0000
0001
0000
,  // measure 58
2000
0000
0000
0000
,  // measure 59
3001
0100
0010
0000
0000
0110
0000
1001
0000
0000
0000
0000
0000
0001
0100
0001
,  // measure 60
1000
0000
0100
1000
0010
0000
0100
0000
0011
0000
0100
0001
1000
0000
0001
0000
,  // measure 61
1000
0000
0000
0010
0000
0000
0001
0000
0000
0010
0000
0000
0000
0000
0000
0100
0000
0000
0000
0000
0000
0001
0000
0000
0010
0000
0000
0000
1000
0000
0000
0000
0100
0000
0000
0000
0001
0000
0000
0000
1000
0000
0000
0000
0100
0000
0000
0000
,  // measure 62
0001
0100
0001
0100
1000
0000
0001
0100
0010
0000
1000
0010
0100
0000
0010
0000
,  // measure 63
1001
0000
0001
0010
1000
0010
0001
0100
0010
1000
0000
0101
0000
1000
0100
1000
,  // measure 64
0001
0000
1000
0100
0000
0100
0001
0000
1000
0010
0100
0000
0001
0000
0010
0000
,  // measure 65
0220
0000
0000
0330
,  // measure 66
1100
0000
0110
0000
0011
0000
1001
0000
0001
1000
0100
0000
0010
0001
0010
0100
,  // measure 67
2000
0000
0000
0000
0000
0000
3001
0010
0001
0010
0100
1000
0001
0010
0100
1000
0100
0010
0002
0000
0000
0000
0000
0000
,  // measure 68
1003
0000
0000
0000
0000
0000
0010
0000
0000
1000
0000
0000
0100
0000
0000
0000
0000
0000
1000
0000
0010
0000
1000
0000
0010
0000
0000
0000
0000
0000
1000
0000
0000
0001
0000
0000
0100
0000
0000
0000
0000
0000
0001
0000
0000
0000
0000
0000
,  // measure 69
1000
0000
0100
0001
0000
0100
1000
0100
0010
0000
0001
0100
0000
1000
0100
0010
,  // measure 70
1000
0000
0001
0010
1000
0000
0001
0000
1000
0000
0001
0100
1000
0000
0001
0000
,  // measure 71
1001
0000
0001
0100
0010
1000
0010
0100
0110
0000
1010
0000
0010
1000
0100
1000
,  // measure 72
1001
0000
1000
0100
0010
0000
0001
0100
1000
0000
0100
0001
0010
0000
0011
0000
,  // measure 73
1001
0000
0001
0100
0010
0000
1000
0100
0010
1000
0010
0100
0010
0001
1000
0001
,  // measure 74
1000
0100
0010
0001
0100
1000
0100
0001
0100
0010
1000
0010
0001
0010
0100
0001
,  // measure 75
1000
0100
1000
0100
0010
0001
0010
0001
1000
0100
0010
0001
1000
0100
0010
0001
,  // measure 76
2001
0010
0001
0100
,  // measure 77
3002
0010
1000
0100
,  // measure 78
0023
0100
1000
0001
,  // measure 79
0230
0001
0010
2000
,  // measure 80
3300
0000
0000
0000
;
