#TITLE:Ah Hah Yeah;
#SUBTITLE:;
#ARTIST:Masayoshi Iimori;
#TITLETRANSLIT:;
#SUBTITLETRANSLIT:;
#ARTISTTRANSLIT:;
#GENRE:UPTEMPO RAW;
#CREDIT:;
#BANNER:banner.png;
#BACKGROUND:background.png;
#LYRICSPATH:;
#CDTITLE:CDTITLE.png;
#MUSIC:Ah Hah Yeah.ogg;
#OFFSET:-0.001000;
#SAMPLESTART:33.391304;
#SAMPLELENGTH:16.695652;
#SELECTABLE:YES;
#BPMS:0.000000=115.000000
,64.000000=230.000000
,128.000000=115.000000
,192.000000=230.000000
,264.000000=115.000000
;
#STOPS:
;
#BGCHANGES:0.000=ahy test.avi=1.000=1=0=1===CrossFade==,
99999=-nosongbg-=1.000=0=0=0 // don't automatically add -songbackground-
;
#KEYSOUNDS:;
#ATTACKS:;

//---------------dance-single - ----------------
#NOTES:
     dance-single:
     :
     Hard:
     13:
     0.533130,0.822909,0.406258,0.056687,0.146442,395.000000,352.000000,43.000000,6.000000,0.000000,0.000000,0.533130,0.822909,0.406258,0.056687,0.146442,395.000000,352.000000,43.000000,6.000000,0.000000,0.000000:
// measure 0
0000
0000
0000
0000
,  // measure 1
0000
0000
0000
0000
,  // measure 2
0000
0000
0000
0000
,  // measure 3
0000
0000
0000
0000
,  // measure 4
1000
0000
0001
0001
0000
0001
1001
0000
,  // measure 5
0110
0000
0100
0100
0000
0100
0010
1000
,  // measure 6
0100
0000
0010
0010
0000
0010
0110
0000
,  // measure 7
1001
0000
1000
1000
0000
0001
0010
0100
,  // measure 8
1100
1100
0101
0101
,  // measure 9
0011
0011
1010
1010
,  // measure 10
1001
1001
0110
0110
,  // measure 11
1010
1100
0001
0010
,  // measure 12
0100
1000
0010
0100
0001
0010
0100
1000
,  // measure 13
0001
1000
0100
1000
0001
0010
0100
1000
,  // measure 14
0010
1000
0010
0000
0100
0001
0100
0000
0001
0010
0001
0000
1000
0100
1000
0000
,  // measure 15
0001
0100
0010
1000
0001
0100
0010
1000
0001
0010
0100
0020
0000
0000
0030
0000
,  // measure 16
0100
0010
0001
1000
,  // measure 17
0010
0000
0100
0001
0010
0100
1000
0001
,  // measure 18
1000
0010
1000
0001
,  // measure 19
0010
0000
0100
0010
0100
1000
0001
0100
,  // measure 20
0010
1000
0001
0010
,  // measure 21
0100
0000
0010
0001
1000
0010
0100
0001
,  // measure 22
0010
0100
0010
0001
,  // measure 23
1000
0000
0000
0000
,  // measure 24
1001
1001
1001
1001
,  // measure 25
1001
0000
1001
0000
0001
1000
0001
1000
,  // measure 26
1001
1001
1001
1001
,  // measure 27
1001
0000
0000
0000
,  // measure 28
0110
0110
0110
0110
,  // measure 29
0000
0000
1000
0100
0000
0100
0010
0001
,  // measure 30
1000
0001
1000
0100
,  // measure 31
0010
0001
0000
0220
0000
0000
0330
0000
,  // measure 32
1000
0001
0100
0000
0000
0010
1001
0000
,  // measure 33
1000
0001
0100
0000
0000
0100
1001
0000
,  // measure 34
0001
0010
0100
0000
0000
0010
1001
0000
,  // measure 35
0001
1000
0100
0000
0000
0100
1001
0000
,  // measure 36
0001
0100
1000
0100
0010
1000
0001
0000
,  // measure 37
1000
0100
0001
0100
0010
0001
1000
0000
,  // measure 38
0001
0100
0001
1000
0010
1000
0100
1000
,  // measure 39
0010
0010
0100
0100
,  // measure 40
1001
0000
0000
0001
0000
0000
0001
0000
1000
0000
0000
1000
0000
0000
1000
0000
,  // measure 41
0010
0000
0000
0010
0000
0000
0010
0000
0100
0000
0000
0100
0000
0000
0100
0000
,  // measure 42
0010
0000
0000
1000
0000
0000
0010
0000
0100
0000
0000
0001
0000
0000
0100
0000
,  // measure 43
0001
0000
0000
0010
0000
0000
0001
0000
2000
0000
0000
0000
0000
0000
0000
0000
,  // measure 44
3010
1000
0001
0010
0001
0010
0100
1000
,  // measure 45
0001
0100
0001
1000
0001
0010
0100
1000
,  // measure 46
0001
0100
0001
0000
1000
0010
1000
0000
0001
1000
0001
0000
1000
0100
1000
0000
,  // measure 47
0001
0010
0100
1000
0001
0010
0100
1000
0001
0100
0001
2000
0000
0000
3000
0000
,  // measure 48
0101
0010
0010
0010
,  // measure 49
0010
0010
0010
0010
,  // measure 50
0010
0100
0010
0100
0010
0100
0010
0100
,  // measure 51
0020
0000
0030
0000
,  // measure 52
1001
0000
1000
0100
0010
0100
1000
0001
,  // measure 53
0000
0000
0010
0001
1000
0010
0100
0010
,  // measure 54
0000
0000
1000
0001
0100
0001
0010
0100
,  // measure 55
1000
0000
0001
0000
0100
0010
0100
0000
,  // measure 56
0001
0000
1000
0001
0010
0001
1000
0100
,  // measure 57
0000
0000
0010
0100
1000
0001
0100
0001
,  // measure 58
0000
0000
0010
0001
1000
0100
1000
0010
,  // measure 59
0100
0000
0000
0000
,  // measure 60
1001
1000
1000
1000
,  // measure 61
1000
0000
0010
0000
0010
0000
0010
0100
,  // measure 62
0010
0000
0100
0000
0100
0000
0100
0010
,  // measure 63
1000
0000
0000
0000
,  // measure 64
0001
0000
0010
0001
0000
1000
0100
0000
,  // measure 65
0010
0001
0100
0010
1000
0000
0001
0000
,  // measure 66
1000
0000
0000
0100
0000
0010
0000
0100
1000
0000
0010
0000
0100
0001
1000
0000
,  // measure 67
1001
0000
0000
0000
;

//---------------dance-single - ----------------
#NOTES:
     dance-single:
     :
     Medium:
     9:
     0.342823,0.506406,0.028344,0.028344,0.009448,254.000000,251.000000,3.000000,3.000000,0.000000,0.000000,0.342823,0.506406,0.028344,0.028344,0.009448,254.000000,251.000000,3.000000,3.000000,0.000000,0.000000:
0000
0000
0000
0000
,
0000
0000
0000
0000
,
0000
0000
0000
0000
,
0000
0000
0000
0000
,
1000
0000
0100
0010
0000
0100
0010
0000
,
0001
0000
0100
0010
0000
0100
0010
0000
,
1000
0000
0001
0010
0000
0001
1000
0000
,
0100
0000
1000
0010
0000
0100
0010
0000
,
1000
1000
0001
0001
,
0100
0100
0010
0010
,
1000
1000
0100
0100
,
0010
0010
0001
0001
,
1000
0001
1000
0000
0001
0100
0001
0000
,
0100
0010
0100
0000
0010
1000
0010
0000
,
1000
0100
0010
0001
1000
0100
0010
0001
,
1000
0000
0001
0000
0100
0000
0010
0000
1000
0000
0000
0002
0000
0000
1003
0000
,
0010
1000
0010
1000
,
0001
0010
0100
1000
,
0001
1000
0010
1000
,
0001
0010
0100
1000
,
0001
1000
0100
1000
,
0001
0010
0100
1000
,
0001
1000
0010
1000
,
0001
0000
0000
0000
,
1000
0100
1000
0100
,
0001
0100
0001
0100
,
1000
0010
0001
0010
,
1000
0000
0000
0000
,
0001
0001
0001
0001
,
0000
0000
0000
1000
0000
0001
0100
0000
,
0010
0000
1001
0000
,
0000
0000
0000
0000
,
0001
1000
0010
0000
0100
0000
0001
0000
,
0010
0100
1000
0000
0100
0000
1000
0000
,
0010
1000
0001
0000
0010
0000
0001
0000
,
0100
1000
0010
0000
0100
0000
0010
0000
,
1000
0010
1000
0000
0010
0000
0100
0000
,
0001
0010
0001
0000
0010
0000
0001
0000
,
1000
0010
1000
0000
0010
0000
0100
0000
,
1001
0000
0000
0000
,
1000
1000
0100
0100
,
0010
0010
0001
0001
,
1000
0100
1000
0010
,
0100
0001
0020
0000
,
0130
0010
0001
0000
0010
0100
1000
0000
,
0100
1000
0010
0000
0100
0010
1000
0000
,
0001
0010
0100
1000
0001
0010
0100
1000
,
0100
0000
0010
0000
0001
0000
1000
0000
0010
0000
0000
2000
0000
0000
3001
0000
,
1000
1000
1000
1000
,
1000
1000
1000
1000
,
0001
1000
0001
1000
,
0001
0000
0000
0000
,
0000
1000
0100
0001
,
0000
0100
0010
0001
,
0000
0001
0010
1000
,
0010
0000
0000
0000
,
0000
0100
1000
0010
,
0000
0100
1000
0100
,
0000
0100
0001
0010
,
0100
0000
0000
0000
,
0010
0001
0100
0010
,
1000
0001
0010
0001
,
1000
0100
1000
0010
,
0100
0000
0000
0000
,
0010
1000
0001
0010
,
0100
0010
0001
1000
,
0010
0100
0001
1000
,
0110
0000
0000
0000
;

//---------------dance-single - ----------------
#NOTES:
     dance-single:
     :
     Easy:
     6:
     0.214602,0.284853,0.018896,0.018896,0.000000,159.000000,157.000000,2.000000,2.000000,0.000000,0.000000,0.214602,0.284853,0.018896,0.018896,0.000000,159.000000,157.000000,2.000000,2.000000,0.000000,0.000000:
0000
0000
0000
0000
,
0000
0000
0000
0000
,
0000
0000
0000
0000
,
0000
0000
0000
0000
,
1000
0000
1000
0000
,
0001
0000
0001
0000
,
0100
0000
0100
0000
,
0010
0000
0010
0000
,
1000
0001
1000
0001
,
0100
0010
0100
0010
,
1000
0100
1000
0100
,
0010
0001
0010
0001
,
1000
0001
0100
0010
,
1000
0001
0100
0010
,
1000
1000
0001
0001
,
0100
0000
0010
0000
2000
0000
0000
3000
,
0001
0000
1000
0000
,
0010
0000
1000
0000
,
0100
0000
1000
0000
,
0010
0000
0100
0000
,
0001
0000
0010
0000
,
0001
0000
1000
0000
,
0001
0000
0100
0000
,
0010
0000
0000
0000
,
0100
0000
0010
0000
,
1000
0000
0001
0000
,
0010
0000
0001
0000
,
1000
0000
0000
0000
,
0001
0000
1000
0000
,
0001
0000
0000
0000
,
0100
0000
0010
0000
,
1001
0000
0000
0000
,
0010
1000
0000
0001
,
0010
0100
0000
0010
,
0001
1000
0000
0100
,
1000
0010
0000
0100
,
0001
1000
0000
0001
,
0000
0010
0001
1000
,
0100
0000
1000
0000
,
0010
1000
0001
0000
,
1000
1000
0001
0001
,
1000
1000
0001
0001
,
0010
0010
0100
0100
,
0010
0010
0100
0000
,
0010
0001
1000
0010
,
1000
0001
0010
0001
,
1000
0100
0010
0001
,
1000
0100
0020
0000
,
0130
0000
0000
0000
,
0000
0000
0000
0000
,
1000
0000
1000
0000
,
1000
0000
0000
0000
,
0000
0001
1000
0001
,
0000
1000
0001
1000
,
0000
0001
1000
0001
,
0000
0000
0000
0000
,
0000
0100
0010
0100
,
0000
0010
0100
0010
,
0000
0100
0010
0100
,
0010
0000
0000
0000
,
1000
0000
0001
0000
,
0010
0000
0001
1000
,
0100
0000
1000
0000
,
0010
0000
0000
0000
,
0100
0000
0010
0000
,
1000
0000
0001
0000
,
1000
0000
0000
0000
,
0110
0000
0000
0000
;

//---------------dance-single - ----------------
#NOTES:
     dance-single:
     :
     Beginner:
     4:
     0.124172,0.221552,0.028344,0.000000,0.000000,92.000000,89.000000,3.000000,0.000000,0.000000,0.000000,0.124172,0.221552,0.028344,0.000000,0.000000,92.000000,89.000000,3.000000,0.000000,0.000000,0.000000:
0000
0000
0000
0000
,
0000
0000
0000
0000
,
0000
0000
0000
0000
,
0000
0000
0000
0000
,
0010
0000
0000
0000
,
1000
0000
0000
0000
,
0001
0000
0000
0000
,
0010
0000
0000
0000
,
0100
0000
0100
0000
,
0010
0000
0010
0000
,
0001
0000
0001
0000
,
1000
0000
1000
0000
,
0010
0000
1000
0000
,
0001
0000
0100
0000
,
0010
0000
1000
0000
,
0001
1000
0110
0000
,
0010
0000
0000
0000
,
1000
0000
0001
0000
,
1000
0000
0000
0000
,
0100
0000
0010
0000
,
0100
0000
0000
0000
,
0010
0000
0001
0000
,
0010
0000
0000
0000
,
0001
0000
0000
0000
,
1000
0000
1000
0000
,
1000
0000
1000
0000
,
0001
0000
0001
0000
,
0001
0000
0000
0000
,
0100
0000
0100
0000
,
0000
0010
0000
0000
,
0100
0000
0010
0000
,
0000
0000
0000
0000
,
1000
0000
0000
0000
,
0100
0000
0000
0000
,
1000
0000
0000
0000
,
0010
0000
0000
0000
,
0100
0000
0000
0000
,
0001
0000
0000
0000
,
0010
0000
0000
0000
,
0100
0000
0100
0000
,
0010
0000
0001
0000
,
0010
0000
0100
0000
,
1000
0000
0010
0000
,
0100
0000
0001
0000
,
1000
0000
1000
0000
,
0001
0000
0001
0000
,
0100
0000
0010
0000
,
1000
0001
0110
0000
,
0010
0000
0000
0000
,
0000
0000
0000
0000
,
0010
0000
0000
0000
,
0000
0000
0000
0000
,
0000
1000
0000
0000
,
0000
0001
0000
0000
,
0000
1000
0000
0000
,
0000
0000
0000
0000
,
0000
0100
0000
0000
,
0000
0010
0000
0000
,
0000
0100
0000
0000
,
0000
0000
0000
0000
,
0010
0000
0000
0000
,
0001
0000
1000
0000
,
0010
0000
0000
0000
,
1000
0000
0000
0000
,
0001
0000
1000
0000
,
0010
0000
1000
0000
,
0100
0000
0000
0000
,
0110
0000
0000
0000
;

//---------------dance-single - ----------------
#NOTES:
     dance-single:
     :
     Challenge:
     15:
     0.691044,0.953053,0.850308,0.198405,0.481841,512.000000,422.000000,90.000000,21.000000,0.000000,0.000000,0.691044,0.953053,0.850308,0.198405,0.481841,512.000000,422.000000,90.000000,21.000000,0.000000,0.000000:
0000
0000
0000
0000
,
0000
0000
0000
0000
,
0000
0000
0000
0000
,
0000
0000
0000
0000
,
1000
0000
0001
0100
0001
0000
0010
0000
0001
1000
0001
0000
0110
0000
0000
0000
,
0001
0000
0000
0000
0000
0000
1000
0000
0000
0010
0000
0000
1000
0000
0000
0000
0000
0000
0100
0000
0000
0000
0000
0000
1000
0000
0001
0000
1000
0000
0001
0000
0000
0000
0000
0000
0100
0000
0000
0010
0000
0000
1000
0000
0000
0010
0000
0000
,
0100
0000
0001
0100
0001
0000
1000
0000
0100
0010
0100
0000
1001
0000
0000
0000
,
0010
0000
0000
0000
0000
0000
1000
0000
0000
0010
0000
0000
1000
0000
0000
0000
0000
0000
0001
0000
0000
0000
0000
0000
0010
0000
0100
0000
0010
0000
0100
0000
0000
0000
0000
0000
1001
0000
0000
0000
0000
0000
0010
0000
0000
0000
0000
0000
,
1001
1001
0110
0110
,
1001
0110
1001
0110
,
0101
0101
1010
1010
,
1100
1100
0110
1000
,
0001
0001
0010
0010
0001
0001
1000
1000
,
0010
0010
0100
0100
0010
0010
1000
1000
,
0001
0100
0001
0100
0010
1000
0010
1000
0100
1000
0100
1000
0001
0010
0001
0010
,
0100
0010
0001
0100
0010
1000
0001
0010
0100
0010
0001
2000
0000
0000
3000
0000
,
0110
0101
0110
0101
,
0110
0000
0100
0010
1000
0100
0010
0001
,
1001
1010
1001
1010
,
1001
0001
1000
0001
0010
0100
0010
0001
,
0011
0110
0011
0110
,
0011
0000
0010
0100
1000
0010
0100
0001
,
1001
1010
1001
1010
,
1100
0000
0000
0000
,
1001
1001
1001
1001
,
1001
0000
1001
0000
0001
1000
0001
1000
,
1001
1001
1001
1001
,
1001
0000
0000
0000
0000
0000
0000
0000
1000
0010
1000
0010
1000
0000
0000
0000
,
0101
1010
0101
1010
,
0000
0000
1000
1100
0000
0110
0100
0100
,
0110
0010
1100
0010
,
0001
0100
0000
0020
0000
0000
0030
0000
,
1000
0100
0001
0000
0001
0100
1000
0000
,
1000
0010
0001
0000
0001
0010
1000
0000
,
0001
0001
1000
0000
0100
0100
0010
0000
,
0100
0100
1000
0000
0010
0010
0200
0300
,
0001
1000
0001
0010
0100
0000
0000
0000
0000
0000
0010
0100
1000
0000
0001
0000
,
1000
0000
0000
1000
0000
0000
0000
0000
0000
0001
0100
0001
1000
0000
0000
0000
,
0001
0000
0000
0001
0000
0000
0001
0000
1000
0000
0001
1000
0000
0000
0000
0000
,
0110
0000
0000
1000
0000
0000
0001
0000
1001
0000
0000
0010
0000
0000
0100
0000
,
1100
0000
0000
0100
0000
0000
0100
0000
0110
0000
0000
0010
0000
0000
0010
0000
,
0011
0000
0000
0001
0000
0000
0001
0000
0101
0000
0000
0100
0000
0000
0100
0000
,
0110
0000
0000
0010
0000
0000
0010
0000
1010
0000
0000
1000
0000
0000
1000
0000
,
1001
0000
0000
0001
0000
0000
0001
0000
2000
0000
0000
0000
3002
0000
0000
0000
,
1003
1000
0100
0100
0010
0010
0001
0001
,
1000
1000
0100
0100
0010
0010
0001
0001
,
1000
0010
1000
0010
0100
0010
0100
0001
0100
0001
0010
0001
0010
0100
1000
0100
,
1000
0001
1000
0010
0100
0001
1000
0001
1000
0100
0010
0002
0000
0000
0003
0000
,
1000
0000
0200
0300
0200
0300
0200
0300
,
0200
0300
0200
0300
0200
0300
0200
0300
,
0200
0310
0200
0310
0200
0310
0200
0310
,
0002
0003
0000
0000
,
0011
0000
0000
1000
0010
0100
0010
1000
0010
0100
0010
1000
,
0000
0000
0000
0001
0010
0100
0010
0001
0010
0100
0010
0001
,
0000
0000
0000
1000
0001
0100
0001
1000
0100
1000
0001
0100
,
0001
0000
1000
0000
0010
0100
0010
0000
,
1000
0000
0000
0001
0100
0010
0100
0001
0100
0010
0100
0001
,
0000
0000
0000
0001
1000
0010
1000
0001
0010
0001
1000
0010
,
0000
0000
0000
0100
0001
0010
0100
1000
0100
0010
0001
1000
,
0100
0100
0100
0100
,
0110
0110
1001
1001
,
0110
0000
1001
0000
0110
0000
1001
1001
,
0110
0000
0000
0000
1001
0000
0000
0000
0110
0000
0000
0000
0001
1000
0001
1000
,
0001
0000
2000
0000
3100
0001
0100
1000
,
1001
0000
1000
1001
0000
0001
1001
0000
,
0110
0110
0110
0110
0110
0000
0110
0000
,
1001
0000
0000
1000
0000
0100
1000
0000
0010
0100
0001
0010
0100
1000
0001
0000
,
0220
0330
0000
0000
;
