#TITLE:ADAM;
#SUBTITLE:;
#ARTIST:P*Light;
#TITLETRANSLIT:;
#SUBTITLETRANSLIT:;
#ARTISTTRANSLIT:;
#GENRE:HYPER J-CORE;
#CREDIT:;
#BANNER:banner.png;
#BACKGROUND:Background.png;
#LYRICSPATH:;
#CDTITLE:CDTITLE.png;
#MUSIC:ADAM.ogg;
#OFFSET:-0.016000;
#SAMPLESTART:96.016006;
#SAMPLELENGTH:14.399994;
#SELECTABLE:YES;
#BPMS:0.000000=200.000000
;
#STOPS:92.000000=0.900000,
313.000000=0.900000
;
#BGCHANGES:;
#KEYSOUNDS:;
#ATTACKS:;

//---------------dance-single - ----------------
#NOTES:
     dance-single:
     :
     Hard:
     15:
     0.678114,0.905014,0.424713,0.749494,0.066622,570.000000,519.000000,51.000000,90.000000,0.000000,0.000000,0.678114,0.905014,0.424713,0.749494,0.066622,570.000000,519.000000,51.000000,90.000000,0.000000,0.000000:
0000
0000
0000
0000
,
0000
0000
0000
0000
,
0000
0000
0000
0000
,
0000
0000
0000
0000
,
1000
0000
0001
0100
0001
0000
1000
0000
0000
0000
0100
0000
0010
0000
0100
0000
,
1000
0000
0001
0010
0001
0000
0010
0000
0001
0000
1000
0000
0001
0000
0000
0000
,
1000
0000
0010
0100
0010
0000
1000
0000
0000
0000
0100
0000
0010
0000
0100
0000
,
1000
0000
0001
0100
0001
0000
0020
0000
0200
0000
0030
0000
0300
0000
0000
0000
,
1001
0001
0010
0002
0000
1003
0100
0001
,
0100
0010
0001
0100
0010
1000
0100
0000
,
1100
0100
0010
0200
0000
0310
0001
1000
,
0100
0001
0100
2000
0000
3000
0000
0000
,
1010
1000
0001
2000
0000
3001
0010
0001
,
1000
0100
0001
0100
0010
0100
1000
0000
,
1001
0001
1000
0020
0000
0130
0001
0010
,
0100
1000
0100
0002
0000
0000
0003
0000
,
1100
1000
0010
0110
0000
0100
0010
1000
,
1001
0001
0010
0110
0000
0000
0000
0000
,
1100
0100
0010
0110
0000
0100
1000
0001
,
0101
0001
0100
0110
0000
0000
0000
0000
,
1001
0000
0001
0000
1000
0000
0001
0000
0010
0000
0100
0000
0010
0001
0010
0001
,
0010
0000
0001
0000
0100
0000
0010
0000
1000
0000
0100
0000
0010
0100
0010
0100
,
0010
0000
0001
0000
0100
0010
0100
0010
0100
0000
0010
0000
1000
0001
1000
0001
,
1000
0000
0001
0100
0001
0100
0001
0100
,
0001
0000
1000
0100
1000
0100
1000
0100
,
0010
0000
0100
0010
0100
0010
0100
0010
,
0100
0000
0011
0000
1010
0000
1000
0001
,
1001
0000
0100
0010
0100
0010
0100
0010
,
0100
0000
0001
0010
0001
0010
0001
0010
,
0100
0000
1000
0100
0001
0100
0000
0010
,
0001
0100
1000
0100
0010
1000
0000
0000
,
0101
0000
1000
0001
0011
0000
0100
0000
,
1001
0000
1000
0010
0110
0000
0100
0000
,
1001
0000
1000
0001
0011
0000
0100
0000
,
1100
0000
0110
0000
0011
0000
0100
0010
,
1001
0000
1000
0001
0101
0000
0010
0000
,
1010
0000
1000
0010
0110
0000
0010
0000
,
0101
0000
1001
0001
0010
0110
0000
0100
,
0010
0001
1001
1000
0100
0110
0000
0000
,
0000
0200
2300
3020
,
0230
0000
0301
0100
0001
1000
0100
0010
,
0100
1000
0002
0000
0023
0000
0230
0000
,
0320
0000
0031
0010
0001
0100
0001
1000
,
0010
0100
0002
0000
2003
0000
3020
0000
,
2030
0000
3001
1000
0100
1000
0100
0010
,
0001
0010
0200
0000
0320
0000
0032
0000
,
0203
0000
0310
0100
0010
0100
0010
0100
,
1001
0002
0203
0320
,
0230
0000
0301
0010
0100
0010
0001
1000
,
0100
0010
0200
0000
2300
0000
3020
0000
,
2030
0000
3001
1000
0100
1000
0001
0010
,
0100
1000
0200
0000
0320
0000
0230
0000
,
2300
0000
3001
1000
0100
1000
0001
0100
,
0010
0100
0101
0000
0000
1010
0000
0000
,
2002
0000
0000
0000
0000
0000
0000
3003
,
0000
0000
0100
0000
0001
0020
0000
0000
,
0000
0000
0000
0000
0000
0000
0000
0030
,
0000
0000
0001
0100
2000
0020
0000
0000
,
3030
0000
0001
0100
0002
2000
0000
0000
,
3003
0000
0010
0000
1000
0200
0000
0000
,
0000
0000
0000
0000
0000
0000
0000
0300
,
0000
0000
1000
0010
0002
0200
0000
0000
,
0303
0000
1000
0010
0002
2000
0000
0003
,
3000
0000
0110
0100
0001
2000
0000
3100
,
1000
0010
0100
0010
0100
0010
1000
0001
,
1000
0000
1001
0001
1000
0020
0000
0130
,
0001
0010
0100
0010
0001
2000
0000
0000
,
3000
0000
1010
0010
0100
0002
0000
0013
,
0001
1000
0100
0001
0100
0010
0001
1000
,
0001
0000
1001
0001
0100
0020
0000
1030
,
0010
1000
0001
0010
0100
0020
0000
0000
,
0030
0000
0001
0100
0001
0000
0100
0010
,
0100
0000
0010
1000
0010
0000
1000
0100
,
1000
0000
0100
0010
0100
0000
0010
0001
,
0010
0000
0001
1000
0001
0000
1000
0010
,
1000
1020
0130
0102
,
0013
1200
0310
0012
,
1003
0000
0000
0000
0010
0000
0100
0000
0001
0000
1000
0000
0001
1000
0001
1000
,
0001
1000
0001
1000
0001
0000
0000
0000
0201
0000
0000
0000
0320
0000
0000
0000
,
2030
0000
3200
0000
0301
0100
1000
0010
,
0001
0010
0100
0001
0020
0000
0032
0000
,
0203
0000
0302
0000
1003
0100
0001
0100
,
0010
0100
1000
0010
0200
0000
0302
0000
,
0023
0000
0230
0000
0310
0001
1000
0100
,
0001
0100
0010
0001
2000
0000
3200
0000
,
0320
0000
0230
0000
0310
0001
0100
1000
,
0100
0010
1010
0000
0120
0000
0230
0000
,
0302
0000
0023
0000
0130
0001
0100
1000
,
0010
0100
0001
0010
0001
0100
2000
0200
,
0000
0000
3300
0000
1000
0100
0002
0020
,
0000
0033
1002
0203
,
0302
0000
0023
0000
0130
0010
0001
0010
,
1000
0010
0100
1000
0100
0001
0200
0020
,
0000
0000
0330
0000
0001
0100
2000
0020
,
0000
3030
1001
0000
;

//---------------dance-single - ----------------
#NOTES:
     dance-single:
     :
     Medium:
     12:
     0.493714,0.629575,0.374747,0.183210,0.000000,415.000000,370.000000,45.000000,22.000000,0.000000,0.000000,0.493714,0.629575,0.374747,0.183210,0.000000,415.000000,370.000000,45.000000,22.000000,0.000000,0.000000:
0000
0000
0000
0000
,
0000
0000
0000
0000
,
0000
0000
0000
0000
,
0000
0000
0000
0000
,
1000
0100
0010
0100
0000
0010
0001
0000
,
0100
0010
1000
0001
,
0010
0001
0100
0010
0000
0100
0010
0000
,
1000
0001
0020
0200
0000
0030
0300
0000
,
1001
0000
0000
0000
0000
0011
0000
0000
,
0000
0000
0100
0010
,
1001
0000
0000
0000
0000
1010
0000
0000
,
0000
0000
1000
0100
0020
0000
0130
0000
,
1001
0000
0000
0000
0000
1100
0000
0000
,
0000
0000
0100
0010
,
1001
0000
0000
0000
0000
0101
0000
0000
,
0000
0000
0100
0010
1000
0000
0001
0000
,
1000
0100
0001
0100
0000
0010
0001
1000
,
0100
0001
0100
1000
0000
0000
0000
0000
,
0001
0010
1000
0010
0000
0100
1000
0001
,
0010
1000
0010
0001
0000
0000
0000
0000
,
2010
3100
0021
0130
,
0102
1003
2100
3001
,
0100
0001
0010
0100
1000
0100
0010
0001
,
1000
0001
0010
1100
,
0100
1000
0010
0000
0100
0000
0001
0000
,
0010
0100
1000
0000
0001
0000
1001
0000
,
1000
0000
0011
0000
1100
0000
1000
0010
,
0100
0010
1000
1001
,
0001
0010
0100
0000
0010
0000
0001
0000
,
1000
0001
1000
0100
1000
0001
0000
0100
,
0001
0010
0100
1000
0001
2000
0000
0000
,
3000
0001
0011
0001
,
1001
1000
1100
1000
,
1001
0100
0110
0010
,
0110
0000
1010
0000
0101
0000
0001
0010
,
0100
0000
0010
0001
0100
0000
0010
1000
,
0001
0000
0010
0100
1000
0000
0100
1000
,
0010
0000
0100
0001
1000
0100
0000
0010
,
0100
1000
0001
0010
0001
1000
0000
0000
,
0000
0001
0100
0001
,
1000
0000
0001
0010
0001
0000
0010
0100
,
0010
0100
1000
0010
,
0100
0000
0001
0100
0001
0100
0010
1000
,
0010
1000
0010
0000
1000
0000
0001
0000
,
0010
0000
0100
1000
0010
0000
0100
0001
,
1000
0001
1000
0100
,
0010
0000
0100
1000
0010
0100
0010
0001
,
0010
1000
0010
0100
,
0001
0000
0010
0001
1000
0000
0100
0010
,
0001
0010
0001
0100
,
0010
0000
1000
0001
0010
0100
0010
0001
,
1000
0100
0010
0000
0100
0000
1000
0000
,
0010
0000
0100
0001
0010
0000
0001
1000
,
0010
0000
1010
0000
0000
0011
0000
0000
,
2002
0000
0000
3003
,
0000
0020
0000
0000
,
0000
0000
0000
0030
,
0000
0000
0100
0010
1000
0002
0000
0000
,
0003
0000
0010
0100
1000
0200
0000
0000
,
0300
2000
0000
0000
,
0000
0000
0000
0000
0000
3000
0000
0000
,
0000
0000
0100
1000
0010
0200
0000
0000
,
0300
0000
0010
1000
0001
0020
0000
0000
,
0030
0000
0110
0000
0000
0000
0000
0011
,
0000
0000
0000
0001
,
1000
0000
0110
0000
0000
0000
0000
1010
,
0000
0000
0000
0000
0100
0010
1000
0000
,
0001
0000
0011
0000
0000
0000
0000
0110
,
0000
0000
0000
0010
,
0001
0000
1100
0000
0000
0000
0000
1010
,
0000
0000
0000
0000
0100
0010
1000
0000
,
0001
1000
1000
0100
,
0100
0010
0010
0001
,
0001
1000
0100
0010
,
0001
1000
0100
0010
,
0001
1000
1001
0001
,
0101
0100
0110
0010
,
1010
1010
0101
1010
,
1100
0000
0001
1000
,
0010
0000
1000
0000
0001
0010
0100
0000
,
0010
0001
0100
0000
0010
0000
1000
0000
,
0100
0000
0010
0000
0100
0010
0001
0100
,
0010
1000
0001
0010
0001
0000
0100
0000
,
0001
0000
1000
0000
0100
1000
0010
0000
,
0100
0010
1000
0000
0001
0000
1000
0000
,
0010
0000
0100
0000
0001
0100
1000
0100
,
0001
0010
0100
0000
0010
0001
0100
0020
,
0000
0000
0000
0000
,
0030
0000
0000
0000
0100
1000
0100
0002
,
0000
0000
0003
0000
0010
0100
1000
0200
,
0000
0000
0300
0000
1000
0000
0100
0020
,
0000
0000
0000
0000
,
0030
0000
0000
0000
0100
1000
0010
0200
,
0000
0000
0300
0000
0010
0100
0001
2000
,
0000
3000
0110
0000
;

//---------------dance-single - ----------------
#NOTES:
     dance-single:
     :
     Easy:
     7:
     0.299798,0.432833,0.216521,0.099933,0.000000,252.000000,226.000000,26.000000,12.000000,0.000000,0.000000,0.299798,0.432833,0.216521,0.099933,0.000000,252.000000,226.000000,26.000000,12.000000,0.000000,0.000000:
0000
0000
0000
0000
,
0000
0000
0000
0000
,
0000
0000
0000
0000
,
0000
0000
0000
0000
,
1000
0000
0001
0000
,
0100
0001
0100
0001
,
0010
0000
0100
0000
,
1000
0100
0020
0000
,
0130
0000
0000
0000
0000
1001
0000
0000
,
0000
0000
0000
0000
,
1010
0000
0000
0000
0000
1100
0000
0000
,
0000
0000
0000
0000
,
0011
0000
0000
0000
0000
0101
0000
0000
,
0000
0000
0000
0000
,
0110
0000
0000
0000
0000
1010
0000
0000
,
0000
0000
0000
0000
,
1000
0000
0000
0001
0000
0000
0100
0000
,
0001
0000
0000
0010
0000
0000
0000
0000
,
0100
0000
0000
0010
0000
0000
0001
0000
,
1000
0000
0000
0100
0000
0000
0000
0000
,
1000
0000
0001
0000
,
0100
0000
0010
0000
,
1000
0010
0100
0001
,
0000
0001
1000
1001
,
0000
1000
0010
0100
,
0000
0001
0010
0011
,
0000
0000
0100
0000
0100
0000
1000
0100
,
1000
0100
1000
1010
,
0000
1000
0001
0100
,
0000
0001
0010
0100
,
0010
0001
1000
0010
,
0000
0100
0010
0000
,
1000
0000
0001
0000
,
0010
0000
0100
0000
,
0010
0001
1001
1000
,
1001
0001
1000
0000
,
0010
0000
0100
0000
,
0001
0000
0000
0010
0000
0000
0100
0000
,
0010
0000
0001
0000
0000
1000
0000
0000
,
0000
1000
0001
0100
,
0001
0010
0010
0100
,
0100
0010
0001
1000
,
0100
0010
0100
1000
,
0010
0100
0001
0010
,
0001
1000
1000
0010
,
0010
0100
1000
0010
,
1000
0000
0100
0000
0000
0010
0000
0000
,
0001
1001
0001
0100
,
1000
0100
0100
0010
,
0010
1000
0010
0001
,
0010
0100
0100
0100
,
0100
0001
0010
1000
,
0010
0100
0010
0001
,
0100
0000
1010
0000
0000
0101
0000
0000
,
2002
0000
0000
0000
,
3003
0020
0000
0000
,
0000
0000
0000
0030
,
0000
0200
0000
0300
,
0000
0020
0000
0030
,
0000
2002
0000
0000
,
0000
0000
0000
3003
,
0000
2000
0000
0000
,
3000
0002
0000
0000
,
0003
0000
1001
0000
0000
0000
0000
1010
,
0000
0000
0000
0000
,
0000
0000
1001
0000
0000
0000
0000
0011
,
0000
0000
0000
0000
,
0000
0000
0110
0000
0000
0000
0000
1100
,
0000
0000
0000
0000
,
0000
0000
1010
0000
0000
0000
0000
0011
,
0000
0000
0000
0000
,
0000
0001
0000
1000
,
0000
0010
0000
0100
,
0000
0001
0000
0010
,
0000
0001
0000
1000
,
0000
0001
0000
0100
,
0000
0010
0000
1000
,
0000
0001
0100
0010
,
1000
0000
0001
1000
,
0010
1000
0100
0001
,
0100
1000
0100
1000
,
0010
0100
0001
0010
,
1000
0010
0001
0100
,
0001
1000
0010
0001
,
0010
1000
0010
0100
,
0001
0000
0010
0000
1000
0000
0000
0010
,
0000
0000
0001
0000
1000
0000
0001
0200
,
0000
0000
0000
0000
,
0300
0000
0000
0000
0001
0100
0010
1000
,
0000
0000
0000
0000
1000
0010
0100
0001
,
0000
0000
0000
0000
1000
0000
0000
0200
,
0000
0000
0000
0000
,
0300
0000
0000
0000
1000
0100
0010
0001
,
0000
0000
0000
0000
0001
0010
0100
1000
,
0000
0000
0110
0000
;

//---------------dance-single - ----------------
#NOTES:
     dance-single:
     :
     Beginner:
     5:
     0.195106,0.314788,0.133243,0.074949,0.000000,164.000000,148.000000,16.000000,9.000000,0.000000,0.000000,0.195106,0.314788,0.133243,0.074949,0.000000,164.000000,148.000000,16.000000,9.000000,0.000000,0.000000:
// measure 0
0000
0000
0000
0000
,  // measure 1
0000
0000
0000
0000
,  // measure 2
0000
0000
0000
0000
,  // measure 3
0000
0000
0000
0000
,  // measure 4
1000
0000
0000
0000
,  // measure 5
0010
0000
0000
0000
,  // measure 6
1000
0000
0000
0000
,  // measure 7
0200
0000
0300
0000
,  // measure 8
0011
0000
0000
0000
0000
1001
0000
0000
,  // measure 9
0000
0000
0000
0000
,  // measure 10
1010
0000
0000
0000
0000
1001
0000
0000
,  // measure 11
0000
0000
0000
0000
,  // measure 12
0101
0000
0000
0000
0000
1001
0000
0000
,  // measure 13
0000
0000
0000
0000
,  // measure 14
1100
0000
0000
0000
0000
1001
0000
0000
,  // measure 15
0000
0000
0000
0000
,  // measure 16
0010
0000
0000
0000
,  // measure 17
1000
0000
0000
0000
,  // measure 18
0100
0000
0000
0000
,  // measure 19
1000
0000
0000
0000
,  // measure 20
0001
0000
0000
0000
,  // measure 21
1000
0000
0000
0000
,  // measure 22
0010
0000
0100
0000
,  // measure 23
0001
1000
1000
1000
,  // measure 24
0000
0001
0000
0000
,  // measure 25
0000
0100
0100
0100
,  // measure 26
0000
0010
0000
0100
,  // measure 27
0000
0010
0010
0010
,  // measure 28
0000
0100
0000
0000
,  // measure 29
0000
0001
0000
0000
,  // measure 30
1000
1000
0000
0000
,  // measure 31
0000
0001
1000
0000
,  // measure 32
1000
0000
1000
0000
,  // measure 33
1000
0000
0010
0000
,  // measure 34
0010
0100
0010
1000
,  // measure 35
0001
0000
0010
0000
,  // measure 36
0001
0000
1000
0000
,  // measure 37
0100
0000
1000
0000
0000
0001
0000
0000
,  // measure 38
0100
0000
0010
0000
0000
1000
0000
0000
,  // measure 39
0000
0001
0000
1000
,  // measure 40
0000
0010
0000
0100
,  // measure 41
0000
0001
0000
0010
,  // measure 42
0000
0100
0100
0100
,  // measure 43
0100
0010
0000
0001
,  // measure 44
0000
1000
0000
0010
,  // measure 45
0000
0100
0000
0010
,  // measure 46
0000
1001
0000
0110
,  // measure 47
0000
1000
0010
0100
,  // measure 48
0000
0010
0000
1000
,  // measure 49
0000
0001
0010
0100
,  // measure 50
0000
0010
0000
0001
,  // measure 51
0000
1000
0001
0100
,  // measure 52
0000
0001
0000
0010
,  // measure 53
0000
0000
0001
0000
0000
1000
0000
0000
,  // measure 54
0110
0000
0000
0000
,  // measure 55
0000
2000
0000
0000
,  // measure 56
0000
0000
0000
3000
,  // measure 57
0000
0001
0000
0000
,  // measure 58
0000
0001
0000
0000
,  // measure 59
0000
0020
0000
0000
,  // measure 60
0000
0000
0000
0030
,  // measure 61
0000
0100
0000
0000
,  // measure 62
0000
0100
0000
0000
,  // measure 63
0000
0000
0100
0000
0000
0000
0000
1001
,  // measure 64
0000
0000
0000
0000
,  // measure 65
0000
0000
0110
0000
0000
0000
0000
1000
,  // measure 66
0000
0000
0000
0000
,  // measure 67
0000
0000
1001
0000
0000
0000
0000
0010
,  // measure 68
0000
0000
0000
0000
,  // measure 69
0000
0000
0100
0000
0000
0000
0000
1001
,  // measure 70
0000
0000
0000
0000
,  // measure 71
0000
1000
0000
0000
,  // measure 72
0000
0001
0000
0000
,  // measure 73
0000
0100
0000
0000
,  // measure 74
0000
0010
0000
0000
,  // measure 75
0000
1000
0000
0010
,  // measure 76
0000
0100
0000
0001
,  // measure 77
0000
1000
0001
0010
,  // measure 78
0100
0000
2000
0000
,  // measure 79
0000
0000
0000
0000
,  // measure 80
0000
0000
3010
0000
,  // measure 81
0100
0000
0001
0001
,  // measure 82
1000
1000
0001
0000
,  // measure 83
1000
0000
0010
0000
,  // measure 84
1000
0000
0100
0000
,  // measure 85
1000
0000
0001
0001
,  // measure 86
1000
1000
0001
0100
,  // measure 87
0020
0000
0000
0000
,  // measure 88
0000
0030
0200
0000
,  // measure 89
0300
0000
0002
0000
,  // measure 90
0003
0000
1000
0001
,  // measure 91
0020
0000
0000
0000
,  // measure 92
0000
0000
0000
0000
0130
0000
0000
0010
,  // measure 93
0000
0002
0000
0000
,  // measure 94
0000
0003
1001
0000
;
