#VERSION:0.83;
#TITLE:6PM;
#SUBTITLE:;
#ARTIST:ReOrder;
#TITLETRANSLIT:;
#SUBTITLETRANSLIT:;
#ARTISTTRANSLIT:;
#GENRE:TRANCE;
#ORIGIN:;
#CREDIT:;
#BANNER:banner.png;
#BACKGROUND:background.png;
#PREVIEWVID:;
#JACKET:jacket.png;
#CDIMAGE:;
#DISCIMAGE:;
#LYRICSPATH:;
#CDTITLE:CDTITLE.png;
#MUSIC:6PM.ogg;
#OFFSET:-0.229000;
#SAMPLESTART:85.455391;
#SAMPLELENGTH:20.869568;
#SELECTABLE:YES;
#BPMS:0.000=138.000;
#STOPS:;
#DELAYS:;
#WARPS:;
#TIMESIGNATURES:0.000=4=4;
#TICKCOUNTS:0.000=4;
#COMBOS:0.000=1;
#SPEEDS:0.000=1.000=0.000=0;
#SCROLLS:0.000=1.000;
#FAKES:;
#LABELS:0.000=Song Start;
#BGCHANGES:;
#KEYSOUNDS:;
#ATTACKS:
;

//---------------dance-single - ----------------
#NOTEDATA:;
#CHARTNAME:;
#STEPSTYPE:dance-single;
#DESCRIPTION:;
#CHARTSTYLE:;
#DIFFICULTY:Hard;
#METER:11;
#RADARVALUES:0.373554,0.478384,0.138537,0.112561,0.216463,302.000000,286.000000,16.000000,13.000000,0.000000,0.000000,0.000000,0.000000,0.000000,0.373554,0.478384,0.138537,0.112561,0.216463,302.000000,286.000000,16.000000,13.000000,0.000000,0.000000,0.000000,0.000000,0.000000;
#CREDIT:Pandemonium X;
#NOTES:
// measure 0
0000
0000
0000
0000
,  // measure 1
0000
0000
0000
0000
,  // measure 2
0000
0000
0000
0000
,  // measure 3
0000
0000
0000
0000
,  // measure 4
0000
0000
0000
0000
,  // measure 5
0000
0000
0000
0000
,  // measure 6
0000
0000
0000
0000
,  // measure 7
0000
0000
0000
0000
,  // measure 8
0000
0000
0000
0000
,  // measure 9
0001
0000
0010
0000
0001
0000
0000
0010
0000
0000
0100
0000
1000
0000
0100
0000
,  // measure 10
0000
0000
1000
0000
0001
0000
0000
0010
0000
0000
0001
0000
0100
0000
0001
0000
,  // measure 11
0000
0000
1000
0000
0010
0000
0000
1000
0000
0000
0001
0000
1000
0000
0001
0000
,  // measure 12
0000
0000
0010
0000
0100
0000
0000
1000
0000
0000
0100
0000
0010
0000
0001
0000
,  // measure 13
1000
0000
0010
0000
1000
0000
0000
0001
0000
0000
0010
0000
0100
0000
0010
0000
,  // measure 14
0000
0000
0100
0000
1000
0000
0000
0001
0000
0000
1000
0000
0010
0000
1000
0000
,  // measure 15
0000
0000
0001
0000
0010
0000
0000
0100
0000
0000
0010
0000
0001
0000
0010
0000
,  // measure 16
0100
1000
0100
1000
0100
0000
0000
0010
0000
0000
0001
0000
0010
0000
0100
0000
,  // measure 17
2000
0000
0000
0000
,  // measure 18
0000
0000
0000
3000
,  // measure 19
0020
0000
0000
0000
,  // measure 20
0000
0000
0000
0030
,  // measure 21
0200
0000
0000
0000
,  // measure 22
0000
0000
0000
0300
,  // measure 23
0002
0000
0000
1000
0000
0000
1000
0000
,  // measure 24
0000
1000
0000
0000
0000
0000
0003
0000
,  // measure 25
0120
0000
0000
0000
0000
0000
1030
0002
,  // measure 26
0000
0000
0000
0023
,  // measure 27
0032
0000
0000
0000
0000
0000
0000
2003
,  // measure 28
0000
0000
0000
0000
,  // measure 29
3020
0000
0000
0000
0000
0000
0130
0002
,  // measure 30
0000
0000
0003
1000
,  // measure 31
0200
0000
0000
0000
0000
0310
0001
2000
,  // measure 32
0000
0000
0000
0000
,  // measure 33
3001
0000
0001
0000
1000
0000
0000
0001
0000
0000
0010
0000
0100
0000
1000
0000
,  // measure 34
0000
0000
0100
0000
0010
0000
0000
0010
0000
0000
0100
0000
1000
0000
0010
0000
,  // measure 35
0000
0000
0100
0000
0001
0000
0000
0001
0000
0000
0010
0000
0100
0000
1000
0000
,  // measure 36
0000
0000
0100
0000
1000
0000
0000
0010
0000
0000
0100
0000
0010
0000
1000
0000
,  // measure 37
0001
0000
0001
0000
1000
0000
0000
0100
0000
0000
0010
0000
0100
0000
0010
0000
,  // measure 38
0000
0000
0100
0000
1000
0000
0000
0010
0000
0000
1000
0000
0001
0000
0010
0000
,  // measure 39
0000
0000
0100
0000
0010
0000
0000
0001
0000
0000
1000
0000
0010
0000
1000
0000
,  // measure 40
0000
0000
0001
0000
0100
0000
0000
0100
0000
0000
0010
0000
1000
0000
0100
0000
,  // measure 41
0010
0000
0001
0000
0100
0000
0000
0010
0000
0000
1000
0000
0001
0000
0010
0000
,  // measure 42
0100
1000
0100
1000
0100
0000
0000
1000
0000
0000
0001
0000
0010
0000
0100
0000
,  // measure 43
1000
0000
0001
0000
0100
0000
0000
0001
0000
0000
0010
0000
0100
0000
1000
0000
,  // measure 44
0001
0100
0001
0100
0001
0000
0000
0100
0000
0000
0010
0000
1000
0000
0001
0000
,  // measure 45
1000
0000
0001
0000
0010
0000
0000
0100
0000
0000
0010
0000
0001
0000
0000
0000
,  // measure 46
0100
0010
0100
0010
0100
0000
0000
0010
0000
0000
1000
0000
0001
0000
0000
0000
,  // measure 47
1000
0100
1000
0100
1000
0000
0000
0100
0000
0000
0010
0000
0001
0000
0100
0000
,  // measure 48
0000
0000
0010
0000
1000
0000
0000
0100
0000
0000
0001
0000
0100
0000
0010
0000
,  // measure 49
0001
0000
1000
0000
0010
0000
0000
1010
0000
0000
0001
0000
0010
0000
0100
0000
,  // measure 50
0000
0000
0010
0000
0001
0000
0000
1100
0000
0000
0100
0000
1000
0000
0010
0000
,  // measure 51
0000
0000
0100
0000
0001
0000
0000
1001
0000
0000
1000
0000
0001
0000
0010
0000
,  // measure 52
0000
0000
0100
0000
0010
0000
0000
0011
0000
0000
0010
0000
1000
0000
0010
0000
,  // measure 53
0001
0000
0010
0000
0100
0000
0000
1100
0000
0000
0100
0000
1000
0000
0010
0000
,  // measure 54
0000
0000
0100
0000
0001
0000
0000
1010
0000
0000
1000
0000
0100
0000
0010
0000
,  // measure 55
0000
0000
0100
0000
1000
0000
0000
1010
0000
0000
0010
0000
0100
0000
0001
0000
,  // measure 56
0000
0000
1000
0000
0100
0000
0000
0101
0000
0000
0001
0000
0100
0000
0010
0000
,  // measure 57
0001
0000
1000
0000
0010
0000
0000
0101
0000
0000
0001
0000
0010
0000
0100
0000
,  // measure 58
0000
0000
0010
0000
0001
0000
0000
1100
0000
0000
0100
0000
1000
0000
0010
0000
,  // measure 59
0000
0000
1000
0000
0010
0000
0000
0101
0000
0000
0001
0000
0010
0000
0100
0000
,  // measure 60
0000
0000
0010
0000
0001
0000
0000
1010
0000
0000
0010
0000
1000
0000
0001
0000
,  // measure 61
0010
0000
0100
0000
1000
0000
0000
1100
0000
0000
0010
0000
0001
0000
0010
0000
,  // measure 62
0000
0000
0001
0000
0100
0000
0000
1010
0000
0000
0100
0000
0010
0000
1000
0000
,  // measure 63
0000
0000
0001
0000
0010
0000
0000
0110
0000
0000
0100
0000
0010
0000
0001
0000
,  // measure 64
0000
0000
1000
0000
0100
0000
0000
0001
0000
0000
0100
0000
1000
0000
0010
0000
,  // measure 65
0100
0000
0000
0000
;

//---------------dance-single - ----------------
#NOTEDATA:;
#CHARTNAME:;
#STEPSTYPE:dance-single;
#DESCRIPTION:;
#CHARTSTYLE:;
#DIFFICULTY:Easy;
#METER:4;
#RADARVALUES:0.149669,0.253262,0.077927,0.034634,0.000000,121.000000,112.000000,9.000000,4.000000,0.000000,0.000000,0.000000,0.000000,0.000000,0.149669,0.253262,0.077927,0.034634,0.000000,121.000000,112.000000,9.000000,4.000000,0.000000,0.000000,0.000000,0.000000,0.000000;
#CREDIT:Pandemonium X;
#NOTES:
// measure 0
0000
0000
0000
0000
,  // measure 1
0000
0000
0000
0000
,  // measure 2
0000
0000
0000
0000
,  // measure 3
0000
0000
0000
0000
,  // measure 4
0000
0000
0000
0000
,  // measure 5
0000
0000
0000
0000
,  // measure 6
0000
0000
0000
0000
,  // measure 7
0000
0000
0000
0000
,  // measure 8
0000
0000
0000
0000
,  // measure 9
0001
0000
1000
0000
,  // measure 10
0010
0000
1000
0000
,  // measure 11
0100
0000
1000
0000
,  // measure 12
0001
0000
0100
0000
,  // measure 13
0010
0000
0100
0000
,  // measure 14
0001
0000
1000
0000
,  // measure 15
0010
0000
0100
0000
,  // measure 16
1001
0000
0001
1000
,  // measure 17
0110
0000
0000
0000
,  // measure 18
0000
0000
0000
0000
,  // measure 19
0100
0000
0000
0000
,  // measure 20
0000
0000
0000
0000
,  // measure 21
0001
0000
0000
0000
,  // measure 22
0000
0000
0000
0000
,  // measure 23
1000
0000
0000
0000
,  // measure 24
0000
0000
0000
0000
,  // measure 25
0020
0000
0000
0000
,  // measure 26
0000
0000
0030
0000
,  // measure 27
0200
0000
0000
0000
,  // measure 28
0000
0000
0000
0300
,  // measure 29
0002
0000
0000
0000
,  // measure 30
0000
0000
0000
0003
,  // measure 31
2000
0000
0000
0000
,  // measure 32
0000
0000
0000
3000
,  // measure 33
1001
0000
0001
0000
,  // measure 34
1000
0000
0010
0000
,  // measure 35
1000
0000
0100
0000
,  // measure 36
1000
0000
0010
0000
,  // measure 37
0100
0000
0001
0000
,  // measure 38
0010
0000
0001
0000
,  // measure 39
1000
0000
0100
0000
,  // measure 40
1000
0000
0010
0000
,  // measure 41
0110
0000
0010
0000
,  // measure 42
1000
1000
0001
0000
,  // measure 43
1001
0000
0010
0000
,  // measure 44
0100
0100
0001
0000
,  // measure 45
1001
0000
0000
0000
,  // measure 46
0001
0001
1000
0000
,  // measure 47
0010
0010
0100
0000
,  // measure 48
1001
0000
0000
0000
,  // measure 49
0001
1000
0100
0010
,  // measure 50
0000
0100
1000
0010
,  // measure 51
0000
0100
0001
1000
,  // measure 52
0000
0100
0010
0001
,  // measure 53
0010
0001
1000
0100
,  // measure 54
0000
0100
1000
0010
,  // measure 55
0000
0100
0010
1000
,  // measure 56
0000
0001
1000
0010
,  // measure 57
0110
0100
0001
0010
,  // measure 58
0000
0100
0010
0001
,  // measure 59
0000
1000
0010
1000
,  // measure 60
0000
0010
0100
0001
,  // measure 61
0010
0001
1000
0100
,  // measure 62
0000
1000
0001
0100
,  // measure 63
0000
0010
1000
0100
,  // measure 64
0000
0010
0100
1000
,  // measure 65
1001
0000
0000
0000
;

//---------------dance-single - ----------------
#NOTEDATA:;
#CHARTNAME:;
#STEPSTYPE:dance-single;
#DESCRIPTION:;
#CHARTSTYLE:;
#DIFFICULTY:Medium;
#METER:6;
#RADARVALUES:0.218937,0.365823,0.034634,0.077927,0.008659,177.000000,173.000000,4.000000,9.000000,0.000000,0.000000,0.000000,0.000000,0.000000,0.218937,0.365823,0.034634,0.077927,0.008659,177.000000,173.000000,4.000000,9.000000,0.000000,0.000000,0.000000,0.000000,0.000000;
#CREDIT:Pandemonium X;
#NOTES:
// measure 0
0000
0000
0000
0000
,  // measure 1
0000
0000
0000
0000
,  // measure 2
0000
0000
0000
0000
,  // measure 3
0000
0000
0000
0000
,  // measure 4
0000
0000
0000
0000
,  // measure 5
0000
0000
0000
0000
,  // measure 6
0000
0000
0000
0000
,  // measure 7
0000
0000
0000
0000
,  // measure 8
0000
0000
0000
0000
,  // measure 9
1000
0001
0010
0001
,  // measure 10
0000
1000
0001
0100
,  // measure 11
0000
0010
0100
0001
,  // measure 12
0000
1000
0001
0100
,  // measure 13
0010
1000
0100
0000
,  // measure 14
0010
0100
1000
0000
,  // measure 15
0100
0010
0001
0000
,  // measure 16
0200
0300
0010
1000
,  // measure 17
1001
0000
0000
0000
,  // measure 18
0000
0000
0000
0000
,  // measure 19
0020
0000
0000
0000
,  // measure 20
0000
0000
0000
0030
,  // measure 21
2000
0000
0000
0000
,  // measure 22
0000
0000
0000
3000
,  // measure 23
1002
0000
0000
0000
,  // measure 24
0000
0000
0000
0003
,  // measure 25
0200
0000
0000
0000
,  // measure 26
0000
0000
0000
0310
,  // measure 27
2000
0000
0000
0000
,  // measure 28
0000
0000
0000
3000
,  // measure 29
0002
0000
0000
0000
,  // measure 30
0000
0000
0000
0013
,  // measure 31
0200
0000
0000
0000
,  // measure 32
2000
0000
0000
3300
,  // measure 33
0011
0000
0001
0000
,  // measure 34
1000
0000
0010
0000
,  // measure 35
1000
0000
0100
0000
,  // measure 36
1000
0000
0010
0000
,  // measure 37
0100
0000
0001
0000
,  // measure 38
0010
0000
0001
0000
,  // measure 39
1000
0000
0001
0000
,  // measure 40
0100
0000
0001
0000
,  // measure 41
1001
0001
0100
0010
,  // measure 42
1000
1000
1000
0000
0010
0000
0100
0000
,  // measure 43
0001
0010
0100
1000
,  // measure 44
0100
0100
0100
0000
1000
0000
0010
0000
,  // measure 45
0100
0010
1000
0001
,  // measure 46
1000
1000
1000
0000
0001
0000
1000
0000
,  // measure 47
0010
1000
0100
0000
0010
0000
0001
0000
,  // measure 48
0000
0000
1000
0000
0001
0000
0000
0010
0000
0000
0100
0000
0010
0000
0001
0000
,  // measure 49
1000
0001
0100
0000
0001
0000
0010
0100
,  // measure 50
0000
0100
0010
0000
0001
0000
1000
0010
,  // measure 51
0000
0100
0001
0000
0010
0000
0100
0010
,  // measure 52
0000
0010
0100
0000
0010
0000
0001
0000
,  // measure 53
1000
0001
0100
0000
0001
0000
1000
0010
,  // measure 54
0000
0100
0010
0000
1000
0000
0100
0010
,  // measure 55
0000
0100
1000
0000
0010
0000
0100
0001
,  // measure 56
0000
0010
0100
0000
0010
0000
0001
0000
,  // measure 57
1000
0100
0001
0000
0100
0000
0010
0001
,  // measure 58
0000
0010
1000
0000
0010
0000
0100
1000
,  // measure 59
0000
0100
0001
0000
0100
0000
0010
0001
,  // measure 60
0000
0100
0010
0000
1000
0000
0001
0000
,  // measure 61
1000
0001
0010
0000
0100
0000
0010
0001
,  // measure 62
0000
0010
0100
0000
0010
0000
0001
0100
,  // measure 63
0000
1000
0100
0000
0010
0000
1000
0010
,  // measure 64
0000
0000
0100
0000
0010
0000
0000
1000
0000
0000
0100
0000
0010
0000
0001
0000
,  // measure 65
1000
0000
0000
0000
;

//---------------dance-single - ----------------
#NOTEDATA:;
#CHARTNAME:;
#STEPSTYPE:dance-single;
#DESCRIPTION:;
#CHARTSTYLE:;
#DIFFICULTY:Beginner;
#METER:2;
#RADARVALUES:0.091533,0.168841,0.077927,0.000000,0.000000,74.000000,65.000000,9.000000,0.000000,0.000000,0.000000,0.000000,0.000000,0.000000,0.091533,0.168841,0.077927,0.000000,0.000000,74.000000,65.000000,9.000000,0.000000,0.000000,0.000000,0.000000,0.000000,0.000000;
#CREDIT:Pandemonium X;
#NOTES:
// measure 0
0000
0000
0000
0000
,  // measure 1
0000
0000
0000
0000
,  // measure 2
0000
0000
0000
0000
,  // measure 3
0000
0000
0000
0000
,  // measure 4
0000
0000
0000
0000
,  // measure 5
0000
0000
0000
0000
,  // measure 6
0000
0000
0000
0000
,  // measure 7
0000
0000
0000
0000
,  // measure 8
0000
0000
0000
0000
,  // measure 9
1000
0000
0000
0000
,  // measure 10
0001
0000
0000
0000
,  // measure 11
0100
0000
0000
0000
,  // measure 12
0010
0000
0000
0000
,  // measure 13
1000
0000
0000
0000
,  // measure 14
0100
0000
0000
0000
,  // measure 15
1000
0000
0000
0000
,  // measure 16
0001
0000
1000
0000
,  // measure 17
0110
0000
0000
0000
,  // measure 18
0000
0000
0000
0000
,  // measure 19
0010
0000
0000
0000
,  // measure 20
0000
0000
0000
0000
,  // measure 21
1000
0000
0000
0000
,  // measure 22
0000
0000
0000
0000
,  // measure 23
1001
0000
0000
0000
,  // measure 24
0000
0000
0000
0000
,  // measure 25
0110
0000
0000
0000
,  // measure 26
0000
0000
0000
0001
,  // measure 27
0001
0000
0000
0000
,  // measure 28
0000
0000
0000
0000
,  // measure 29
1000
0000
0000
0000
,  // measure 30
0000
0000
0000
0100
,  // measure 31
0100
0000
0000
0010
,  // measure 32
0000
0000
0000
0000
,  // measure 33
1001
0000
0000
0000
,  // measure 34
1000
0000
0000
0000
,  // measure 35
0001
0000
0000
0000
,  // measure 36
0100
0000
0000
0000
,  // measure 37
0010
0000
0000
0000
,  // measure 38
1000
0000
0000
0000
,  // measure 39
0100
0000
0000
0000
,  // measure 40
1000
0000
0000
0000
,  // measure 41
1001
0000
0000
0000
,  // measure 42
0010
0010
0000
0000
,  // measure 43
1001
0000
0000
0000
,  // measure 44
0100
0100
0000
0000
,  // measure 45
1001
0000
0000
0000
,  // measure 46
0010
0010
0000
0000
,  // measure 47
0010
0010
0000
0000
,  // measure 48
0100
0000
0000
0000
,  // measure 49
1001
0000
1000
0000
,  // measure 50
0001
0000
0000
0000
,  // measure 51
0010
0000
0001
0000
,  // measure 52
1000
0000
0000
0000
,  // measure 53
0100
0000
1000
0000
,  // measure 54
0010
0000
0000
0000
,  // measure 55
0100
0000
0010
0000
,  // measure 56
1000
0000
0000
0000
,  // measure 57
1001
0000
1000
0000
,  // measure 58
0001
0000
0000
0000
,  // measure 59
0010
0000
0001
0000
,  // measure 60
0100
0000
0000
0000
,  // measure 61
0010
0000
1000
0000
,  // measure 62
0100
0000
0000
0000
,  // measure 63
0010
0000
0001
0000
,  // measure 64
1000
0000
0000
0000
,  // measure 65
0010
0000
0000
0000
;
