#VERSION:0.83;
#TITLE:3y3s;
#SUBTITLE:(AJURIKA Remix);
#ARTIST:青龍;
#TITLETRANSLIT:;
#SUBTITLETRANSLIT:;
#ARTISTTRANSLIT:;
#GENRE:PSY SPEED;
#ORIGIN:;
#CREDIT:;
#BANNER:banner.png;
#BACKGROUND:background.png;
#PREVIEWVID:;
#JACKET:jacket.png;
#CDIMAGE:;
#DISCIMAGE:;
#LYRICSPATH:;
#CDTITLE:CDTITLE.png;
#MUSIC:3y3s (AJURIKA Remix).ogg;
#OFFSET:-0.066000;
#SAMPLESTART:67.065071;
#SAMPLELENGTH:14.619293;
#SELECTABLE:YES;
#BPMS:0.000=197.000;
#STOPS:;
#DELAYS:;
#WARPS:;
#TIMESIGNATURES:0.000=4=4;
#TICKCOUNTS:0.000=4;
#COMBOS:0.000=1;
#SPEEDS:0.000=1.000=0.000=0;
#SCROLLS:0.000=1.000;
#FAKES:;
#LABELS:0.000=Song Start;
#BGCHANGES:;
#KEYSOUNDS:;
#ATTACKS:
;

//---------------dance-single - ----------------
#NOTEDATA:;
#CHARTNAME:;
#STEPSTYPE:dance-single;
#DESCRIPTION:;
#CHARTSTYLE:;
#DIFFICULTY:Hard;
#METER:15;
#RADARVALUES:0.693069,0.829067,0.757027,0.105821,0.130241,596.000000,503.000000,93.000000,13.000000,0.000000,0.000000,0.000000,0.000000,0.000000,0.693069,0.829067,0.757027,0.105821,0.130241,596.000000,503.000000,93.000000,13.000000,0.000000,0.000000,0.000000,0.000000,0.000000;
#CREDIT:Pandemonium X;
#NOTES:
0000
0000
0000
0000
,
0000
0000
0000
0000
,
1000
0010
0100
0010
,
1000
1010
0001
0011
,
0001
0100
0010
0100
,
0001
0000
0011
0000
1001
0000
1000
0001
,
0000
0010
0100
0010
0000
0100
0010
0001
,
1000
0000
0010
0000
0001
0000
0010
1000
,
0000
0000
0000
0001
0010
0000
0000
0100
,
1000
0000
0000
0000
0000
0100
0010
0100
,
0000
0000
0000
0000
,
0010
0101
1010
1001
,
0011
1001
1100
0110
,
0100
1000
0010
0100
,
0001
0010
1000
0010
,
0100
0100
0010
0010
,
0001
1000
0010
0100
,
0001
0001
1000
1000
,
0110
0000
0100
0000
0100
0000
0010
0010
,
0110
1010
0011
0110
,
1100
0110
1001
1010
,
1000
0001
0010
0100
,
1000
0100
0001
0100
,
0110
0010
0100
1000
,
1010
0010
0100
0001
,
0011
0010
0110
1001
,
0110
0100
0010
1000
,
0001
0200
1000
0000
0310
0000
1000
0000
,
0001
0010
0100
1000
,
1000
0200
0001
0000
0310
0000
0001
0000
,
0100
0010
1000
0001
,
1000
0020
0001
0000
0130
0000
1000
0000
,
0001
0020
1000
0000
0130
0000
0001
0000
,
1000
0020
0001
0030
0001
0200
1000
0300
,
0010
0000
1000
0001
1000
0000
0001
0000
0100
0000
0010
0000
1000
0100
1000
0100
,
0010
0000
0100
0000
1000
0100
0001
0100
,
0010
0000
0001
0000
0100
0010
1001
0000
,
1000
0000
0001
0000
0100
1000
0100
0001
,
0000
0010
0000
0010
0100
1000
1001
0000
,
1000
0000
0001
0000
1000
0100
0001
0100
,
0010
0000
0100
0000
1000
0001
0110
0000
,
0100
0000
0010
0000
1000
0010
0001
0010
,
0000
0000
0100
0001
0100
0000
0001
0000
0010
0000
0001
0000
1000
0100
1000
0100
,
0010
0001
0100
1000
0000
1000
0100
0001
,
0000
0000
1000
0001
1000
0000
0001
0000
0010
0000
0100
0000
1001
0000
0000
0000
,
0100
1000
0010
0001
0000
0001
0010
1000
,
0000
0000
0001
1000
0001
0000
1000
0000
0100
0000
0010
0000
1001
0000
0000
0000
,
0001
0100
0000
0100
0010
0000
0010
1000
0000
1000
0001
0000
0010
0000
0100
0000
,
0100
0010
0000
0010
0001
0000
0001
0100
0000
0100
0010
0000
1000
0000
1000
0000
,
0001
0100
0010
1000
0001
0100
0010
1000
,
0001
0010
0000
0000
0010
0100
0000
0000
0100
1000
0000
0000
1000
0010
0000
0000
,
0010
0100
0000
0000
0100
0001
0000
0000
0001
1000
0000
0000
1000
0100
0000
0000
,
0000
0000
0000
0000
,
0000
0000
0000
0000
,
0000
0001
0000
0001
0010
0100
1001
0000
,
0110
0100
0001
0010
0000
0100
0010
0001
,
1001
0101
1001
1100
,
1000
0100
0010
0100
0000
0010
0001
0100
,
0110
0000
0101
0000
0110
0000
0100
0010
,
0000
0100
0001
0010
0000
0100
0010
0001
,
1001
0000
1010
0000
1001
0000
0001
0010
,
0000
0000
0100
0010
0010
0000
0100
1000
,
1000
0100
0001
0100
0110
0000
1001
0000
,
0001
0100
0010
0100
0000
0010
1000
0100
,
0110
1100
0110
0011
,
0001
1000
0001
0010
0000
0001
1000
0100
,
0110
0000
1100
0000
0110
0000
0100
1000
,
0000
0100
0010
0001
0000
0100
0010
1000
,
1001
0000
0000
0000
0101
0000
0000
0000
1001
0000
0000
0000
1000
0000
0100
0010
,
0001
0000
0000
0000
1000
0001
1000
0001
1000
0000
0001
1000
0001
0000
0000
0000
,
1000
0000
0000
0000
0010
0100
0010
0100
0010
0000
0000
0000
0100
0000
0100
0000
,
0001
0010
1000
0010
0000
0100
0010
0001
,
0011
1010
0101
1001
,
0001
0100
1000
0100
0000
1000
0100
0010
,
1010
0000
0101
0000
1001
0000
0001
0010
,
0110
0000
1100
0000
,
0011
0000
0101
1000
,
1001
1100
0011
0101
,
1001
0000
1000
1000
0002
1003
0200
0320
,
0031
0010
1000
1010
0000
1000
0010
0001
,
0101
1010
1001
0011
,
0010
0100
1000
1100
0000
1000
0100
0001
,
0101
0000
0110
0000
1100
0000
1000
0010
,
0000
0010
0100
0101
0000
0100
0010
1000
,
1001
0000
0110
0000
1001
0000
1000
0010
,
1000
0010
0100
0001
1000
0010
0100
0001
,
1000
0001
1000
0001
1000
0000
1000
0000
0200
0000
0310
0000
0002
0000
0023
0000
,
0230
1000
1000
1000
,
1000
0000
1000
0000
1300
0100
1100
0000
,
1000
0010
0100
0001
,
0010
0000
1000
0000
0010
0000
0001
0001
,
1000
0001
0100
0001
,
1000
0000
0110
0000
0001
0000
1000
1000
,
0100
1000
0010
0100
,
0001
0100
1000
0100
,
0101
0001
1100
0001
,
1001
0110
1001
0110
,
1001
0000
0000
0000
;

//---------------dance-single - ----------------
#NOTEDATA:;
#CHARTNAME:;
#STEPSTYPE:dance-single;
#DESCRIPTION:;
#CHARTSTYLE:;
#DIFFICULTY:Medium;
#METER:13;
#RADARVALUES:0.582597,0.710628,0.415144,0.040700,0.016280,501.000000,450.000000,51.000000,5.000000,0.000000,0.000000,0.000000,0.000000,0.000000,0.582597,0.710628,0.415144,0.040700,0.016280,501.000000,450.000000,51.000000,5.000000,0.000000,0.000000,0.000000,0.000000,0.000000;
#CREDIT:Pandemonium X;
#NOTES:
0000
0000
0000
0000
,
0000
0000
0000
0000
,
1000
0000
0001
0000
,
0100
0010
1000
0001
,
0010
0000
0100
0000
,
0010
0001
1000
0001
,
0100
0000
0001
0000
,
0010
0000
0100
0000
0010
0000
0001
0010
,
0000
0000
0000
0100
1000
0000
0000
1000
,
0010
0000
0000
0000
0000
0010
0100
0001
,
0000
0000
0000
0000
,
1000
0001
0010
0001
,
1000
0100
0001
0100
,
1000
0010
0100
0001
,
0010
0100
1000
0001
,
1000
1000
0001
0001
,
0100
0100
0010
0010
,
0100
0100
0001
0001
,
1000
0000
1000
0000
1000
0000
0001
1000
,
0001
1000
0010
1000
,
0001
0010
1000
0010
,
0001
0100
0001
0010
,
0100
1000
0010
1000
,
1001
0001
0010
0100
,
1001
1000
0100
0010
,
1001
0010
1001
0110
,
1001
0001
1000
0010
,
0100
0001
0010
0000
0100
0000
0010
0000
,
0001
1000
0010
0100
,
0010
1000
0100
0000
0010
0000
0100
0000
,
1000
0001
0100
0001
,
0010
0100
1000
0000
0100
0000
1000
0000
,
0010
0100
0001
0000
0010
0000
0100
0000
,
0010
0001
0100
0000
0010
1000
0100
0000
,
0010
0001
0100
1000
0100
0010
1000
0001
,
1000
0000
0001
0000
0010
0100
1000
0001
,
1000
0000
0010
0000
0100
0001
0101
0000
,
0001
0000
1000
0000
0010
0100
0001
1000
,
0000
0100
0000
0100
0010
0001
1001
0000
,
1000
0000
0010
0000
0100
0001
0010
0100
,
0010
0000
0001
0000
1000
0010
1010
0000
,
1000
0000
0001
0000
0010
0001
0100
0010
,
0100
1000
0100
0001
0010
0100
1000
0001
,
1000
0100
1000
0010
0000
0010
0100
0001
,
0000
1000
0100
0001
0100
1000
0001
0000
,
1000
0010
1000
0001
0000
0010
0100
0010
,
0000
0001
0100
1000
0100
0001
1000
1000
,
0001
0000
0000
0001
0000
0000
0001
0000
0000
0001
0000
0000
1000
0000
0001
0000
,
0100
0000
0000
0100
0000
0000
0100
0000
0000
0100
0000
0000
0010
0000
1000
0000
,
0100
0010
0001
1000
,
0101
0011
0110
1100
,
0011
0101
1100
1001
,
0000
0000
0000
0000
,
0000
0000
0000
0000
,
0000
1000
0000
1000
0100
0010
0011
0000
,
0100
1000
0010
0100
0000
0010
1000
0001
,
0010
0011
0001
0101
,
0001
0100
0001
0010
0000
0100
0010
0001
,
1000
0000
0001
0000
1000
0000
1001
1000
,
0000
0100
1000
0010
0000
0010
0100
0001
,
0010
0000
1000
0000
0010
0000
0100
1000
,
0000
0000
0000
0010
0100
0000
0000
0010
,
1000
0000
0000
0000
0000
0001
0010
0100
,
1000
0100
1000
0010
0000
0100
0001
0010
,
0100
1100
1000
1001
,
0001
0100
0001
0010
0000
0100
0010
0001
,
1000
0000
1001
0000
0100
0000
0110
0100
,
0000
0010
1000
0001
0000
0010
0100
0010
,
0001
0000
1000
0000
0010
0000
0100
0001
,
0010
0000
0100
0100
1000
0000
0100
0100
,
0010
0000
0100
0100
0100
0000
0010
0000
,
1001
1000
0100
0010
0000
0100
1000
0010
,
0200
0001
0010
0301
,
0010
0001
0100
0010
0000
0100
0001
1000
,
0200
0000
1000
0000
0310
0000
0100
1000
,
1100
0000
0101
0000
,
1100
0000
0101
0000
,
1001
1010
0011
1001
,
0101
0100
1000
0100
0002
0013
0200
2300
,
3001
0010
1000
0010
0000
0100
0001
0100
,
1000
1100
1000
1010
,
1000
0010
0001
0010
0000
0100
0001
0010
,
0100
0000
1100
0000
1001
0000
0001
0100
,
0000
0010
1000
0100
0000
0001
0100
0010
,
0001
0000
0011
0000
1100
0000
0001
0100
,
0010
0000
0100
0001
1000
0000
0100
0010
,
0001
1000
1010
0010
1000
0100
0001
0100
,
1000
1000
1000
1000
,
1000
1000
1000
1001
,
0001
0001
0001
0001
,
0100
0100
0100
0110
,
0010
0010
0010
0010
,
1000
1010
1000
1001
,
0001
0010
0100
1000
,
0100
0010
0001
0100
,
0010
1000
0001
0100
,
1001
0110
1001
0110
,
1001
0000
0000
0000
;

//---------------dance-single - ----------------
#NOTEDATA:;
#CHARTNAME:;
#STEPSTYPE:dance-single;
#DESCRIPTION:;
#CHARTSTYLE:;
#DIFFICULTY:Easy;
#METER:8;
#RADARVALUES:0.423284,0.592190,0.236062,0.073261,0.000000,364.000000,335.000000,29.000000,9.000000,0.000000,0.000000,0.000000,0.000000,0.000000,0.423284,0.592190,0.236062,0.073261,0.000000,364.000000,335.000000,29.000000,9.000000,0.000000,0.000000,0.000000,0.000000,0.000000;
#CREDIT:Pandemonium X;
#NOTES:
0000
0000
0000
0000
,
0000
0000
0000
0000
,
1000
0000
0100
0000
,
1000
0010
1000
0010
,
0100
0000
0001
0000
,
0010
0100
0010
0001
,
1000
0010
1000
0010
,
0100
0000
0001
0000
0010
0000
0100
1000
,
0000
0000
0000
0100
0010
0000
0000
0010
,
0001
0000
0000
0000
0000
0001
0100
0010
,
0000
0000
0000
0000
,
0100
0010
0010
0100
,
0100
0001
0001
1000
,
1000
0010
1000
0010
,
0100
0001
0100
1000
,
0100
0010
0100
1000
,
0001
0100
0010
1000
,
0001
0010
0100
1000
,
1001
0000
1001
0000
1001
0000
0001
0100
,
0001
0010
0010
0100
,
0100
1000
1000
0001
,
0001
1000
0001
0100
,
0001
0010
0100
1000
,
1001
0001
1000
0010
,
1001
1000
0001
0100
,
1001
0010
1001
0110
,
1001
1000
0001
0010
,
0200
0000
0300
0000
,
0000
0000
0000
0000
,
2000
0000
3000
0000
,
0000
0000
0000
0000
,
0020
0000
0030
0000
,
0200
0000
0300
0000
,
0002
0000
2003
0000
,
3001
0000
1000
0000
0010
0000
0100
0001
,
0100
0010
1000
0100
,
0010
0000
0100
0000
1000
0001
1000
0000
,
0001
0100
0010
1000
,
0100
0010
0000
0100
1000
0001
1000
0000
,
0001
0100
0010
1000
,
0100
0000
0010
0000
0001
0100
0001
0000
,
0100
0010
1000
0001
,
0010
0100
1000
0000
0100
1000
0010
0000
,
0100
0000
0000
0001
0000
0010
0100
1000
,
0000
0000
0001
0000
1000
0010
1000
0000
,
0001
0000
0000
0010
0000
0100
0010
0001
,
0000
1000
0001
0100
,
1010
0000
0000
0000
0000
0000
1000
0100
,
0110
0000
0000
0000
0000
0000
0010
0001
,
0101
0001
0100
0010
,
1000
0100
0010
0001
,
1000
0100
0010
0001
,
0000
0000
0000
0000
,
0000
0000
0000
0000
,
0000
1000
0000
1000
0100
0010
0001
0000
,
1000
0001
0100
0001
,
0010
0010
0001
0001
,
1000
0001
0100
0001
,
0010
0010
0100
0110
,
0010
0001
1000
0010
,
0100
0001
0010
1000
,
0010
0000
0100
0000
,
1000
0000
0000
0001
,
1000
0001
0010
0001
,
1000
1000
0001
0001
,
0100
0001
0010
0100
,
1000
1000
1000
0100
,
1000
0010
0100
0001
,
1000
1000
0010
0100
,
0001
0000
0010
0100
1000
0000
0100
0010
,
0001
0000
1000
0001
1000
0000
0001
0000
,
0100
0010
1000
0100
,
0020
0000
0000
0000
,
0130
0010
0001
1000
,
0020
0000
0000
0000
,
0130
0000
0001
0000
,
0010
0000
0100
1000
,
0010
0100
0001
1000
,
0100
1000
1010
0101
,
1000
0100
1000
0010
,
0110
0110
1001
1001
,
0001
0010
0001
0100
,
0110
0101
0110
0010
,
1000
0001
0010
0100
,
1100
0110
0011
0001
,
0101
0100
0110
0010
,
1010
0000
0000
0000
0000
1000
0001
0010
,
0200
0000
0000
0000
,
0000
0000
0000
0310
,
0001
0001
0001
0001
,
0001
0001
0001
0001
,
1000
1000
1000
1000
,
1000
0010
1000
0100
,
0010
0010
0010
0010
,
0100
0100
0100
0100
,
1000
1000
0001
0001
,
0100
0010
1000
0001
,
1001
0000
0000
0000
;

//---------------dance-single - ----------------
#NOTEDATA:;
#CHARTNAME:;
#STEPSTYPE:dance-single;
#DESCRIPTION:;
#CHARTSTYLE:;
#DIFFICULTY:Beginner;
#METER:6;
#RADARVALUES:0.188385,0.394794,0.105821,0.000000,0.000000,162.000000,149.000000,13.000000,0.000000,0.000000,0.000000,0.000000,0.000000,0.000000,0.188385,0.394794,0.105821,0.000000,0.000000,162.000000,149.000000,13.000000,0.000000,0.000000,0.000000,0.000000,0.000000,0.000000;
#CREDIT:Pandemonium X;
#NOTES:
0000
0000
0000
0000
,
0000
0000
0000
0000
,
0010
0000
0000
0000
,
0100
0000
0000
0000
,
0001
0000
0000
0000
,
1000
0000
0000
0000
,
0010
0000
0000
0000
,
1000
0000
0000
0000
,
0100
0000
1000
0000
,
0010
0000
0000
0100
,
0000
0000
0000
0000
,
0010
0000
0000
0000
,
1000
0000
0000
0000
,
0001
0000
0000
0000
,
0010
0000
0000
0000
,
0001
0000
0000
0000
,
1000
0000
0000
0000
,
0010
0000
0000
0000
,
1001
0000
0000
0000
,
0100
0000
0000
0000
,
0010
0000
0000
0000
,
1000
0000
0000
0000
,
0001
0000
0000
0000
,
0010
0000
0000
0000
,
0001
0000
0000
0000
,
0100
0000
0010
0000
,
1000
0000
0000
0000
,
1001
0000
0000
0000
,
0000
0000
0000
0000
,
0110
0000
0000
0000
,
0000
0000
0000
0000
,
1001
0000
0000
0000
,
0110
0000
0000
0000
,
1001
0000
0110
0000
,
1001
1000
0001
1000
,
0010
0000
1000
0100
,
0010
0000
0100
0100
,
0000
0000
0010
0001
,
0100
0000
0010
0010
,
0000
0000
0100
0001
,
1000
0000
0001
0001
,
0000
0000
1000
0001
,
0100
0000
0000
0000
,
0010
1000
0010
1000
,
0000
0000
0000
0000
,
0001
0100
0001
0100
,
0000
0000
0000
0000
,
1001
0000
0000
0000
,
0110
0000
0000
0000
,
1001
0000
0010
0000
,
1000
0100
0010
0001
,
1000
0100
0010
0001
,
0000
0000
0000
0000
,
0000
0000
0000
0000
,
0000
0000
0000
0000
,
0010
0000
0000
0000
,
1000
0000
0001
0000
,
0010
0000
0000
0000
,
0100
0000
0010
0000
,
0001
0000
0000
0000
,
1000
0000
0001
0000
,
0100
0000
0010
0000
,
1000
0000
0000
0001
,
1000
0000
0000
0000
,
0010
0000
1000
0000
,
0100
0000
0000
0000
,
0010
0000
0100
0000
,
1000
0000
0000
0000
,
0001
0000
1000
0000
,
0010
0000
1000
0000
,
0100
0000
0000
0010
,
0001
0000
0000
0000
,
0100
0100
0100
0100
,
0010
0000
0000
0000
,
1000
1000
1000
0000
,
0001
0000
1000
0000
,
0010
0000
0100
0000
,
0010
0000
1000
0000
,
0001
0000
0000
1000
,
0001
0000
0000
0000
,
0010
0100
1000
0001
,
0100
0000
0000
0000
,
0010
1000
0001
0010
,
0100
0000
0000
0000
,
0010
0000
0000
0000
,
0001
0000
1000
0000
,
0010
0000
0000
0100
,
1001
0000
0000
0000
,
0000
0000
0000
0000
,
0010
0000
0000
0000
,
1000
0000
0000
0000
,
0100
0000
0000
0000
,
0010
0000
0000
0000
,
0001
0000
0000
0000
,
1000
0000
0000
0000
,
0010
0000
0100
0000
,
0001
1000
0001
1000
,
1001
0000
0000
0000
;
