#VERSION:0.83;
#TITLE:24/7 Popperz;
#SUBTITLE:;
#ARTIST:Power of Nature;
#TITLETRANSLIT:;
#SUBTITLETRANSLIT:;
#ARTISTTRANSLIT:;
#GENRE:HAPPY TOYBOX;
#ORIGIN:;
#CREDIT:;
#BANNER:banner.png;
#BACKGROUND:background.png;
#PREVIEWVID:;
#JACKET:jacket.png;
#CDIMAGE:;
#DISCIMAGE:;
#LYRICSPATH:;
#CDTITLE:CDTITLE.png;
#MUSIC:247 Popperz.ogg;
#OFFSET:0.000000;
#SAMPLESTART:85.544556;
#SAMPLELENGTH:14.257431;
#SELECTABLE:YES;
#BPMS:0.000=101.000,
16.000=202.000,
175.000=101.000,
191.000=202.000,
322.000=101.000,
326.000=202.000;
#STOPS:52.000=0.891,
57.000=0.891,
62.000=0.891,
245.000=0.297;
#DELAYS:;
#WARPS:;
#TIMESIGNATURES:0.000=4=4;
#TICKCOUNTS:0.000=4;
#COMBOS:0.000=1;
#SPEEDS:0.000=1.000=0.000=0;
#SCROLLS:0.000=1.000;
#FAKES:;
#LABELS:0.000=Song Start;
#BGCHANGES:;
#KEYSOUNDS:;
#ATTACKS:
;

//---------------dance-single - ----------------
#NOTEDATA:;
#CHARTNAME:;
#STEPSTYPE:dance-single;
#DESCRIPTION:;
#CHARTSTYLE:;
#DIFFICULTY:Hard;
#METER:17;
#RADARVALUES:0.848004,1.201983,0.391295,0.357993,0.670197,713.000000,666.000000,47.000000,43.000000,0.000000,0.000000,2.000000,0.000000,0.000000,0.848004,1.201983,0.391295,0.357993,0.670197,713.000000,666.000000,47.000000,43.000000,0.000000,0.000000,2.000000,0.000000,0.000000;
#CREDIT:Pandemonium X;
#NOTES:
// measure 0
0000
0000
0000
0000
,  // measure 1
0000
0000
0000
0000
,  // measure 2
1001
0000
0000
0000
0000
1020
0000
0000
0130
0000
0000
0000
0000
1020
0000
0000
,  // measure 3
0130
0000
0000
0000
0000
1020
0000
0000
2030
0000
3002
0000
0023
0000
0230
0000
,  // measure 4
1300
1000
0001
0010
0100
0100
0010
0001
,  // measure 5
1000
0010
0100
0010
0000
0010
0100
0001
,  // measure 6
1000
1000
0001
0010
0100
0100
0010
0001
,  // measure 7
1000
0010
1000
0100
0000
0010
0100
1000
,  // measure 8
0001
0001
0010
0001
0100
0100
0010
1000
,  // measure 9
0100
0100
1000
0001
0000
0001
0010
0100
,  // measure 10
1000
1000
0100
1000
0001
0001
1000
0010
,  // measure 11
1000
0001
0010
0001
0000
0000
0000
0000
,  // measure 12
1000
0100
0001
0100
1000
0010
0100
0001
,  // measure 13
1001
0000
0001
0010
1000
0010
0001
0100
,  // measure 14
0001
1000
1001
0000
1000
0001
0100
1000
,  // measure 15
0100
0010
1000
0001
0011
0000
1000
0001
,  // measure 16
0010
1000
0010
0100
0010
0001
1001
0001
,  // measure 17
1000
0000
0001
0000
1000
0001
1000
0001
1000
0001
1000
0001
1000
0000
0001
0000
,  // measure 18
0010
0000
1000
0000
0010
0000
0100
0000
0010
0000
0001
0000
1000
0010
1000
0000
,  // measure 19
0001
0100
0001
0000
0010
0001
0010
0000
0100
1000
0100
0000
0010
0000
0001
0000
,  // measure 20
0100
0000
1000
0000
0100
0000
0010
0000
1000
0000
0001
0000
0010
0100
0010
0000
,  // measure 21
0100
1000
0100
0000
1000
0010
1000
0000
0001
0100
0001
0000
0010
0000
0001
0000
,  // measure 22
0100
0000
1000
0000
0100
0000
0010
0000
1000
0000
0001
0000
0010
0100
1000
0000
,  // measure 23
0100
0010
0001
0000
0010
0100
1000
0000
0100
0010
0001
0000
1000
0000
0001
0000
,  // measure 24
0100
0000
1000
0000
0100
0000
0010
0000
1000
0000
0001
0000
1000
0100
1000
0000
,  // measure 25
0010
0100
0000
0010
1000
0001
0010
0001
1000
0000
0000
0000
0002
0000
0000
0000
,  // measure 26
0100
0000
0013
0100
1000
0200
0010
0000
,  // measure 27
1300
0000
0100
1000
0010
0200
0001
0000
,  // measure 28
0310
0000
0100
0001
1000
0200
0010
0000
,  // measure 29
1300
0000
0001
0010
0100
2000
0010
0000
,  // measure 30
3001
0000
1000
0100
0010
0200
1000
0000
,  // measure 31
0310
0000
0100
0010
0001
0020
0000
0031
,  // measure 32
0100
0020
0000
0130
0001
2000
0000
0000
,  // measure 33
0000
0000
3001
0100
0001
0100
0101
0000
,  // measure 34
1001
1100
1001
0011
,  // measure 35
1001
1010
1001
0011
,  // measure 36
0110
1100
0110
0011
,  // measure 37
1001
0000
0000
2000
0000
0000
3020
0000
0000
1030
0000
0001
,  // measure 38
0100
0000
0010
1000
0000
0100
0010
0000
0100
1000
0000
0010
,  // measure 39
0100
0000
0001
0010
0000
0100
1000
0000
0100
0010
0000
0100
,  // measure 40
1000
0000
0010
0100
0000
0001
0010
0000
0100
0010
0000
0010
,  // measure 41
0001
0000
0001
1000
0000
1000
0001
0000
0001
0100
0000
0100
,  // measure 42
0000
0000
0010
1000
0000
0001
0000
0000
1000
0000
0000
1000
,  // measure 43
0000
0000
0000
0000
0000
0000
0000
0000
1000
0000
0000
0000
0001
0000
0000
0000
0000
0000
0000
0000
0010
0000
0000
0000
0000
0000
0000
0000
0000
0000
0000
0000
0100
0000
0000
0000
1000
0000
0000
0000
0000
0000
0000
0000
0000
0100
0000
0000
,  // measure 44
0000
0000
0000
0000
0020
0000
0000
0000
0000
0000
0130
1000
0001
0000
0100
0000
0001
0000
0010
0000
0100
0000
1000
0000
0001
0000
0000
0000
0000
0000
0100
0000
,  // measure 45
0000
0000
0000
0000
0020
0000
0000
0000
0000
0000
0130
0001
1000
0000
0001
0000
0010
0000
0100
0000
0010
0000
0001
0000
1000
0000
0000
0000
0000
0000
0001
0000
,  // measure 46
0000
0000
0000
0000
0200
0000
0000
0000
0000
0000
0310
1000
0001
0000
0010
0000
0100
0000
0010
0000
0001
0000
1000
0000
0010
0000
0000
0000
1000
0000
0000
0000
,  // measure 47
0002
0000
0000
0000
0000
0000
0000
0000
0000
0000
0000
0000
0000
0000
0000
0000
0000
0000
0000
0000
0000
0000
0000
0000
0000
0000
0000
0000
0000
0000
0000
0000
0000
0000
0000
0000
1003
0000
0000
0000
0000
0000
0001
0000
0000
0000
0000
0000
0010
0000
0000
0000
0000
0000
0000
0000
0001
0000
0000
0000
0000
0000
0000
0000
0010
0000
0000
0000
0000
0000
0000
0000
0001
0000
0000
0000
0000
0000
0000
0000
0100
0000
0000
0000
0000
0000
0000
0000
0010
0000
0000
0000
0000
0000
0000
0000
1000
0000
0000
0000
0000
0000
0000
0000
0100
0000
0000
0000
0000
0000
0000
0000
0010
0000
0000
0000
0000
0000
0000
0000
0001
0000
0000
0000
0000
0000
0000
0000
0010
0000
0000
0000
0000
0000
0000
0000
0100
0000
0000
0000
0000
0000
0000
0000
1000
0000
0000
0000
0000
0000
0000
0000
0000
0000
0000
0000
0000
0000
0000
0000
0000
0000
0000
0000
0000
0000
0000
0000
0000
0000
0000
0000
0000
0000
0000
0000
0000
0000
0000
0000
0000
0000
0000
0000
0000
0000
0000
0000
0000
0000
0000
0000
,  // measure 48
0100
0000
2000
0000
0000
0000
3010
0000
0200
0000
0000
0000
0000
0000
0310
1000
,  // measure 49
0001
0010
0001
0100
1000
0100
0020
0000
,  // measure 50
1030
0000
0200
0000
0000
0000
0310
0000
0002
0000
0000
0000
0000
0000
1003
0010
,  // measure 51
0100
0001
1000
0100
0001
0100
0020
0000
,  // measure 52
0031
0200
0000
0310
2000
0000
3001
0000
,  // measure 53
0010
0001
1000
0100
0010
0001
1001
0000
,  // measure 54
0000
0000
0000
1020
0000
0000
0130
0000
,  // measure 55
0000
0000
0000
1020
0000
0000
0130
0000
,  // measure 56
0000
0000
0000
1020
0000
0000
0130
0000
,  // measure 57
0000
0000
0000
0000
0000
0000
1020
0000
0000
0000
0000
0000
0130
0001
0100
0001
,  // measure 58
0100
0001
0100
0001
0000
0100
0010
0100
0010
0100
0010
0100
0000
0000
0010
1000
,  // measure 59
0010
1000
0010
1000
0001
1000
0001
1000
0001
1000
0001
1000
0001
1000
0001
1000
,  // measure 60
0001
1000
0001
1000
0001
1000
0001
1000
0001
1000
0001
1000
0001
1000
0001
1000
,  // measure 61
0001
1000
0001
1000
0001
0000
0000
0000
1000
0000
0100
0000
0001
0000
0100
0000
,  // measure 62
0010
0001
0100
1000
0100
0010
1000
0001
,  // measure 63
1001
0000
1000
0001
0010
0100
0010
0001
,  // measure 64
0100
0000
1000
0000
0100
0000
0010
0000
1000
0010
1000
0000
0001
0100
0001
0000
,  // measure 65
0010
0100
1000
0000
0100
0010
0001
0000
1000
0000
0001
0000
0010
0000
0001
0000
,  // measure 66
0100
0010
1000
0100
0010
0100
1000
0001
,  // measure 67
1000
0000
0100
0000
0010
0000
0100
0000
1000
0001
0100
0010
1000
0001
0100
0010
,  // measure 68
1000
0000
0000
0000
1001
0000
0000
0000
1000
0010
1000
0010
1000
0010
1000
0010
,  // measure 69
1000
0000
0002
0403
,  // measure 70
0320
0000
4030
0000
3001
1000
0010
1000
,  // measure 71
0001
0000
0001
1000
0001
1000
0010
0100
,  // measure 72
1000
0000
0100
0000
0001
0000
1000
0000
0100
0010
0001
0000
0010
0100
1000
0000
,  // measure 73
0001
1000
0001
0000
0010
0100
0010
0000
0100
0010
0001
0000
0010
0100
1000
0000
,  // measure 74
0001
0100
0010
0000
0100
0010
1000
0000
0001
1000
0010
0000
0100
0001
0010
0000
,  // measure 75
0100
1000
0001
0000
0100
0010
1000
0000
0001
0010
0100
0010
0001
1000
0010
0100
,  // measure 76
0001
1000
0100
0010
0001
1000
0001
1000
0010
0100
0010
0100
0010
0100
0010
0100
,  // measure 77
0010
0000
0000
0000
0010
0100
0010
0100
0010
0100
0010
0100
0010
0000
0000
0000
,  // measure 78
0200
0000
0000
0000
0302
0000
0000
0000
1003
0100
1000
0100
1000
0100
1000
0100
,  // measure 79
1000
0000
0000
0000
0001
0100
0001
0100
0001
0100
0001
0100
0001
0000
0000
0000
,  // measure 80
2000
3020
0130
0001
,  // measure 81
0010
0100
1001
0101
,  // measure 82
1001
1100
1001
0110
,  // measure 83
1001
0000
0000
0110
0000
0000
1001
0000
0000
1000
0001
0010
,  // measure 84
0200
0000
0000
0310
0001
1000
0020
0000
0000
0130
0001
0010
,  // measure 85
0200
0000
0000
0310
0001
1000
1010
0000
0000
1001
0000
0000
,  // measure 86
0101
1001
0011
0110
,  // measure 87
1100
0110
1001
0000
;

//---------------dance-single - ----------------
#NOTEDATA:;
#CHARTNAME:;
#STEPSTYPE:dance-single;
#DESCRIPTION:;
#CHARTSTYLE:;
#DIFFICULTY:Easy;
#METER:9;
#RADARVALUES:0.434111,0.655627,0.341342,0.183159,0.012488,365.000000,324.000000,41.000000,22.000000,0.000000,0.000000,0.000000,0.000000,0.000000,0.434111,0.655627,0.341342,0.183159,0.012488,365.000000,324.000000,41.000000,22.000000,0.000000,0.000000,0.000000,0.000000,0.000000;
#CREDIT:Pandemonium X;
#NOTES:
// measure 0
0000
0000
0000
0000
,  // measure 1
0000
0000
0000
0000
,  // measure 2
1001
0000
0000
0000
0000
0020
0000
0000
0130
0000
0000
0000
0000
0020
0000
0000
,  // measure 3
0130
0000
0000
0000
0000
0002
0000
0000
1003
0000
0100
0000
0010
0000
0001
0000
,  // measure 4
1000
0001
0100
0001
,  // measure 5
1000
0001
0000
1000
,  // measure 6
0001
0100
0001
0010
,  // measure 7
0100
1000
0000
0100
,  // measure 8
1000
0010
0001
0010
,  // measure 9
1000
0100
0000
0010
,  // measure 10
0100
1000
0100
0001
,  // measure 11
0100
1000
0000
0000
,  // measure 12
0100
1000
0010
0100
,  // measure 13
0101
0001
0010
0001
,  // measure 14
1000
1100
0100
1000
,  // measure 15
0010
0100
0011
0001
,  // measure 16
1000
0010
0100
1001
,  // measure 17
0110
1001
0110
0001
,  // measure 18
1000
0010
0100
0001
,  // measure 19
0001
0001
0001
1000
,  // measure 20
0001
0010
0100
1000
,  // measure 21
1000
1000
1000
0100
,  // measure 22
1000
0010
0100
0001
,  // measure 23
0001
0001
0001
0010
,  // measure 24
0001
0100
0010
1000
,  // measure 25
0001
0010
0100
0020
,  // measure 26
0000
0031
0100
0020
,  // measure 27
0000
1030
0001
0200
,  // measure 28
0000
0310
1000
0200
,  // measure 29
0000
0310
1000
0200
,  // measure 30
0000
1300
0001
0200
,  // measure 31
0000
0301
0010
0002
,  // measure 32
0000
2003
0000
0000
0000
3020
0000
0000
,  // measure 33
0000
1030
0001
1000
,  // measure 34
1000
0001
0001
0100
,  // measure 35
0100
0010
0010
1000
,  // measure 36
1000
0010
0010
0100
,  // measure 37
0100
0100
0000
0010
,  // measure 38
0010
1000
1000
0100
,  // measure 39
0100
0001
0001
0100
,  // measure 40
0100
0010
0010
0001
,  // measure 41
0001
1000
1000
0001
,  // measure 42
0000
1000
0000
0010
,  // measure 43
0000
0100
0000
1001
,  // measure 44
0000
0000
0000
0110
,  // measure 45
0000
0000
0000
1010
,  // measure 46
0000
0000
0000
0101
,  // measure 47
0000
0001
0010
0100
,  // measure 48
0000
1000
0000
0000
0020
0000
0000
0000
,  // measure 49
0130
0010
1000
0001
,  // measure 50
0000
1000
0000
0000
0200
0000
0000
0000
,  // measure 51
1300
0100
0010
0002
,  // measure 52
0000
0013
0000
0000
0200
0000
0310
0000
,  // measure 53
0001
1000
0010
1001
,  // measure 54
0000
0000
0000
0120
0000
0000
1030
0000
,  // measure 55
0000
0000
0000
0120
0000
0000
1030
0000
,  // measure 56
0000
0000
0000
0120
0000
0000
1030
0000
,  // measure 57
0000
0000
0000
0120
0000
0000
1030
0001
,  // measure 58
1000
0001
1000
0001
1000
0001
1000
0001
,  // measure 59
1000
0001
1000
0001
1000
0001
1000
0001
,  // measure 60
1000
0001
1000
0001
1000
0001
1000
0001
,  // measure 61
1000
0001
0000
0000
1001
0000
1000
0000
,  // measure 62
0010
1000
0001
0010
,  // measure 63
0110
0010
0001
0100
,  // measure 64
0010
1000
1100
0110
,  // measure 65
0011
0110
0001
0010
,  // measure 66
0100
1000
0100
1000
,  // measure 67
0010
0100
0001
1000
,  // measure 68
0010
0000
0100
0000
0001
1000
0001
1000
,  // measure 69
0001
0000
2000
3001
,  // measure 70
0002
1003
0001
1000
,  // measure 71
0110
0000
0010
1000
,  // measure 72
0001
0010
0110
1100
,  // measure 73
1010
0101
1000
1000
,  // measure 74
0001
0001
1000
1000
,  // measure 75
0010
0010
0100
0010
,  // measure 76
1000
0000
0001
0000
1000
0010
1000
0010
,  // measure 77
1000
0000
0010
1000
0010
1000
0010
0000
,  // measure 78
1000
0000
0001
0000
0100
0001
0100
0001
,  // measure 79
0100
0000
0001
0100
0001
0100
0001
0000
,  // measure 80
0100
0001
1000
0100
,  // measure 81
0010
0100
1000
0100
,  // measure 82
0010
0001
0010
0100
,  // measure 83
0010
0001
1001
0010
,  // measure 84
1001
0010
1001
0010
,  // measure 85
1001
0100
1001
0110
,  // measure 86
1001
0110
1001
0110
,  // measure 87
1001
0110
1001
0000
;

//---------------dance-single - ----------------
#NOTEDATA:;
#CHARTNAME:;
#STEPSTYPE:dance-single;
#DESCRIPTION:;
#CHARTSTYLE:;
#DIFFICULTY:Medium;
#METER:14;
#RADARVALUES:0.560182,0.655627,0.549478,0.341342,0.029139,471.000000,405.000000,66.000000,41.000000,0.000000,0.000000,0.000000,0.000000,0.000000,0.560182,0.655627,0.549478,0.341342,0.029139,471.000000,405.000000,66.000000,41.000000,0.000000,0.000000,0.000000,0.000000,0.000000;
#CREDIT:Pandemonium X;
#NOTES:
// measure 0
0000
0000
0000
0000
,  // measure 1
0000
0000
0000
0000
,  // measure 2
1001
0000
0000
0000
0000
0002
0000
0000
0103
0000
0000
0000
0000
0002
0000
0000
,  // measure 3
0103
0000
0000
0000
0000
0002
0000
0000
0103
0000
0010
0000
1000
0000
0001
0000
,  // measure 4
0010
0001
0100
0010
,  // measure 5
1000
0100
0010
0100
0000
0010
0100
1000
,  // measure 6
0001
1000
0010
1000
,  // measure 7
1000
0100
0010
0100
0000
0010
0100
1000
,  // measure 8
0001
0100
0010
1000
,  // measure 9
0100
0010
0100
1000
0000
0100
0010
0001
,  // measure 10
1000
0010
0001
0010
,  // measure 11
0100
0010
1000
0001
0000
0000
0000
0000
,  // measure 12
1000
0000
0100
0000
0010
0000
0100
1000
,  // measure 13
1001
0001
0010
0001
,  // measure 14
0100
0001
1001
0000
1000
0000
0001
0000
,  // measure 15
0100
0000
0010
1000
1001
0000
0001
0000
,  // measure 16
0010
0100
0010
0011
,  // measure 17
1100
0101
1010
0001
,  // measure 18
1000
0000
0010
0000
0100
0000
0001
0010
,  // measure 19
0001
0010
0001
0010
0100
1000
0001
0000
,  // measure 20
1000
0000
0010
0000
1000
0000
0100
0010
,  // measure 21
0100
0010
0100
0010
0001
1000
0100
0000
,  // measure 22
1000
0000
0001
0000
0100
0000
0010
1000
,  // measure 23
0010
1000
0010
0100
0001
1000
0100
0000
,  // measure 24
0010
0000
0001
0000
0010
0000
0100
0010
,  // measure 25
0001
0100
0010
1000
0001
0000
2000
0000
,  // measure 26
0000
0000
3100
1000
0010
0200
0000
0000
,  // measure 27
0000
0000
0310
0100
0001
2000
0000
0000
,  // measure 28
0000
0000
3001
0010
0100
0020
0000
0000
,  // measure 29
0000
0000
0130
0010
0001
2000
0000
0000
,  // measure 30
0000
0000
3001
0100
0001
2000
0000
0000
,  // measure 31
0000
0000
3100
1000
0010
0200
0000
0000
,  // measure 32
0000
0320
0000
0000
0000
2030
0000
0000
,  // measure 33
0000
0001
3001
1001
,  // measure 34
1001
0110
0110
1001
,  // measure 35
1001
0110
0110
1001
,  // measure 36
1001
0110
0110
1001
,  // measure 37
0110
1001
0000
1010
,  // measure 38
1100
1010
1100
0101
,  // measure 39
0011
0101
0011
1001
,  // measure 40
0110
1001
0110
1001
,  // measure 41
1100
0110
0011
1001
,  // measure 42
0000
0010
0000
0100
,  // measure 43
0010
0000
0000
0000
0100
0000
0000
0000
0000
0000
0000
0000
0001
0000
0000
1000
,  // measure 44
0000
0000
0200
0000
0000
0000
0000
0000
0000
0000
0300
0000
0010
0000
0000
0100
,  // measure 45
0000
0000
2000
0000
0000
0000
0000
0000
0000
0000
3000
0000
0100
0000
0000
1000
,  // measure 46
0000
0000
0010
0000
0000
0100
0000
0000
0010
0000
0100
0000
0001
0000
1000
0000
,  // measure 47
0100
0000
1000
0100
0010
0001
1000
0000
,  // measure 48
0001
0100
0000
0010
2000
0000
0000
3010
,  // measure 49
0100
0001
0010
0100
1000
0001
1000
0000
,  // measure 50
0100
1000
0000
1000
0020
0000
0000
0130
,  // measure 51
0001
0010
0100
1000
0001
1000
0100
0000
,  // measure 52
1000
0020
0000
0130
0001
0000
0010
0000
,  // measure 53
0100
0010
0001
1000
0100
0010
1001
0000
,  // measure 54
0000
0000
0000
1002
0000
0000
0103
0000
,  // measure 55
0000
0000
0000
1002
0000
0000
0103
0000
,  // measure 56
0000
0000
0000
1002
0000
0000
0103
0000
,  // measure 57
0000
0000
0000
2010
0000
0000
3100
0010
,  // measure 58
0001
1000
0100
0010
0001
1000
0100
0010
,  // measure 59
0001
1000
0100
0010
0001
1000
0100
0010
,  // measure 60
0100
1000
0100
0010
0001
0010
0100
0010
,  // measure 61
0001
1000
0001
0000
1000
0000
0010
0000
,  // measure 62
0100
0000
0001
0000
0010
0100
0010
0001
,  // measure 63
1001
0000
1000
0001
0100
0000
0001
0000
,  // measure 64
0010
0100
2000
3200
,  // measure 65
0320
0032
0103
0010
,  // measure 66
1000
0001
0010
0100
,  // measure 67
0010
0000
0001
0010
0100
0010
0001
0000
,  // measure 68
1000
0000
1001
0000
0010
0010
0010
0010
,  // measure 69
0010
0000
0200
0301
,  // measure 70
0200
0310
0200
0320
,  // measure 71
1030
0000
0100
0010
0001
0000
0010
0000
,  // measure 72
0001
0100
0020
2030
,  // measure 73
3002
0023
0230
2300
,  // measure 74
3020
0230
0302
0023
,  // measure 75
0230
0000
0320
0000
0130
0010
0001
1000
,  // measure 76
0010
0100
0001
1000
0001
0001
0001
0001
,  // measure 77
0001
0000
0001
0001
0001
0001
0001
0000
,  // measure 78
1000
0000
0001
0000
1000
1000
1000
1000
,  // measure 79
1000
0000
1000
1000
1000
1000
1000
0000
,  // measure 80
0001
1000
0010
0100
,  // measure 81
0001
1000
1001
0010
,  // measure 82
1001
0100
1001
0110
,  // measure 83
1001
0110
0101
0001
,  // measure 84
1100
1000
1010
0010
,  // measure 85
0110
0001
1010
0101
,  // measure 86
0011
1100
1001
0110
,  // measure 87
1001
0110
1001
0000
;

//---------------dance-single - ----------------
#NOTEDATA:;
#CHARTNAME:;
#STEPSTYPE:dance-single;
#DESCRIPTION:;
#CHARTSTYLE:;
#DIFFICULTY:Beginner;
#METER:5;
#RADARVALUES:0.192674,0.364237,0.116556,0.000000,0.000000,162.000000,148.000000,14.000000,0.000000,0.000000,0.000000,0.000000,0.000000,0.000000,0.192674,0.364237,0.116556,0.000000,0.000000,162.000000,148.000000,14.000000,0.000000,0.000000,0.000000,0.000000,0.000000,0.000000;
#CREDIT:Pandemonium X;
#NOTES:
// measure 0
0000
0000
0000
0000
,  // measure 1
0000
0000
0000
0000
,  // measure 2
0010
0000
0010
0000
,  // measure 3
0010
0000
0100
0010
,  // measure 4
1000
0000
1000
0000
,  // measure 5
1000
0000
0000
0000
,  // measure 6
0001
0000
0001
0000
,  // measure 7
0001
0000
0000
0000
,  // measure 8
0100
0000
0100
0000
,  // measure 9
0100
0000
0000
0000
,  // measure 10
0010
0000
0010
0000
,  // measure 11
0010
0000
0000
0000
,  // measure 12
1000
0000
0000
0000
,  // measure 13
0000
0100
0000
0000
,  // measure 14
0000
0000
0010
0000
,  // measure 15
0000
0000
0000
0001
,  // measure 16
0000
0000
0000
1000
,  // measure 17
0000
0001
0000
0100
,  // measure 18
0000
0000
0000
0010
,  // measure 19
0010
0010
0000
1000
,  // measure 20
0000
0000
0000
0100
,  // measure 21
0100
0100
0000
1000
,  // measure 22
0000
0000
0000
0001
,  // measure 23
1000
0001
0000
0100
,  // measure 24
0000
0000
0000
0010
,  // measure 25
1000
0100
1000
0010
,  // measure 26
0000
0100
0000
0000
,  // measure 27
0000
0010
0000
0000
,  // measure 28
0000
1000
0000
0000
,  // measure 29
0000
0001
0000
0000
,  // measure 30
0000
0010
0000
0000
,  // measure 31
0000
0001
0000
1000
,  // measure 32
0000
0001
0000
0100
,  // measure 33
0000
0010
0010
1001
,  // measure 34
0000
1000
0000
0001
,  // measure 35
0000
0100
0000
0001
,  // measure 36
0000
0010
0000
0001
,  // measure 37
0001
0001
0000
1000
,  // measure 38
0000
0001
0000
1000
,  // measure 39
0000
0010
0000
1000
,  // measure 40
0000
0100
0000
1000
,  // measure 41
0000
0010
0000
0100
,  // measure 42
0000
0000
0000
0100
,  // measure 43
0000
0000
0000
0010
,  // measure 44
0000
0000
0000
1000
,  // measure 45
0000
0000
0000
0001
,  // measure 46
0000
0000
0000
0100
,  // measure 47
0000
0010
0000
1000
,  // measure 48
0000
0000
0000
0100
,  // measure 49
0000
0000
0000
0010
,  // measure 50
0000
0000
0000
0001
,  // measure 51
0000
0000
0000
1000
,  // measure 52
0000
0000
0000
0010
,  // measure 53
0000
0000
0000
0110
,  // measure 54
0000
0000
0000
0110
,  // measure 55
0000
0000
0000
0110
,  // measure 56
0000
0000
0000
0110
,  // measure 57
0000
0000
0000
1001
,  // measure 58
0000
0000
0000
0000
,  // measure 59
0000
0000
0000
0000
,  // measure 60
0000
0000
0000
0000
,  // measure 61
0000
0000
0001
0000
,  // measure 62
1000
0000
0001
1000
,  // measure 63
0001
0000
0100
0000
,  // measure 64
0010
0000
1000
0100
,  // measure 65
0010
0001
1000
0000
,  // measure 66
0001
0000
1000
0000
,  // measure 67
0010
0000
1000
0000
,  // measure 68
0001
0000
0100
0100
,  // measure 69
0100
0000
0010
0000
,  // measure 70
1000
0000
0001
1000
,  // measure 71
0001
0000
1000
0000
,  // measure 72
0010
0000
0100
0010
,  // measure 73
1000
0001
1000
0000
,  // measure 74
1000
0000
0001
0000
,  // measure 75
0001
0000
1000
0000
,  // measure 76
0001
0000
0100
0100
,  // measure 77
0100
0100
0100
0100
,  // measure 78
0010
0000
0010
0010
,  // measure 79
0010
0010
0010
0010
,  // measure 80
0100
0000
1001
0000
,  // measure 81
0000
0000
1000
0000
,  // measure 82
0000
0000
0001
0000
,  // measure 83
0000
0000
0110
0000
,  // measure 84
0000
0000
1001
0000
,  // measure 85
0000
0000
0110
0000
,  // measure 86
1001
0000
0110
0000
,  // measure 87
1001
0000
0110
0000
;
