#TITLE:20,november (HOMMARJU REMIX);
#SUBTITLE:;
#ARTIST:Hommarju ft. Mayumi Morinaga;
#TITLETRANSLIT:;
#SUBTITLETRANSLIT:;
#ARTISTTRANSLIT:;
#GENRE:HARD HOUSE;
#CREDIT:Pandemonium X;
#BANNER:20,november (HOMMARJU REMIX)-banner.png;
#BACKGROUND:background.png;
#LYRICSPATH:;
#CDTITLE:;
#MUSIC:20,november (HOMMARJU REMIX).mp3;
#OFFSET:-4.838001;
#SAMPLESTART:34.459999;
#SAMPLELENGTH:11.000000;
#SELECTABLE:YES;
#BPMS:0.000000=170.000000
;
#STOPS:
;
#BGCHANGES:;
#KEYSOUNDS:;
#ATTACKS:;

//---------------dance-single - ----------------
#NOTES:
     dance-single:
     :
     Hard:
     15:
     0.648819,1.068827,0.280450,0.366143,0.708916,583.000000,547.000000,36.000000,47.000000,0.000000,0.000000,0.648819,1.068827,0.280450,0.366143,0.708916,583.000000,547.000000,36.000000,47.000000,0.000000,0.000000:
0000
0000
0000
0000
,
1000
0000
0000
0000
0000
0000
0001
0000
0000
0000
0000
0000
0000
0000
0100
0010
,
1000
0000
0100
1000
0000
0000
0010
0100
,
1000
0000
0000
0000
0000
0000
0010
0000
0000
0000
0000
0000
0000
0000
0100
0001
,
0010
1000
0010
0001
0000
0000
0000
0000
,
1000
0000
0010
0100
0000
0001
0011
0000
,
0010
0000
0100
1000
0000
0010
0110
0000
,
0100
0000
0001
1000
0000
0100
1100
0000
,
1000
0000
0001
0100
0000
0001
0011
0000
,
0010
0000
0100
1000
0000
0001
1001
0000
,
1000
0000
0001
0010
0000
0100
0110
0000
,
0100
0000
1000
0010
0000
0100
0101
0000
,
0001
0000
1000
0010
0000
1000
1100
0000
,
0011
0000
0000
0000
0011
0000
0000
0000
0010
0001
0000
0001
0000
0000
0001
0000
,
0000
0000
1000
0000
0001
1000
0000
1000
0001
0000
0001
0010
0000
0100
1000
0000
,
0000
0000
0001
0000
1000
0010
0000
0010
1000
0000
1000
0001
0000
0001
0010
0000
,
0100
0000
1000
0000
0100
0000
0001
0000
0100
0000
0000
0011
0000
0000
0000
0000
,
0001
0100
0001
0100
0010
1000
0010
1000
,
0100
1000
0100
1000
0001
0010
0001
0010
,
0100
1000
0100
1000
0001
0010
0001
0010
0001
0100
0001
0100
0010
1000
0010
1000
,
0001
0100
0001
0100
0001
0100
0001
0100
0001
0100
0001
0010
0200
0000
0000
0000
,
0310
0001
0000
0100
0000
1000
0100
0002
0000
0000
0000
0000
0003
0000
0000
0000
,
0010
0100
0000
1000
0000
0001
0100
0020
0000
0000
0000
0000
0030
0000
0000
0000
,
1000
0001
0000
0100
0000
1000
0010
0002
0000
0000
0000
0000
0003
0000
0000
0000
,
0010
1000
0000
0001
0000
1000
0100
0020
0000
0000
0000
0000
0030
0000
0000
0000
,
0100
1000
0000
0010
0000
0001
1000
0200
0000
0000
0000
0000
0300
0000
0000
0000
,
0010
0001
0000
0100
0000
0010
1000
0002
0000
0000
0000
0000
0003
0000
0000
0000
,
1000
0100
0000
0001
0000
0100
0010
0002
0000
0000
0000
0000
0003
0000
0000
0000
,
0000
1000
0010
1000
0001
0010
0001
0100
0001
0010
0100
1000
0100
0010
0100
1000
,
0001
0000
0000
0001
0000
0000
0001
0000
0000
0001
0000
0000
0001
0000
0010
0000
,
0100
0000
0000
0100
0000
0000
0100
0000
0000
0100
0000
0000
0100
0000
0010
0000
,
0001
0000
0000
0001
0000
0000
0001
0000
0000
0001
0000
0000
0100
0000
0010
0000
,
1000
0000
0000
1000
0000
0000
1000
0000
0000
1000
0000
0000
0010
0000
0100
0000
,
0001
0000
0000
0001
0000
0000
0001
0000
0000
0001
0000
0000
0001
0000
0100
0000
,
0010
0000
0000
0010
0000
0000
0010
0000
0000
0010
0000
0000
0010
0000
0100
0000
,
0001
0000
0000
0001
0000
0000
0001
0000
0000
0001
0000
0000
0001
0000
1000
0000
,
0100
0000
0000
0100
0000
0000
0100
0000
0000
0100
0000
0000
0100
0000
0010
0000
,
0001
0000
1000
0010
0000
0001
0010
0100
,
0001
0000
1000
0100
0000
0001
0100
0000
,
0010
0000
0100
1000
0000
1000
0100
0001
,
0100
0000
0010
0001
0000
1000
0100
0000
,
1000
0000
0010
0001
0000
0010
0100
0001
,
1000
0000
0100
1000
0000
1000
0010
0000
,
0100
0000
0001
0010
0000
0010
0001
0000
,
1000
0001
1000
0001
1000
0001
1000
0001
1000
0001
1000
0001
0020
0000
0000
0000
,
0230
1000
1000
1300
,
0012
0010
0010
0013
,
0201
0001
0001
0301
,
1020
0130
0021
0130
,
1002
1000
1000
1003
,
2001
0001
0001
3001
,
0102
0100
0100
0103
,
0021
0130
2100
3010
,
0100
0001
0010
0001
1000
0010
0100
0001
,
0010
0100
0010
0001
1000
0010
1000
0001
,
0010
0100
0010
0001
1000
0010
1000
0100
,
0010
0100
1000
0010
0100
0001
0010
0100
,
1000
0100
1000
0000
0100
0010
0100
0000
0010
0001
0010
0000
0001
0100
0001
0000
,
0100
0010
0100
0000
0010
1000
0010
0000
1000
0001
1000
0000
0010
0100
0010
0000
,
1000
0010
1000
0010
0100
0001
0100
0001
1000
0001
1000
0001
0010
0100
0010
0100
,
1000
0100
1000
0100
0010
0001
0010
0001
0100
0001
0100
0001
0020
0000
0000
0000
,
0230
0000
0000
2000
0000
0000
3300
0000
,
1100
0000
0000
0110
0000
0000
0021
0000
0000
0000
0030
0000
0001
0000
0010
0000
,
0110
0000
0000
0011
0000
0000
0201
0000
0000
0000
0300
0000
0001
0000
0100
0000
,
0010
0000
1000
0000
0001
0000
0010
0000
0100
0000
0000
1001
0000
0000
0000
0000
,
0101
0000
0000
1010
0000
0000
1002
0000
0000
0000
0003
0000
1000
0000
0100
0000
,
0110
0000
0000
1100
0000
0000
1020
0000
0000
0000
0000
0000
1030
0000
0000
0000
,
0110
0000
0000
0101
0000
0000
0021
0000
0000
0000
0030
0000
0100
0000
0010
0000
,
0002
0000
0000
2003
0000
0000
0020
0000
0000
0000
0000
0000
3030
0000
0000
0000
,
0100
0001
0000
0010
0000
0100
1000
0020
0000
0000
0000
0000
0030
0000
0000
0000
,
0100
0010
0000
1000
0000
0001
1000
0020
0000
0000
0000
0000
0030
0000
0000
0000
,
0100
0001
0000
0010
0000
0100
1000
0020
0000
0000
0000
0000
0030
0000
0000
0000
,
0100
0010
0000
1000
0000
0001
1000
0020
0000
0000
0000
0000
0030
0000
0000
0000
,
1000
0100
0000
0010
0000
0001
0010
0200
0000
0000
0000
0000
0300
0000
0000
0000
,
0010
0100
0000
1000
0000
0001
0010
0002
0000
0000
0000
0000
0003
0000
0000
0000
,
1000
0100
0000
0010
0000
0001
0010
0200
0000
0000
0000
0000
0300
0000
0000
0000
,
0010
0100
0000
1000
0000
0001
0010
0002
0000
0000
0000
0000
0003
0000
0000
0000
,
1000
0010
0000
0100
0000
0001
0010
0200
0000
0000
0000
0000
0300
0000
0000
0000
,
0010
0001
0000
1000
0000
0010
0100
0002
0000
0000
0000
0000
0003
0000
0000
0000
,
1000
0100
0000
1000
0000
0010
0100
0002
0000
0000
0000
0000
0003
0000
0000
0000
,
0010
0100
0000
0010
0000
0001
1000
0200
0000
0000
0000
0000
0300
0000
0000
0000
,
1000
0100
0000
0001
0000
0100
1000
0020
0000
0000
0000
0000
0030
0000
0000
0000
,
0100
1000
0000
0100
0000
0001
0100
0020
0000
0000
0000
0000
0030
0000
0000
0000
,
0100
0001
0000
0010
0000
1000
0010
0002
0000
0000
0000
0000
0003
0000
0000
0000
,
0000
1000
0100
1000
0010
0100
0001
0010
0100
0010
0001
1000
0010
0100
0001
0010
,
0200
0000
0000
0020
0000
0000
0330
0000
;

//---------------dance-single - ----------------
#NOTES:
     dance-single:
     :
     Medium:
     12:
     0.568691,0.602968,0.537530,0.031161,0.000000,511.000000,442.000000,69.000000,4.000000,0.000000,0.000000,0.568691,0.602968,0.537530,0.031161,0.000000,511.000000,442.000000,69.000000,4.000000,0.000000,0.000000:
0000
0000
0000
0000
,
1000
0000
0000
0010
0000
0000
0000
0000
,
1000
0000
0000
0100
0000
0000
1000
0010
,
0100
0000
0000
0001
0000
0000
0000
0010
,
0001
1000
0010
0100
0000
0000
0000
0000
,
0001
0000
1000
0100
0000
1000
0010
0000
,
0100
0000
0001
0010
0000
0001
0100
0000
,
0010
0000
1000
0001
0000
0010
0100
0000
,
0010
0001
1000
0010
0000
0000
0000
0000
,
0100
0000
0010
1000
0000
0001
0010
0000
,
0100
0000
0010
0001
0000
1000
0010
0000
,
0100
0000
0001
0100
0000
0001
1000
0000
,
0001
0010
0100
0010
0000
0000
0000
0000
,
1100
1100
1100
1100
,
0101
0101
0101
0101
,
0011
0011
0011
0011
,
1010
1010
1010
1010
,
1000
0001
0010
0000
0100
0010
0001
0000
,
0100
0010
1000
0000
0001
0100
0010
0000
,
1000
0010
0100
0000
0001
0010
0100
0000
,
2002
0000
0000
3003
,
0001
1000
0001
1000
0001
1000
1001
0000
,
1000
0100
1000
0100
1000
0100
1001
0000
,
0001
1000
0001
1000
0001
1000
1001
0000
,
1000
0010
1000
0010
1000
0010
1001
0000
,
0010
0100
0010
0100
0010
0100
0110
0000
,
0100
0001
0100
0001
0100
0001
0110
0000
,
0010
0100
0010
0100
0010
0100
0010
0100
,
0001
0010
1000
0010
0001
0100
0010
1000
,
0100
0000
1000
0001
0000
0100
0010
0000
,
1000
0000
0001
0010
0000
0100
0010
0000
,
0100
0000
1000
0010
0000
0100
0001
0000
,
0010
0000
0100
0010
0000
0001
0010
0100
,
1000
0000
0001
0100
0000
0010
1000
0000
,
0001
0000
0010
0100
0000
0010
0001
0000
,
1000
0000
0001
0100
0000
0010
1000
0000
,
0100
0000
1000
0010
0000
0100
0001
1000
,
0100
0000
1000
0010
0000
0100
0001
0010
,
0100
0000
0010
0001
0000
0001
0010
0000
,
0100
0000
0010
0001
0000
0010
0001
0100
,
0010
0000
1000
0010
0000
0010
0100
0000
,
0010
0000
0100
0001
0000
0100
1000
0001
,
0100
0000
0010
1000
0000
0001
0100
0000
,
0001
0000
0010
0100
0000
0010
0001
0000
,
1000
0000
0001
0100
0000
0100
0010
0000
,
1010
1100
1010
1100
,
0101
0011
0101
0011
,
1001
0110
1001
0110
,
0001
0100
0010
1000
0010
0000
1001
0000
,
0011
0101
0011
0101
,
1010
1100
1010
1100
,
1001
0110
1001
0110
,
1001
1100
0110
0000
,
0010
0001
0100
0000
0010
1000
0001
0000
,
0010
0100
1000
0000
0100
0010
0001
0000
,
0010
0001
0100
0000
0010
1000
0001
0000
,
1000
0001
0010
0100
0010
0001
1000
0000
,
0001
0100
0010
0000
1000
0100
0001
0000
,
0100
1000
0010
0000
1000
0010
0001
0000
,
0010
0100
0001
0000
0010
0100
1000
0000
,
0100
0010
0001
1000
0010
0100
0001
0000
,
1000
0000
1010
0000
1000
0010
0100
0000
,
0001
0000
0101
0000
0001
0010
0100
0000
,
1000
0000
1100
0000
0100
1000
0010
0000
,
0110
1001
1010
0101
,
0001
0010
0100
0000
0010
0000
0011
0000
,
0010
0100
1000
0000
0100
0000
1100
0000
,
0100
1000
0010
0000
0100
0000
0110
0000
,
0001
1000
0010
0000
0100
0000
0000
0000
,
0001
0100
0010
1000
0001
0000
0000
0000
,
1000
0100
0010
0100
1000
0000
0000
0000
,
0100
0010
0001
1000
0010
0000
0000
0000
,
0100
0001
0100
0010
0100
0000
0000
0000
,
0010
0001
1000
0100
0010
0000
0000
0000
,
0100
0010
0001
1000
0010
0000
0000
0000
,
0100
1000
0100
0001
1000
0000
0000
0000
,
0001
0010
1000
0010
0001
0000
1001
0000
,
0001
0100
0010
1000
0001
0000
1001
0000
,
1000
0100
0010
0001
0010
0000
0110
0000
,
0100
1000
0010
0100
0001
0000
1001
0000
,
1000
0100
0010
0100
1000
0000
0011
0000
,
0001
0100
0010
1000
0001
0000
1100
0000
,
0010
0100
0010
0001
1000
0000
0101
0000
,
0001
1000
0010
1000
0001
0000
0011
0000
,
0000
0100
0010
0001
0100
0010
1000
0001
,
0020
0000
0000
0230
0000
0000
0000
0000
,
0300
0000
0000
0000
;

//---------------dance-single - ----------------
#NOTES:
     dance-single:
     :
     Easy:
     7:
     0.312724,0.401979,0.015581,0.257079,0.000000,281.000000,279.000000,2.000000,33.000000,0.000000,0.000000,0.312724,0.401979,0.015581,0.257079,0.000000,281.000000,279.000000,2.000000,33.000000,0.000000,0.000000:
0000
0000
0000
0000
,
1000
0000
0000
1000
0000
0000
0000
0000
,
0001
0000
0000
0001
0000
0000
0000
0000
,
1000
0000
0000
1000
0000
0000
0000
0000
,
0010
0000
0000
0100
0000
0000
0000
0000
,
0001
0000
0000
0100
0000
0000
0000
0000
,
0010
0000
0000
1000
0000
0000
0100
0010
,
0001
0000
0000
0010
0000
0000
0000
0000
,
0100
0000
0000
1000
0000
0000
0000
0000
,
0001
0000
0000
0100
0000
0000
0000
0000
,
0010
0000
0000
1000
0000
0000
0001
1000
,
0010
0000
0000
1000
0000
0000
0000
0000
,
0100
0000
0000
1000
0000
0000
0000
0000
,
0010
0010
0100
0100
,
0001
0001
1000
1000
,
0001
0001
1000
1000
,
0100
0010
0001
0010
,
0100
1000
0010
0100
,
0001
0010
0100
0010
,
0001
0100
0010
1000
,
2002
0000
0000
3003
,
0001
0100
0020
0030
,
0100
0001
2000
3000
,
0001
0100
0020
0030
,
0100
0001
2000
3000
,
0001
1000
0200
0300
,
1000
0001
0020
0030
,
0001
1000
0200
0300
,
0000
0010
0100
1000
,
0001
0000
0000
1000
0000
0000
0010
0000
,
1000
0000
0000
0100
0000
0000
1000
0000
,
0010
0000
0000
0100
0000
0000
0001
0000
,
0010
0000
0000
1000
0000
0000
0010
0000
,
0001
0000
0000
1000
0000
0000
0100
0000
,
1000
0000
0000
0010
0000
0000
0100
0000
,
0010
0000
0000
1000
0000
0000
0001
0000
,
0010
0000
0000
0001
0000
0000
1000
0000
,
0001
0000
0000
1000
0000
0000
0010
0000
,
1000
0000
0000
0100
0000
0000
0100
0000
,
0010
0000
0000
0001
0000
0000
1000
0000
,
0001
0000
0000
0100
0000
0000
0100
0000
,
0010
0000
0000
1000
0000
0000
0001
0000
,
0010
0000
0000
0001
0000
0000
0001
0000
,
1000
0000
0000
1000
0000
0000
1000
0000
,
0010
0000
0000
0010
0000
0000
0010
0000
,
0100
0100
0100
0100
,
0001
0001
0001
0001
,
0010
0010
0010
0010
,
0100
0100
0010
0010
,
0100
0100
0100
0100
,
1000
1000
1000
1000
,
0001
0001
0001
0001
,
1000
0001
1000
0000
,
0001
0100
1000
0100
,
0001
0010
1000
0010
,
0001
0010
0100
1000
,
0100
0100
0100
0100
,
1000
0010
0100
0001
,
0010
0100
0010
0001
,
1000
0010
0100
0001
,
1000
0001
1000
0000
,
0002
0000
0000
0103
0000
0000
0000
0000
,
0020
0000
0000
1030
0000
0000
0100
0010
,
0002
0000
0000
0013
0000
0000
0100
1000
,
0010
0100
1001
0000
,
2000
0000
0000
3010
0000
0000
0100
0001
,
0020
0000
0000
0130
0000
0000
0010
0001
,
2000
0000
0000
3100
0000
0000
1000
0010
,
0200
0000
0000
0301
0000
0000
0000
0000
,
1000
0001
0200
0300
,
0001
0010
0200
0300
,
0010
0001
2000
3000
,
0100
1000
0020
0030
,
0100
0001
2000
3000
,
0001
0010
0200
0300
,
0010
0001
2000
3000
,
0001
1000
0020
0030
,
1000
0000
0001
0100
0002
0000
0003
0000
,
0100
0000
0010
0100
0020
0000
0030
0000
,
0100
0000
0010
1000
0020
0000
0030
0000
,
1000
0000
0100
1000
0200
0000
0300
0000
,
0010
0000
0001
0010
0002
0000
0003
0000
,
1000
0000
0001
0100
0002
0000
0003
0000
,
0100
0000
0010
1000
0020
0000
0030
0000
,
0000
1000
0100
0010
0001
1000
0100
0010
,
0002
0000
0000
2000
0000
0000
0000
0000
,
3003
0000
0000
0000
;

//---------------dance-single - ----------------
#NOTES:
     dance-single:
     :
     Beginner:
     3:
     0.107951,0.165544,0.023371,0.000000,0.000000,97.000000,94.000000,3.000000,0.000000,0.000000,0.000000,0.107951,0.165544,0.023371,0.000000,0.000000,97.000000,94.000000,3.000000,0.000000,0.000000,0.000000:
// measure 0
0000
0000
0000
0000
,  // measure 1
1000
0000
0000
0000
,  // measure 2
0001
0000
0000
0000
,  // measure 3
1000
0000
0000
0000
,  // measure 4
0100
0000
0000
0000
,  // measure 5
1000
0000
0000
0000
,  // measure 6
0010
0000
0000
0000
,  // measure 7
1000
0000
0000
0000
,  // measure 8
0001
0000
0000
0000
,  // measure 9
0010
0000
0000
0000
,  // measure 10
0001
0000
0000
0000
,  // measure 11
1000
0000
0000
0000
,  // measure 12
0100
0000
0000
0000
,  // measure 13
1000
0000
1000
0000
,  // measure 14
1000
0000
0000
0000
,  // measure 15
0001
0000
0001
0000
,  // measure 16
0001
0000
0000
0000
,  // measure 17
0100
0000
0100
0000
,  // measure 18
0100
0000
0000
0000
,  // measure 19
0010
0000
0010
0000
,  // measure 20
0110
0000
0000
0000
,  // measure 21
1000
0000
0000
0000
,  // measure 22
0001
0000
0000
0000
,  // measure 23
1000
0000
0000
0000
,  // measure 24
0001
0000
0000
0000
,  // measure 25
1000
0000
0000
0000
,  // measure 26
0001
0000
0000
0000
,  // measure 27
1000
0000
0000
0000
,  // measure 28
0010
0000
0000
0000
,  // measure 29
0100
0000
0000
0000
,  // measure 30
0010
0000
0000
0000
,  // measure 31
1000
0000
0000
0000
,  // measure 32
0100
0000
0000
0000
,  // measure 33
0010
0000
0000
0000
,  // measure 34
0001
0000
0000
0000
,  // measure 35
1000
0000
0000
0000
,  // measure 36
0001
0000
0000
0000
,  // measure 37
0100
0000
0000
0000
,  // measure 38
0010
0000
0000
0000
,  // measure 39
1000
0000
0000
0000
,  // measure 40
0001
0000
0000
0000
,  // measure 41
0010
0000
0000
0000
,  // measure 42
0001
0000
0000
0000
,  // measure 43
1000
0000
0000
0000
,  // measure 44
0010
0000
0000
0000
,  // measure 45
0100
0000
0000
0000
,  // measure 46
0010
0000
0000
0000
,  // measure 47
1000
0000
0000
0000
,  // measure 48
0001
0000
1000
0000
,  // measure 49
0001
0000
0000
0000
,  // measure 50
0100
0000
0000
0000
,  // measure 51
0001
0000
0000
0000
,  // measure 52
0010
0000
0001
0000
,  // measure 53
1000
0000
0000
0000
,  // measure 54
0001
0000
0000
0000
,  // measure 55
0100
0000
0000
0000
,  // measure 56
0010
0000
1000
0000
,  // measure 57
0100
0000
0000
0000
,  // measure 58
0010
0000
0000
0000
,  // measure 59
0001
0000
0000
0000
,  // measure 60
1000
0000
0000
0000
,  // measure 61
0110
0000
0000
0000
,  // measure 62
0010
0000
0000
0000
,  // measure 63
1000
0000
0000
0000
,  // measure 64
0100
0000
1000
0000
,  // measure 65
0010
0000
0000
0000
,  // measure 66
0100
0000
0000
0000
,  // measure 67
0001
0000
0000
0000
,  // measure 68
0010
0000
0001
0000
,  // measure 69
0100
0000
0000
0000
,  // measure 70
0010
0000
0000
0000
,  // measure 71
0100
0000
0000
0000
,  // measure 72
0010
0000
0000
0000
,  // measure 73
0100
0000
0000
0000
,  // measure 74
0010
0000
0000
0000
,  // measure 75
0100
0000
0000
0000
,  // measure 76
0010
0000
0000
0000
,  // measure 77
1000
0000
0000
0000
,  // measure 78
0100
0000
0000
0000
,  // measure 79
0010
0000
0000
0000
,  // measure 80
0001
0000
0000
0000
,  // measure 81
0001
0000
0000
0000
,  // measure 82
0010
0000
0000
0000
,  // measure 83
0100
0000
0000
0000
,  // measure 84
1000
0000
0000
0000
,  // measure 85
0110
0000
0000
0000
;
