#TITLE:voodoo people;
#SUBTITLE:;
#ARTIST:The Prodigy;
#TITLETRANSLIT:;
#SUBTITLETRANSLIT:;
#ARTISTTRANSLIT:;
#GENRE:OLD SKOOL BREAKBEATS;
#CREDIT:;
#BANNER:bn.png;
#BACKGROUND:bg.png;
#LYRICSPATH:;
#CDTITLE:;
#MUSIC:voodoo people.mp3;
#OFFSET:-0.001;
#SAMPLESTART:64.460;
#SAMPLELENGTH:12.000;
#SELECTABLE:YES;
#BPMS:0.000=149.010
;
#STOPS:94.000=0.201
,94.500=0.201
,253.000=0.201
,253.500=0.201
;
#BGCHANGES:;
#KEYSOUNDS:;
#ATTACKS:;

//---------------dance-single - ----------------
#NOTES:
     dance-single:
     :
     Hard:
     8:
     0.441,0.489,0.299,0.145,0.000,309.000,35.000,17.000,0.000,0.000,0.000,0.441,0.489,0.299,0.145,0.000,309.000,35.000,17.000,0.000,0.000,0.000:
0000
0000
0000
0000
,
0000
0000
0000
0000
,
0000
0000
0000
0000
,
0000
0000
0000
0000
,
0101
0010
1000
0000
1000
0001
0100
0001
,
0000
1001
0000
1000
0010
0000
0100
0000
,
0101
0010
1000
0000
1000
0001
0010
1000
,
0000
0010
0000
0010
0001
0000
0100
0000
,
1001
0010
0100
0000
0100
0001
1000
0100
,
0000
0110
0000
0100
1000
0000
0010
0000
,
0110
0100
0001
0000
0001
0100
0010
0110
,
0000
1001
0000
1000
0020
0000
2030
0000
,
3001
0000
0001
1000
0000
0001
1000
0000
,
0001
1000
0000
0001
1000
0000
0010
0000
,
0100
0010
0000
0100
0010
0000
0100
0010
,
0000
0100
0010
0000
0100
0000
0010
0000
,
1001
0000
0001
0000
0100
0000
0000
0010
,
0000
0100
0000
0010
1000
0001
0010
0100
,
1100
0000
1000
0000
1001
0000
0000
0001
,
0000
0100
0000
0010
1000
0100
0010
0001
,
0100
0000
0010
0000
1001
0000
0000
0001
,
0000
0100
0000
0100
0010
1000
0001
0010
,
0100
0000
1000
0000
0010
0000
0000
0100
,
0000
0001
0000
1000
0100
0010
0002
0000
,
0000
0000
0000
0000
0000
0003
0000
0000
,
0000
0200
0000
0020
,
0000
0000
0000
0300
0000
0030
0000
0000
,
0000
0200
0000
2000
,
0000
0000
0000
3000
0000
0300
0000
0000
,
0000
0200
0000
0020
,
0000
0000
0000
0300
0000
0030
0000
0000
,
0000
0000
0100
0000
0000
0000
0001
1000
,
0001
0000
0100
0001
0100
0010
0000
0100
,
0000
0010
1000
0010
0000
0000
1000
0001
,
0100
0000
0001
0100
0010
1000
0000
0100
,
0000
1000
0100
0010
0000
0000
0010
0100
,
1000
0000
0001
1000
0001
0100
0000
0100
,
0000
0010
1000
0001
0000
0000
0001
0100
,
0010
0000
1000
0100
0010
0001
0000
0010
,
0000
0001
0010
1000
0000
0000
1000
0010
,
0001
0100
0000
0110
0000
1001
0000
0101
,
0000
0001
0100
1000
0100
0001
0010
0100
,
1000
0100
0000
1100
0000
0001
0000
0101
,
0000
0001
0100
0010
1000
0010
0100
0000
,
0001
1000
0000
1100
0000
1001
0000
0110
,
0000
0100
0010
1000
0001
0010
0100
0000
,
1000
0100
0000
1100
0000
1001
0000
0101
,
0000
0001
0100
1000
0100
0001
0010
0000
,
1001
0000
0101
0000
0001
0100
0000
0010
,
0000
0100
0001
1000
0100
0010
0100
0000
,
1000
0000
0101
0000
0000
0001
0000
1000
,
0000
1000
0010
0100
0001
0100
0010
0000
,
0101
0000
0110
0000
0000
0100
0000
0001
,
0000
1000
0001
0010
0100
0010
0001
0000
,
1000
0000
0010
0000
0000
0100
0000
0001
,
0000
1000
0100
0010
0100
1000
0001
0100
,
0010
0000
0100
0001
1000
0100
0010
0100
,
1000
0100
0010
0010
0010
0000
0001
0100
,
0010
0000
0100
0010
1000
0001
0010
1000
,
0010
0001
0100
0100
0100
0000
0010
1000
,
0001
0000
0001
1000
0010
0000
1000
0100
,
0010
0100
1000
1000
1000
0000
1000
0001
,
1000
0000
0010
0100
0001
0000
0001
0100
,
0010
1000
0001
0010
0120
0000
0000
0000
,
0000
0000
0000
0100
0030
0100
0000
0000
,
0000
0000
2001
0000
,
0000
0000
3000
0010
0000
0010
0000
0000
,
0000
2002
0000
3003
0102
0000
0000
0000
,
0000
0000
0000
1000
0003
1000
0000
0000
,
0000
0000
0120
0000
,
0030
0000
0000
0100
0000
0100
0000
0000
,
0000
0220
0000
0330
1001
0000
0000
0000
;

//---------------dance-single - ----------------
#NOTES:
     dance-single:
     :
     Medium:
     5:
     0.310,0.336,0.111,0.051,0.000,235.000,13.000,6.000,0.000,0.000,0.000,0.310,0.336,0.111,0.051,0.000,235.000,13.000,6.000,0.000,0.000,0.000:
0000
0000
0000
0000
,
0000
0000
0000
0000
,
0000
0000
0000
0000
,
0000
0000
0000
0000
,
1001
0001
1000
0100
,
1000
0010
0100
0001
,
0011
0011
1100
0010
,
1000
0010
0100
0001
,
1001
0001
1000
1000
,
0010
0100
0001
0010
,
1100
1100
0011
0001
,
0100
0010
1000
0001
,
0200
0000
0000
0000
,
0000
0000
0000
0300
,
0020
0000
0000
0000
,
0000
0000
0000
0030
,
0010
0100
0010
1000
,
0001
0000
0010
0000
0100
1000
0001
0000
,
0100
0100
0010
0010
,
1000
0000
0001
0000
0010
0100
1000
0000
,
0100
0010
0001
1000
,
0001
0000
0100
0000
0010
1000
0001
0000
,
0010
0100
1000
0010
,
0100
0000
0001
0000
1000
0001
0200
0000
,
0000
0000
0000
0000
0000
0300
0000
0000
,
0000
0010
0000
2000
,
0000
0000
0000
0000
0000
3000
0000
0000
,
0000
0001
0000
0020
,
0000
0000
0000
0000
0000
0030
0000
0000
,
0000
0100
0000
0020
,
0000
0000
0000
0000
0000
0030
0000
0000
,
0000
0011
0000
0001
,
0001
1000
1000
0001
,
1000
0001
1000
0010
,
0010
0100
0100
0010
,
0100
0010
0100
0010
,
1000
0010
0010
1000
,
1000
0010
1000
0001
,
0001
0100
0100
0001
,
0100
0001
0100
0001
,
0100
0010
1000
0010
,
0100
0000
0001
0100
0010
1000
0100
0000
,
1000
0010
1000
0001
,
0010
0000
0100
0010
0001
1000
0001
0000
,
0100
0001
0010
0001
,
0100
0000
0010
1000
0010
1000
0100
0000
,
1000
0010
0010
0100
,
0001
0000
1000
0001
0100
0001
0010
0000
,
0100
1000
0100
0010
,
0001
0000
0010
0001
0010
0100
1000
0000
,
0100
1000
0010
0100
,
0001
0000
0001
0100
0010
0100
0001
0000
,
1000
0001
0100
0010
,
1000
0000
0100
1000
0010
0000
0100
0000
,
0010
1000
0001
0010
,
0100
0000
1000
0001
0100
0001
0100
0000
,
0001
0000
0010
0000
0000
0010
0000
0001
,
0000
0001
0100
0000
0110
0000
0010
0000
,
1000
0000
0100
0000
0000
0100
0000
1000
,
0000
0010
0100
0001
1000
0100
0010
0000
,
0001
0000
0011
0000
0000
0001
0000
0001
,
0000
0001
0100
0000
0110
0000
0010
0000
,
1000
0000
0100
0000
0000
1000
0000
0100
,
0000
1000
0100
0010
0001
0000
0000
0000
,
0000
0000
0000
0001
0000
0001
0000
0000
,
0000
0000
1000
0000
,
0000
0000
0000
0010
0000
0010
0000
0000
,
0000
0000
0100
0000
,
0000
0000
0000
0010
0000
0010
0000
0000
,
0000
0000
1000
0000
,
0000
0000
0000
0001
0000
0001
0000
0000
,
0000
0000
1001
0000
;

//---------------dance-single - ----------------
#NOTES:
     dance-single:
     :
     Easy:
     4:
     0.265,0.306,0.111,0.000,0.000,204.000,13.000,0.000,0.000,0.000,0.000,0.265,0.306,0.111,0.000,0.000,204.000,13.000,0.000,0.000,0.000,0.000:
0000
0000
0000
0000
,
0000
0000
0000
0000
,
0000
0000
0000
0000
,
0000
0000
0000
0000
,
1001
0001
0100
0001
,
0010
0010
0001
0100
,
0010
1000
0010
0100
,
0010
1000
0001
0010
,
0100
0100
0010
0001
,
1000
0100
1000
0010
,
0100
0100
0100
0010
,
1000
0001
0010
0100
,
1000
0000
0000
0000
0000
0000
0000
1000
,
0000
1000
0000
0000
0000
0000
0000
0000
,
1001
0000
0000
0000
0000
0000
0000
0001
,
0000
0001
0000
0000
0000
0000
0000
0000
,
0101
0001
0100
0010
,
0100
0001
0100
0010
,
1100
1000
0100
0010
,
0100
1000
0100
0100
,
0110
0010
0001
1000
,
0010
0001
1000
0010
,
0011
0001
0100
1000
,
0100
0000
0001
0000
1000
1000
1000
0000
,
0000
0000
0000
0000
,
0000
0000
0000
0001
,
0000
0000
0000
0000
,
0000
0000
0000
0100
,
0000
0000
0000
0000
,
0000
0000
0000
0010
,
0000
0000
0000
0000
,
0000
0100
0000
0001
,
0000
0001
0000
0001
,
0001
0001
0001
1000
,
0000
1000
0000
1000
,
1000
1000
1000
0010
,
0000
0010
0000
0010
,
0010
0010
0010
0100
,
0000
0100
0000
0100
,
0100
0100
0100
0110
,
0010
1000
0010
1000
,
0010
1000
0100
0110
,
0010
0001
0010
0001
,
0010
0001
0001
0110
,
0010
0100
0010
1000
,
0001
0010
0100
0110
,
0010
0001
0100
0010
,
1000
0001
0001
1000
,
0001
0100
0000
0001
,
1000
0010
0010
0100
,
0010
1000
0000
0010
,
0100
0001
0001
1000
,
0001
0100
0000
0001
,
1000
0100
0010
0001
,
0010
0010
0000
0100
,
1000
0010
0100
0001
,
0100
0010
0100
0001
,
1000
0100
0010
0001
,
0010
0001
0100
0010
,
1000
0001
0010
0001
,
0010
0100
1000
0100
,
1000
0010
0100
0001
,
1000
0100
1000
0010
,
0100
0000
0001
0001
0001
0000
0000
0000
,
0000
0000
0000
1000
0000
1000
0000
0000
,
0000
0000
0010
0000
,
0000
0000
0000
0100
0000
0100
0000
0000
,
0000
0000
1001
0000
,
0000
0000
0000
0010
0000
0010
0000
0000
,
0000
0000
1001
0000
,
0000
0000
0000
0100
0000
0100
0000
0000
,
0000
0000
0110
0000
;

//---------------dance-single - ----------------
#NOTES:
     dance-single:
     :
     Beginner:
     1:
     0.089,0.122,0.017,0.000,0.000,71.000,2.000,0.000,0.000,0.000,0.000,0.089,0.122,0.017,0.000,0.000,71.000,2.000,0.000,0.000,0.000,0.000: // measure 0
0000
0000
0000
0000
,  // measure 1
0000
0000
0000
0000
,  // measure 2
0000
0000
0000
0000
,  // measure 3
0000
0000
0000
0000
,  // measure 4
0110
0000
0000
0000
,  // measure 5
0010
0000
0000
0000
,  // measure 6
0100
0000
0000
0000
,  // measure 7
0001
0000
0000
0000
,  // measure 8
1000
0000
0000
0000
,  // measure 9
0010
0000
0000
0000
,  // measure 10
0100
0000
0000
0000
,  // measure 11
0010
0000
0000
0000
,  // measure 12
1000
0000
0000
0000
,  // measure 13
0000
0000
0000
0000
,  // measure 14
0001
0000
0000
0000
,  // measure 15
0000
0000
0000
0000
,  // measure 16
0100
0100
0000
0000
,  // measure 17
0010
0000
0000
0000
,  // measure 18
1000
1000
0000
0000
,  // measure 19
0001
0000
0000
0000
,  // measure 20
0100
0100
0000
0000
,  // measure 21
0010
0000
0000
0000
,  // measure 22
1000
1000
0000
0000
,  // measure 23
0001
0000
0000
0100
,  // measure 24
0000
0000
0000
0000
,  // measure 25
0000
0000
0000
0010
,  // measure 26
0000
0000
0000
0000
,  // measure 27
0000
0000
0000
1000
,  // measure 28
0000
0000
0000
0000
,  // measure 29
0000
0000
0000
0001
,  // measure 30
0000
0000
0000
0000
,  // measure 31
0000
1000
0000
1000
,  // measure 32
0000
0000
0000
0000
,  // measure 33
0000
0000
0000
0001
,  // measure 34
0000
0000
0000
0000
,  // measure 35
0000
0000
0000
0100
,  // measure 36
0000
0000
0000
0000
,  // measure 37
0000
0000
0000
0010
,  // measure 38
0000
0000
0000
0000
,  // measure 39
0000
0100
0000
0010
,  // measure 40
0000
0000
0000
1000
,  // measure 41
0000
0001
0001
0001
,  // measure 42
0000
0000
0000
0100
,  // measure 43
0000
0010
0010
0010
,  // measure 44
0000
0000
0000
1000
,  // measure 45
0000
0001
0001
0001
,  // measure 46
0000
0000
0000
1000
,  // measure 47
0000
0100
0100
0100
,  // measure 48
0000
0000
0000
0010
,  // measure 49
0000
0000
0000
0001
,  // measure 50
0000
0000
0000
1000
,  // measure 51
0000
1000
0000
1000
,  // measure 52
0000
0000
0000
0010
,  // measure 53
0000
0000
0000
0100
,  // measure 54
0000
0000
0000
0001
,  // measure 55
0000
0000
0000
1000
,  // measure 56
0000
0000
0000
0100
,  // measure 57
0000
0000
0000
1000
,  // measure 58
0000
0000
0000
0010
,  // measure 59
0000
0010
0000
0010
,  // measure 60
0000
0000
0000
0100
,  // measure 61
0000
0000
0000
0001
,  // measure 62
0000
0000
0000
1000
,  // measure 63
0000
0000
0100
0000
,  // measure 64
0000
0000
0000
0000
,  // measure 65
0000
0000
0010
0000
,  // measure 66
0000
0000
0000
0000
,  // measure 67
0000
0000
1000
0000
,  // measure 68
0000
0000
0000
0000
,  // measure 69
0000
0000
0001
0000
,  // measure 70
0000
0000
0000
0000
,  // measure 71
0000
0000
1001
0000
;
