#TITLE:Smooooch・∀・-秋葉工房 mix-;
#SUBTITLE:;
#ARTIST:Remixed by DJ Command;
#TITLETRANSLIT:;
#SUBTITLETRANSLIT:;
#ARTISTTRANSLIT:;
#CREDIT:;
#BANNER:bn.png;
#BACKGROUND:bg.png;
#LYRICSPATH:;
#CDTITLE:;
#MUSIC:Smooooch-DJC-.mp3;
#OFFSET:-0.435;
#SAMPLESTART:22.724;
#SAMPLELENGTH:12.000;
#SELECTABLE:YES;
#BPMS:0.000=172.000;
#STOPS:60.000=0.174
,60.500=0.174
,61.000=0.174
,61.500=0.174
,221.000=0.329
;
#BGCHANGES:;

//---------------dance-single - ----------------
#NOTES:
     dance-single:
     :
     Hard:
     9:
     0.517,0.603,0.151,0.135,0.115:
0000
0000
0000
0000
,
0000
0000
0000
0000
,
0000
0000
0000
0000
,
0000
0000
0000
0000
,
0000
0000
0000
0000
,
0000
0000
0000
0000
,
0000
0000
0000
0000
,
0000
0000
0000
0000
,
1000
0001
0010
0001
,
0100
0010
1000
0001
,
0010
0100
0010
0001
,
1000
1000
0001
0001
,
0010
0001
0100
1000
,
0100
0010
2000
0000
,
3001
1000
0100
0010
,
0001
1000
0001
1000
1001
0000
0010
0100
,
0001
0000
1000
0100
0000
1000
0000
0010
,
0100
0000
0010
1000
0001
0000
0010
0000
,
0010
0200
0000
0310
0000
0010
0001
1000
,
0001
1000
0001
1000
0100
0000
0100
0010
,
0001
0000
0001
0100
0000
1000
0000
0100
,
0020
0000
0030
0000
0010
0100
0001
0010
,
0001
1000
0100
0001
0100
0000
0100
0010
,
0001
1000
0001
0100
0010
0000
0110
0000
,
0100
0001
1000
0200
0000
0000
0000
0300
,
1000
0000
0100
0000
0100
0010
0001
0010
,
0100
0010
0001
1000
0010
0010
1000
0000
,
1000
1000
0100
0000
1100
0000
0011
0000
,
0001
0100
0010
0100
0000
0010
0000
1000
,
0001
0000
0010
0000
0001
0100
0010
1000
,
0001
0010
0001
1000
0100
0010
0100
1000
,
0001
0000
0000
0001
0000
0000
0001
0000
0100
0000
0000
0000
0110
0000
0000
0000
,
0010
0000
1000
0000
0000
0000
0001
0000
0000
0010
0000
0000
0001
0000
0000
0000
,
0010
0001
0010
1000
0010
0001
1000
0000
,
0001
0000
0000
0100
0000
0000
0010
0000
1000
0000
0100
0000
0010
0000
0001
0000
,
1000
0100
0010
0001
1000
0000
0110
0000
,
0010
1000
0000
0001
0010
0010
0100
0010
,
0000
0000
0100
0000
1000
0000
0010
0000
0100
0001
0010
0001
2000
0000
0002
0000
,
3003
0001
0100
0010
0000
1000
0010
0000
,
0110
0000
1001
0000
0001
0100
0010
1000
,
0100
0000
0010
0000
0100
0000
1000
0000
0001
0000
0000
0001
0000
0000
0001
0000
,
0100
0010
1000
0000
1000
0010
0100
0010
,
1000
0001
0010
0100
0010
0001
1000
0100
,
1000
0001
0202
0303
0001
0001
0100
0100
,
0010
0000
1000
0000
0001
0000
0010
0000
0100
0000
0000
0010
0000
0000
0001
0000
,
1000
0010
0100
0000
0010
1000
0001
0010
,
0100
0010
0001
1000
0010
0100
0010
0100
,
0010
0100
0010
0100
0001
0000
1000
0000
,
0001
0000
0000
0000
1000
0000
0000
0000
1000
0000
0000
1000
0000
0000
1000
0000
,
0010
0100
0001
0010
0200
0310
0200
0310
,
0200
0310
0200
0310
0001
0010
0100
1000
,
0100
0010
0001
1000
0000
1001
0000
1010
,
0000
0000
1001
0000
0000
0000
1100
0000
0100
0000
0000
1000
0000
0000
0010
0000
,
0100
0001
0010
0000
0001
0010
0100
0010
,
0001
0010
0100
0001
1000
1000
0001
0001
,
0100
0100
0110
0000
1001
0000
0001
0100
,
0000
0000
0010
0000
0000
0100
0000
0000
0010
0000
0000
0000
1000
0000
0001
0000
,
0010
0000
0001
0000
0100
0000
0100
0000
0001
0000
0000
0000
0001
0000
0000
0100
,
0000
0000
0010
0000
1000
0000
0000
0001
0000
0000
0010
0000
0000
0001
0000
0000
,
0100
0010
1000
0001
0010
0000
0010
0100
,
0000
0100
1000
0010
0100
0001
0000
0001
,
0010
0000
0100
0000
1000
0100
1000
0100
0010
0000
0001
0000
0000
0000
0001
0000
,
1000
0200
0000
0000
0000
0000
0310
0000
,
1001
0000
0011
0000
0110
0000
0001
0010
,
0000
0000
0001
0000
0000
0010
0000
0000
0001
0000
0000
0000
0100
0000
1000
0000
,
0100
0000
0010
0000
0100
0000
0010
0000
0001
0000
0000
0000
0010
0000
0000
0010
,
0000
0000
0100
0000
0100
0000
0000
0001
0000
0000
0001
0000
0000
1000
0000
0000
,
1000
0010
0100
0010
1000
0000
0001
0010
,
0000
0100
0010
1000
0010
0010
0000
0100
,
1000
0000
0010
0000
1000
0001
1000
0001
1000
0000
0001
0000
0000
0000
0010
0000
,
0100
1000
0000
0000
0000
0000
0020
0000
,
2030
0000
0000
0000
3100
0000
0000
0000
1000
0000
0000
0000
0010
0000
0000
0010
,
0000
0000
0010
0000
0100
0000
0000
0000
0001
0000
0000
0000
0010
0000
0000
0010
,
0000
0000
0010
0000
0100
0000
0000
0000
1000
0000
0000
0000
0100
0000
0000
0100
,
0000
0000
0100
0000
1000
0000
0000
0000
0100
0000
0000
0000
1000
0000
0000
0100
,
0000
0000
0100
0000
0000
0000
1000
0000
0000
0000
0100
0000
1000
0000
0000
0010
,
0000
0000
0100
0000
0000
0000
0001
0000
0000
0000
0010
0000
0001
0000
0000
0010
,
0000
0000
0100
0000
0000
0000
1000
0000
0000
0000
0001
0000
0010
0000
0000
1000
,
0000
0000
0010
0000
0000
0000
0100
0000
0000
0000
0010
0000
0001
0000
0000
0010
,
0000
0100
2002
0000
0000
0000
0000
0000
,
3003
0000
0000
0000
;

//---------------dance-single - ----------------
#NOTES:
     dance-single:
     :
     Medium:
     6:
     0.323,0.409,0.111,0.151,0.000:
0000
0000
0000
0000
,
0000
0000
0000
0000
,
0000
0000
0000
0000
,
0000
0000
0000
0000
,
0000
0000
0000
0000
,
0000
0000
0000
0000
,
0000
0000
0000
0000
,
0000
0000
0000
0000
,
1000
0001
0010
0010
,
0001
1000
0100
0100
,
1000
0100
1000
0010
,
0100
0001
0010
0100
,
1000
0100
1000
0010
,
0100
0001
0020
0000
,
0031
0100
1000
0100
,
0010
0100
0010
0100
0010
0000
1000
0000
,
0100
0000
0000
0100
0000
0010
0000
0010
,
0001
0000
0001
0100
0010
0000
0100
0000
,
0010
2000
0000
3100
0000
1000
0001
0100
,
0001
0010
0001
0000
0001
0000
0100
0000
,
0010
0000
1000
0010
0000
0100
0000
0001
,
0010
0000
0010
0100
,
1000
0000
0001
0000
0100
0000
0010
1000
,
0010
1000
0100
1000
,
0100
0010
0002
0000
,
0003
0001
0100
0100
,
0010
0010
1000
0010
,
0100
0010
1000
0001
,
0010
0100
0020
0000
,
0030
0001
0100
0100
,
0010
0010
1000
0001
,
0011
0000
0001
0100
,
0010
1000
0100
0001
,
0100
0010
0001
0100
,
0010
0000
1000
0000
0001
1000
0001
0000
,
1000
0001
1000
0000
0101
0000
0101
0000
,
0001
0100
0010
1000
,
0100
0000
1000
0000
0010
0010
0010
0000
,
0100
0010
1000
0000
,
1001
0110
0001
0100
,
0010
1000
1100
0100
,
0110
0010
0011
0001
,
0100
1000
0100
0100
,
0100
1001
0010
0010
,
0010
0010
1000
0001
,
0010
0100
0010
0001
,
1000
0000
0010
0000
0100
0010
0100
0010
,
0100
0010
0100
0000
0020
0000
0000
0000
,
0000
0000
0030
0000
,
0000
0000
0200
0000
,
0000
0000
0300
0000
,
0000
0000
0002
0000
,
0000
0000
0003
0000
,
0000
0000
1000
0000
,
0001
0000
0000
0000
1000
0001
1000
0001
,
1000
0001
1000
0000
0001
0000
0100
0010
,
0000
2000
0000
0000
0000
0000
3100
0000
,
0100
0000
1000
0000
0100
0000
0010
0001
,
0000
0010
0001
0000
0001
0000
0010
0000
,
0001
0000
0010
0000
0100
0000
1000
0100
,
0000
0100
0020
0000
0000
0000
0000
0000
,
0031
0000
0001
0100
0001
0100
0000
0001
,
0100
0010
0000
0000
0000
0000
0110
0000
,
1001
0000
0001
0000
1000
0000
0100
1000
,
0000
0200
0000
0000
0000
0000
0300
0000
,
0000
0000
1000
0000
0010
0000
0100
0010
,
0000
1000
0010
0000
0010
0000
0010
0000
,
0010
0000
0110
0000
1001
0000
0001
0010
,
0000
0001
0010
0100
1000
0100
0000
1000
,
0100
0000
1000
1000
0100
1000
0000
0100
,
0010
0001
0000
0000
0000
0000
0001
0000
,
0100
0020
0000
0000
,
0000
2030
0000
0000
,
0000
3200
0000
0000
,
0000
2300
0000
0000
,
0000
3002
0000
0000
,
0000
0203
0000
0000
,
0000
0320
0000
2030
,
0000
0200
0000
0000
,
3300
0100
1001
0000
0000
0000
0000
0000
;

//---------------dance-single - ----------------
#NOTES:
     dance-single:
     :
     Easy:
     3:
     0.211,0.350,0.087,0.063,0.000:
0000
0000
0000
0000
,
0000
0000
0000
0000
,
0000
0000
0000
0000
,
0000
0000
0000
0000
,
0000
0000
0000
0000
,
0000
0000
0000
0000
,
0000
0000
0000
0000
,
0000
0000
0000
0000
,
1000
0000
0001
0000
,
1000
1000
1000
0000
,
0010
0000
0100
0000
,
0010
0010
0010
0000
,
0100
0000
0001
0000
,
1000
1000
2000
3000
,
0001
0000
0001
0000
,
1000
0001
1000
0001
1000
0000
1000
0000
,
1000
0000
0010
0100
,
0010
0000
0100
0100
,
0001
0000
1000
0000
,
0001
0000
0110
0000
,
0000
0000
0110
0000
,
0000
0000
0010
0000
,
1000
0000
0001
0001
,
1000
1000
0010
0000
,
0100
0000
0002
0000
,
0003
0000
0001
0000
,
1000
0000
0010
1000
,
0010
0100
0001
0000
,
0010
0000
0200
0000
,
0300
0000
0100
0000
,
0010
0000
0001
0000
,
1001
0000
0110
0000
,
0010
0000
1000
0010
,
0100
0001
0010
0000
,
0100
0000
1000
1000
,
1000
1000
0001
0000
,
1000
0000
0010
0100
,
0010
1000
0002
0000
,
0003
1000
0000
0000
,
0001
0100
0010
0000
,
1000
0000
0010
0000
,
0100
0000
0001
0000
,
0010
0000
0001
0001
,
0001
1001
1000
0000
,
1000
0000
0010
0000
,
0100
0000
0010
0000
,
1000
0000
0100
0100
,
0100
0100
0100
0000
,
0000
0000
0000
0000
,
0000
0010
1001
0000
,
0000
0000
0000
0000
,
0000
0001
0110
0000
,
0000
0000
0000
0000
,
0000
0000
0001
0000
,
1000
0000
0010
0010
,
0010
0000
0010
0100
,
0010
1000
1000
0001
,
0010
0001
0001
0100
,
0100
0010
1000
0010
,
1000
1010
1010
0010
,
1000
0001
0010
0100
,
0010
0000
0002
0000
0000
0003
0000
0000
,
0000
1000
0000
0000
0000
0000
0001
0000
,
0100
0010
0000
1000
,
0000
0001
1000
0001
,
0100
0001
0000
0010
,
0000
0001
0100
1000
,
0100
0010
0000
1000
,
0000
0010
1000
0001
,
0010
0000
0200
0000
0000
0300
0000
0000
,
0000
0010
0000
0000
0000
0000
0010
0000
,
0100
0110
0000
0000
,
0000
0001
0000
0000
,
0000
1000
0000
0000
,
0000
0010
0000
0000
,
0000
0100
0000
0000
,
0000
0010
0000
0000
,
0000
1000
0000
0001
,
0000
0010
0000
0000
,
0000
2002
0000
0000
,
0000
3003
0000
0000
;

//---------------dance-single - ----------------
#NOTES:
     dance-single:
     :
     Beginner:
     1:
     0.094,0.189,0.048,0.008,0.000: // measure 1
0000
0000
0000
0000
,  // measure 2
0000
0000
0000
0000
,  // measure 3
0000
0000
0000
0000
,  // measure 4
0000
0000
0000
0000
,  // measure 5
0000
0000
0000
0000
,  // measure 6
0000
0000
0000
0000
,  // measure 7
0000
0000
0000
0000
,  // measure 8
0000
0000
0000
0000
,  // measure 9
0001
0000
0000
0000
,  // measure 10
1000
0000
0000
0000
,  // measure 11
0010
0000
0000
0000
,  // measure 12
1000
0000
0000
0000
,  // measure 13
0001
0000
0000
0000
,  // measure 14
1000
0000
0000
0000
,  // measure 15
0010
0000
0000
0000
,  // measure 16
0000
0000
0100
0000
,  // measure 17
0000
0000
0010
0000
,  // measure 18
0000
0000
1000
0000
,  // measure 19
0000
0000
0001
0000
,  // measure 20
0001
0000
0001
0000
,  // measure 21
0000
0000
1000
0000
,  // measure 22
0000
0000
0010
0000
,  // measure 23
0010
0000
0010
0010
,  // measure 24
0010
0000
0110
0000
,  // measure 25
0000
0000
0000
0000
,  // measure 26
0000
0000
1001
0000
,  // measure 27
0000
0000
0000
0000
,  // measure 28
0000
0000
0110
0000
,  // measure 29
0000
0000
0000
0000
,  // measure 30
0000
0000
1001
0000
,  // measure 31
0000
0000
0000
0000
,  // measure 32
0000
0000
0001
0000
,  // measure 33
0000
0000
0000
0000
,  // measure 34
0000
0000
1000
0000
,  // measure 35
0000
0000
0000
0000
,  // measure 36
0000
0000
0010
0000
,  // measure 37
0000
0000
0000
0000
,  // measure 38
0000
0000
0100
0000
,  // measure 39
0000
0000
0000
0000
,  // measure 40
0010
0010
0010
0000
,  // measure 41
0000
0000
1000
0000
,  // measure 42
0000
0000
0001
0000
,  // measure 43
0000
0000
0010
0000
,  // measure 44
0000
0000
0001
0000
,  // measure 45
0000
0000
0100
0000
,  // measure 46
0000
0000
0010
0000
,  // measure 47
0000
0000
2000
0000
,  // measure 48
0000
3000
0000
0000
,  // measure 49
0000
0000
0000
0000
,  // measure 50
0000
0000
0001
0000
,  // measure 51
0000
0000
0000
0000
,  // measure 52
0000
0000
0001
0000
,  // measure 53
0000
0000
0000
0000
,  // measure 54
0000
0000
0001
0000
,  // measure 55
0001
0000
1000
1000
,  // measure 56
1000
0000
0000
0000
,  // measure 57
0000
0001
0000
0000
,  // measure 58
0000
1000
0000
0000
,  // measure 59
0000
0010
0000
0010
,  // measure 60
0000
0010
0000
0000
,  // measure 61
0000
0100
0000
0000
,  // measure 62
0000
0010
0000
0010
,  // measure 63
0000
0010
0000
1000
,  // measure 64
1000
1000
0000
0000
,  // measure 65
0000
0001
0000
0000
,  // measure 66
0000
0100
0000
0000
,  // measure 67
0000
0010
0000
0010
,  // measure 68
0000
0010
0000
0000
,  // measure 69
0000
1000
0000
0000
,  // measure 70
0000
0001
0001
0001
,  // measure 71
0000
1000
0000
0001
,  // measure 72
0001
1001
0000
0000
,  // measure 73
0000
0000
0000
0000
,  // measure 74
0000
0010
0000
0000
,  // measure 75
0000
0010
0000
0000
,  // measure 76
0000
0100
0000
0000
,  // measure 77
0000
0100
0000
0000
,  // measure 78
0000
1000
0000
0000
,  // measure 79
0000
1000
0000
0000
,  // measure 80
0000
1001
0000
0000
;
