#TITLE:mint tears;
#SUBTITLE:;
#ARTIST:ribbon room;
#TITLETRANSLIT:;
#SUBTITLETRANSLIT:;
#ARTISTTRANSLIT:;
#CREDIT:;
#BANNER:bn.png;
#BACKGROUND:bg.png;
#LYRICSPATH:;
#CDTITLE:;
#MUSIC:13 mint tears.mp3;
#OFFSET:-5.491;
#SAMPLESTART:55.880;
#SAMPLELENGTH:12.000;
#SELECTABLE:YES;
#BPMS:0.000=188.000;
#STOPS:;
#BGCHANGES:;

//---------------dance-single - ----------------
#NOTES:
     dance-single:
     :
     Hard:
     8:
     0.453,0.508,0.091,0.009,0.000:
1000
0000
0010
0000
0100
0010
0000
1000
,
0000
0001
0000
0001
0010
0001
1000
0010
,
1000
0000
0010
0000
1000
0001
0000
0010
,
0000
0100
0000
0010
0001
1000
0010
1000
,
0001
0000
1000
0000
1000
0010
0000
0100
,
0000
0100
0000
0100
0010
1000
0001
0010
,
0001
0000
1000
0000
0010
1000
0010
0000
,
1000
0100
0001
0100
0010
0001
1000
0010
,
1000
0000
0010
0000
0100
0001
0000
1000
,
0000
0100
0000
0100
0010
0100
1000
0001
,
0100
0000
0010
0000
1000
0001
0000
0010
,
0000
0100
0000
0100
0010
0001
1000
0010
,
1000
0000
0001
0000
1000
0010
0000
0100
,
0000
0010
0000
1000
0001
0010
0001
1000
,
0100
0000
0010
0000
0001
1000
0010
0000
,
0100
0000
0000
0000
,
0100
0000
0001
1000
0000
1000
0100
0010
,
0000
0100
0000
0100
1000
0000
0010
0000
,
0100
0000
0010
1000
0000
0010
1000
0001
,
0000
0010
0000
0100
1000
0000
0100
0000
,
1000
0000
0010
0100
0000
0100
0001
0010
,
0000
0100
0000
0100
1000
0000
0010
0000
,
1000
0010
1000
0001
0010
1000
0010
0001
,
1000
0000
0000
0000
,
0001
0000
0100
0010
0000
1000
0010
0001
,
0000
0010
0000
0100
0010
0000
1000
0000
,
0001
1000
0100
0001
0000
0001
0100
0010
,
0000
0001
0000
0001
1000
0000
0010
0000
,
1000
0010
0100
0001
0000
0001
0010
0100
,
0000
0010
0000
0010
0001
0000
1000
0000
,
0001
0100
1000
0100
0010
1000
0001
1000
,
0100
0000
1000
0001
,
0100
0000
0000
0000
0000
0010
0000
0100
,
0000
0010
0000
1000
0010
0000
0100
0000
,
0010
0000
0000
0000
0100
0000
0010
1000
,
0000
0001
0000
0000
1000
0000
0100
0000
,
0010
0000
0000
0010
,
0001
0000
0001
1000
,
0010
0000
1000
0100
0000
0000
0000
0000
,
0110
0011
1001
0101
,
0110
0000
1000
0000
0010
1000
0010
0000
,
0100
0000
0010
0000
0100
0001
0100
0000
,
0001
0000
1000
0000
0100
1000
0100
0000
,
1000
0000
0010
0000
0100
0010
0100
0000
,
0010
0000
1000
0000
0010
1000
0010
0000
,
1000
0000
0001
0000
0010
0100
1000
0000
,
0001
0100
1000
0100
,
0010
0000
0000
0000
,
0100
0000
0000
0010
1000
0010
0000
1000
,
0000
0001
0000
0010
0000
0000
0100
0000
,
1000
0000
0000
0100
1000
0100
0000
1000
,
0000
0010
0000
0100
0000
0000
0000
0000
,
0010
0000
0000
1000
0001
1000
0000
0001
,
0000
0100
0000
0010
0000
0000
0100
0000
,
0010
0000
0000
1000
0010
0100
0000
0010
,
0000
0010
0000
0010
0000
0000
0000
0000
,
0110
0000
0010
1000
0001
0000
0100
0000
,
0001
0100
0010
1000
,
1100
0000
1000
0100
0010
0000
0100
0000
,
1000
0001
0100
0001
,
0101
0000
0001
0100
0010
0000
1000
0000
,
0001
0010
1000
0010
,
0110
0000
0100
1000
0010
0000
0100
0000
,
0010
1000
0001
0010
0100
1000
0100
0000
,
1000
0000
0100
0000
,
0010
0000
0100
0000
,
1000
0000
0001
0000
,
0100
0000
0001
0000
,
1000
0000
0001
0000
,
0010
0000
0100
0000
,
0010
0000
0001
0000
,
1000
0000
0000
0000
,
0001
0000
0001
0100
0000
0010
0000
1000
,
0000
0000
0010
0100
0000
0001
0000
1000
,
0000
0000
1000
0100
0000
0010
0000
0100
,
0000
0000
0000
0000
,
0110
0000
0010
0001
0000
0100
0000
1000
,
0000
0000
1000
0100
0000
0100
0000
1000
,
0000
0000
1000
0001
0000
0100
0000
0020
,
0000
0000
0000
0000
0000
0000
0000
0030
;

//---------------dance-single - ----------------
#NOTES:
     dance-single:
     :
     Medium:
     5:
     0.361,0.363,0.054,0.100,0.000:
1001
0000
0000
0000
0000
0001
0000
0100
,
0000
0010
0000
0000
0010
0000
1000
0000
,
0001
0000
0000
0000
1000
0000
0100
1000
,
0000
0100
0000
0000
1000
0000
0100
0000
,
0010
0000
0000
0100
,
1000
0000
0001
1000
,
0010
0000
0200
0002
0000
0000
0000
0000
,
0303
0000
0001
0001
,
0010
0000
0000
0010
0100
0010
0000
0100
,
0000
1000
0000
0000
0100
0000
1000
0000
,
0010
0000
0000
0100
0010
0100
0000
0010
,
0000
1000
0000
0001
0000
1000
0000
1100
,
0000
0000
0000
1000
0100
1000
0000
0100
,
0000
0010
0000
0001
0000
0000
0010
0000
,
0001
0000
0100
0010
0000
0000
0000
0000
,
1001
0000
0000
0000
,
0101
0000
0001
0100
0000
0100
0010
0100
,
0000
0100
0000
0000
0000
0000
0000
0000
,
0010
0000
1000
0010
0000
0010
0100
0010
,
0000
0100
0000
0000
0000
0000
0000
0000
,
1000
0000
0001
1000
0000
1000
0001
1000
,
0000
0001
0000
0000
0000
0000
0000
0000
,
0001
0100
0000
0010
1000
0000
0001
0100
,
0000
0000
0000
0000
,
0010
0000
0100
0010
0000
0100
0010
0100
,
0000
0010
0000
0000
0000
0000
0000
0000
,
1000
0010
0000
0100
0000
0001
0010
0100
,
0000
0000
0000
0000
,
0100
0010
0000
0001
0000
1000
0001
0100
,
0000
0100
0000
0000
0000
0000
0000
0000
,
0010
1000
0000
0001
0100
0000
0001
0010
,
0000
0000
0000
0000
,
0110
0000
0000
0000
0000
0010
0000
0001
,
0000
1000
0000
0000
0001
0000
0100
0000
,
0010
0000
0000
0000
0100
0000
0010
0100
,
0000
0010
0000
0000
1000
0000
0001
0000
,
1000
0000
1000
0100
,
0010
0000
0010
0100
,
1000
0000
0010
0200
0000
0000
0000
0000
,
0300
0000
0010
0010
,
0110
0000
0000
0010
1000
0010
0000
0100
,
0000
0010
0000
0000
1000
0000
0001
0000
,
1000
0000
0000
1000
0100
1000
0000
0100
,
0000
0010
0000
0001
0000
1000
0000
0001
,
0000
0000
0000
0001
0100
0001
0000
0100
,
0000
0010
0000
0000
0100
0000
0010
0000
,
1000
0000
0002
0200
0000
0000
0000
0000
,
0303
0000
0000
0000
,
0001
0100
0010
0010
,
0100
0001
1000
0100
,
0010
0100
1000
1000
,
0001
0100
0010
0100
,
0010
1000
0001
0010
,
0001
0100
0010
1000
,
0001
1000
0001
0100
,
0010
1000
0100
0010
,
0100
1000
0100
1000
,
0010
0100
0010
1000
,
0001
0010
0001
0100
,
0010
0010
0100
0100
,
0010
1000
0001
0010
,
1000
0010
0001
0100
,
1000
0100
0010
1000
,
0001
0010
0100
0010
,
0001
0000
1000
0000
,
0010
0000
1000
0000
,
0100
0000
0010
0000
,
0001
0001
0000
0000
,
0001
0000
0100
0000
,
0010
0000
1000
0000
,
0010
0000
0100
0000
,
0010
0010
0000
0000
,
0010
0000
0000
0100
0000
0010
0000
2000
,
0000
0000
3001
1000
0000
0001
0000
0100
,
0200
0000
0310
1000
0000
0010
0000
0200
,
0000
0000
0000
0300
,
0010
0000
1000
0010
0000
0100
0000
0002
,
0000
0000
1003
0001
0000
0010
0000
0200
,
0000
0000
1300
0100
0000
1000
0000
0020
,
0000
0000
0000
0000
0000
0000
0000
0030
;

//---------------dance-single - ----------------
#NOTES:
     dance-single:
     :
     Easy:
     4:
     0.270,0.326,0.018,0.073,0.000: // measure 1
0001
0000
1000
0000
,  // measure 2
0010
1000
0010
0000
,  // measure 3
0100
0000
0010
0000
,  // measure 4
0100
0001
0100
0000
,  // measure 5
0001
0000
1000
0000
,  // measure 6
0010
1000
0010
0000
,  // measure 7
0100
0100
0100
0000
,  // measure 8
0010
0000
1000
0000
,  // measure 9
1001
0000
0001
0000
,  // measure 10
1000
0100
1000
0000
,  // measure 11
0100
0000
1000
0000
,  // measure 12
0010
0100
0010
0000
,  // measure 13
0100
0000
0001
0000
,  // measure 14
1000
0001
1000
0000
,  // measure 15
0010
0010
0010
0000
,  // measure 16
0100
0000
0000
0000
,  // measure 17
0100
0010
1000
0001
,  // measure 18
0010
0000
0000
0000
,  // measure 19
0100
1000
0010
0100
,  // measure 20
0001
0000
0000
0000
,  // measure 21
1000
0001
0100
0001
,  // measure 22
0010
0000
0000
0000
,  // measure 23
0010
0010
0001
0001
,  // measure 24
1000
0000
0000
0000
,  // measure 25
1000
0001
0100
0001
,  // measure 26
0010
0010
0000
0000
,  // measure 27
0010
0100
1000
0100
,  // measure 28
1000
0000
0000
0000
,  // measure 29
1000
0010
0100
0010
,  // measure 30
1000
1000
0000
0000
,  // measure 31
0010
0100
0001
1000
,  // measure 32
0100
0000
1000
0100
,  // measure 33
0010
0000
0010
0000
,  // measure 34
0001
0000
0100
0010
,  // measure 35
1000
0000
1000
0000
,  // measure 36
0001
0000
0001
1000
,  // measure 37
0001
0000
0001
0000
,  // measure 38
0100
0000
0010
0010
,  // measure 39
0100
0000
0010
0000
,  // measure 40
1000
0000
0001
0000
,  // measure 41
0011
0000
0001
0100
,  // measure 42
0010
1000
0001
0010
,  // measure 43
0100
0000
0100
0010
,  // measure 44
0001
1000
0001
0100
,  // measure 45
0001
0000
0100
0001
,  // measure 46
0100
1000
0100
0010
,  // measure 47
1000
0001
0010
0000
,  // measure 48
0100
0000
0000
0000
,  // measure 49
0100
0000
0000
0000
,  // measure 50
1000
0000
0001
0000
,  // measure 51
0100
0000
0010
0000
,  // measure 52
1000
1000
1000
0000
,  // measure 53
0010
0000
0100
0000
,  // measure 54
0010
0010
0010
0000
,  // measure 55
1000
0000
0001
0000
,  // measure 56
0010
0100
1000
0100
,  // measure 57
0010
0000
0001
0000
,  // measure 58
0100
0100
0100
0000
,  // measure 59
0010
0000
1000
0000
,  // measure 60
0001
0001
0001
0000
,  // measure 61
1000
0000
0010
0000
,  // measure 62
0100
0100
0100
0000
,  // measure 63
0010
0000
1000
0000
,  // measure 64
0001
1000
0010
0000
,  // measure 65
0200
0000
0000
0000
,  // measure 66
0320
0000
0000
0000
,  // measure 67
2030
0000
0000
0000
,  // measure 68
0001
3001
0000
0000
,  // measure 69
0002
0000
0000
0000
,  // measure 70
2003
0000
0000
0000
,  // measure 71
3200
0000
0000
0000
,  // measure 72
1000
2000
0000
3300
,  // measure 73
0000
1000
0100
0010
,  // measure 74
0000
0010
0100
1000
,  // measure 75
0000
1000
0001
0100
,  // measure 76
0001
0000
0000
0000
,  // measure 77
0001
0100
0010
0100
,  // measure 78
0000
0010
1000
0001
,  // measure 79
0000
0001
0010
0100
,  // measure 80
1000
0000
2000
0000
0000
0000
0000
3000
;

//---------------dance-single - ----------------
#NOTES:
     dance-single:
     :
     Beginner:
     1:
     0.144,0.216,0.018,0.000,0.000:
1000
0000
0000
0000
,
0001
0000
1000
0000
,
0010
0000
0000
0000
,
1000
0000
0000
0000
,
0001
0000
0000
0000
,
0100
0000
0010
0000
,
0100
0000
0000
0000
,
0000
0000
0001
0000
,
0001
0000
0000
0000
,
1000
0000
1000
0000
,
0010
0000
0000
0000
,
0100
0000
0000
0000
,
0010
0000
0000
0000
,
0000
0000
1000
0000
,
0001
0000
0000
0000
,
0100
0000
0000
0000
,
0010
0010
0010
0000
,
0000
0000
0000
0000
,
1000
1000
1000
0000
,
0000
0000
0000
0000
,
0001
0001
0001
0000
,
0000
0000
0000
0000
,
0100
0000
0010
0000
,
1001
0000
0000
0000
,
1000
0000
0001
0000
,
0100
0100
0000
0000
,
0010
0000
1000
0000
,
0010
0010
0000
0000
,
0100
0000
0001
0000
,
1000
1000
0000
0000
,
0001
0000
0100
0000
,
1001
0000
0000
0000
,
0100
0000
0000
0000
,
0010
0000
0010
0000
,
0010
0000
0000
0000
,
1000
0000
1000
0000
,
1000
0000
0000
0000
,
0001
0000
0000
0000
,
0100
0000
0000
0000
,
0000
0000
0000
0000
,
0001
0000
0000
0000
,
1000
0000
0000
0000
,
0100
0000
0000
0000
,
1000
0000
0000
0000
,
0010
0000
0000
0000
,
0100
0000
0001
0000
,
1000
1000
1000
0000
,
0001
0000
0000
0000
,
0100
0000
0000
0000
,
0001
0000
0000
0000
,
1000
0000
1000
0000
,
1000
0000
0000
0000
,
0100
0000
0000
0000
,
1000
0000
0000
0000
,
0001
0000
0001
0000
,
0001
0000
0000
0000
,
0100
0000
0000
0000
,
0010
0000
0000
0000
,
0100
0000
0001
0000
,
1000
1000
1000
0000
,
0001
0000
0000
0000
,
0100
0000
0000
0000
,
0000
0000
1000
0000
,
0100
0100
0100
0000
,
1000
0000
0000
0000
,
0001
0000
0000
0000
,
1000
0000
0000
0000
,
0100
0100
0000
0000
,
1000
0000
0000
0000
,
0001
0000
0000
0000
,
1000
0000
0000
0000
,
0010
0010
0000
0000
,
0100
0000
0000
0000
,
0001
0000
0000
0000
,
1000
0000
0000
0000
,
0100
0100
0000
0000
,
0010
0000
0000
0000
,
0001
0000
0000
0000
,
1000
0000
0000
0000
,
0010
0010
0000
0000
;
