#TITLE:electro peaceful;
#SUBTITLE:;
#ARTIST:Mr. T;
#TITLETRANSLIT:;
#SUBTITLETRANSLIT:;
#ARTISTTRANSLIT:;
#CREDIT:;
#BANNER:bn.png;
#BACKGROUND:bg.png;
#LYRICSPATH:;
#CDTITLE:;
#MUSIC:electro peaceful.mp3;
#OFFSET:-6.378;
#SAMPLESTART:60.180;
#SAMPLELENGTH:12.000;
#SELECTABLE:YES;
#BPMS:0.000=160.000;
#STOPS:;
#BGCHANGES:;

//---------------dance-single - ----------------
#NOTES:
     dance-single:
     :
     Hard:
     7:
     0.419,0.423,0.122,0.106,0.314:
1000
0100
0000
0100
,
0000
0010
0000
0010
,
0001
0100
0000
0100
,
0020
1030
0020
0130
,
0001
0000
1000
0000
0100
0000
0000
0000
0100
0000
0000
0010
0000
0010
0000
0001
,
0000
0000
1000
0000
0010
0000
0000
0000
0010
0000
0000
0100
0000
0010
0000
1000
,
0000
0000
0001
0000
0010
0000
0000
0000
0100
0000
0000
0010
0000
0001
0000
1000
,
0000
0000
0010
0000
0100
0000
0000
0000
0010
0000
0000
1000
0000
0001
0000
0010
,
0100
0000
0010
0000
0001
0000
0000
0000
1000
0000
0000
0001
0000
0100
0000
0010
,
0000
0000
0100
0000
0010
0000
0000
0000
1000
0000
0000
0100
0000
0010
0000
0001
,
0000
0000
1000
0000
0010
0000
0000
0000
0100
0000
0000
0010
0000
1000
0000
0200
,
0000
0000
0000
0000
,
1300
0000
0000
0100
0000
0000
1000
0000
0010
0000
0000
0100
0000
0000
0010
0000
,
1000
0000
0000
0001
0000
0000
0010
0000
0100
0000
0000
0010
0000
0000
0001
0000
,
1000
0000
0000
0010
0000
0000
0100
0000
0001
0000
0000
0000
0000
0000
0000
0000
,
0000
0000
0000
0000
0000
0000
0000
0010
,
0010
0000
0000
0100
0000
0000
0010
0000
1000
0000
0000
0010
0000
0000
0001
0000
,
0010
0000
0000
1000
0000
0000
0010
0000
0100
0000
0000
0010
0000
0000
1000
0000
,
0010
0000
0000
0001
0000
0000
0010
0000
0100
0000
0000
0000
0000
0000
0000
0000
,
0000
0000
0000
0000
0000
0000
0000
0010
,
0010
0000
0000
0100
0000
0000
0010
0000
1000
0000
0000
0001
0000
0000
0010
0000
,
0100
0000
0000
0010
0000
0000
0100
0000
1000
0000
0000
0100
0000
0000
1000
0000
,
0010
0000
0000
0100
0000
0000
0001
0000
1000
0000
0000
0000
0000
0000
0000
0000
,
0000
0000
0000
0000
0000
0000
0100
0001
,
0100
0000
0000
1000
0000
0000
0100
0000
0010
0000
0000
1000
0000
0000
0001
0000
,
0010
0000
0000
0100
0000
0000
0100
0000
0010
0000
0000
0001
0000
0000
1000
0000
,
0002
0103
0200
0310
,
0100
0010
1000
0001
,
0001
0100
0001
0100
,
0010
0010
0010
0000
,
0100
0010
1000
0001
,
2000
3100
2000
3010
,
0100
0000
0010
0000
,
0000
0000
1000
0001
,
0020
0000
0200
0330
,
0110
0000
0000
0100
0000
0000
0010
0000
1001
0000
0000
0000
0000
0000
0001
0000
,
0100
0000
0000
0100
0000
0000
0010
0000
1000
0000
0000
0010
0000
0000
0100
0000
,
0010
0000
0000
1000
0000
0000
0001
0000
0010
0000
0000
0000
0000
0000
0001
0000
,
0010
0000
0000
0100
0000
0000
0100
0000
0010
0000
0000
0001
0000
0000
0100
0000
,
1000
0000
0000
0100
0000
0000
1000
0000
0100
0000
0000
0000
0000
0000
0100
0000
,
0100
0000
0000
0010
0000
0000
1000
0000
0010
0000
0000
0100
0000
0000
0010
0000
,
1000
0000
0000
0001
0000
0000
0010
0000
0100
0000
0000
0000
0000
0000
0100
0000
,
1000
0000
0000
0100
0000
0000
1000
0000
0010
0000
0000
0100
0000
0000
0010
0000
,
1000
0000
0000
0001
0000
0000
0010
0000
0100
0000
0000
0000
0000
0000
0010
0000
,
0100
0000
0000
1000
0000
0000
0100
0000
1000
0000
0000
0010
0000
0000
0100
0000
,
0001
0000
0000
1000
0000
0000
0001
0000
0100
0000
0000
0000
0000
0000
0001
0000
,
1000
0000
0000
0100
0000
0000
1000
0000
0010
0000
0000
0100
0000
0000
0010
0000
,
1000
0000
0000
0001
0000
0000
0010
0000
0100
0000
0000
0000
0000
0000
0100
0000
,
0100
0000
0000
0010
0000
0000
0001
0000
0010
0000
0000
0100
0000
0000
1000
0000
,
0100
0000
0000
0001
0000
0000
0100
0000
0010
0000
0000
0000
0001
0000
0000
0000
,
0100
0000
0000
1000
0000
0000
0100
0000
0010
0000
0000
1000
0000
0000
0001
0000
,
1000
0100
0010
0001
,
0000
0000
0000
0000
,
1001
0000
0000
0000
,
0110
0110
0000
0000
0000
0000
0000
0000
,
1001
1001
1001
0000
0000
0000
0000
0000
,
0002
0000
0000
0000
2000
0000
0000
3003
,
0110
0000
0000
0000
,
1001
1001
0000
0000
0000
0000
0000
0000
,
0110
0110
0110
0000
0000
0000
0000
0000
,
0020
0000
0000
0000
2030
0000
0000
0100
,
3100
0000
0000
1000
0000
0000
0100
0000
1000
0000
0000
0010
0000
0000
0100
0000
,
0100
0000
0000
0010
0000
0000
1000
0000
0001
0000
0000
0010
0000
0000
0100
0000
,
0010
0000
0000
0001
0000
0000
1000
0000
0010
0000
0000
0000
0100
0000
0000
0000
,
0010
0000
1000
0000
0010
0000
0100
0001
,
0010
0000
0000
0100
0000
0000
1000
0000
0100
0000
0000
1000
0000
0000
0100
0000
,
1000
0000
0000
0100
0000
0000
0010
0000
0001
0000
0000
0010
0000
0000
0001
0000
,
0100
0000
0010
0000
1000
0001
0100
0000
,
0010
0000
1000
0000
0010
0000
0100
0010
,
1000
0000
0000
1000
0000
0000
0001
0000
0100
0000
0000
0100
0000
0000
0001
0000
,
0010
0000
0000
0010
0000
0000
0100
0000
1000
0000
0000
0100
0000
0000
1000
0000
,
0100
1000
0010
0100
,
0001
0010
1000
0010
,
0001
0100
0010
1000
0100
0010
0100
1000
,
1001
0000
0000
0000
;

//---------------dance-single - ----------------
#NOTES:
     dance-single:
     :
     Medium:
     5:
     0.313,0.362,0.122,0.073,0.000:
0000
0100
0000
0010
,
0000
1000
0000
0001
,
0000
1000
0000
0001
,
0100
0100
0010
0010
,
0100
0000
0010
0000
1000
0000
0001
1000
,
0001
0000
0100
0000
0010
0000
1000
0001
,
1000
0000
0001
0000
0100
0000
0010
1000
,
0010
0000
1000
0000
0100
1000
0100
0000
,
1000
0000
0010
0000
0100
0010
0100
0000
,
0010
0000
1000
0000
0001
0010
0001
0000
,
0100
0000
0010
0000
1000
0001
1000
0000
,
0202
0000
0000
0303
,
0001
1000
0100
0100
,
1000
0010
0100
0010
,
1000
0001
0010
0100
,
1000
0000
0000
0000
0000
0000
0000
0100
,
1000
0010
0100
0010
,
1000
0001
0010
1000
,
0010
0001
0100
0001
,
0001
0000
0000
0000
,
0001
0100
1000
0100
,
0010
1000
0010
0100
,
0001
0010
0100
0000
,
0000
0000
0000
0000
0000
0000
0100
0010
,
0100
1000
0100
0010
,
0100
1000
0001
0100
,
0010
0000
1000
0000
,
0001
0000
1000
0000
0100
0000
0000
0010
,
0001
0000
0001
0000
,
0100
0000
0000
0000
0010
0000
0000
0100
,
0010
0000
1000
0000
,
0001
1000
0100
0010
,
0011
0000
0000
0001
0100
0000
0000
0000
,
0000
0000
0100
0010
,
1000
0000
0001
0000
,
2002
0000
0000
3003
,
0101
0001
0101
0100
,
0101
0100
0010
0000
,
0110
0100
0110
0010
,
0100
0010
1000
0000
,
1001
0001
1001
1000
,
1001
0001
0100
0010
,
0100
0010
1000
0100
,
0010
0000
0100
0000
1000
0000
0000
0001
,
1000
0001
0100
0001
,
0010
0000
0100
1000
0100
0000
0000
1000
,
0100
1000
0010
0100
,
0001
0000
1000
0001
0100
0000
0000
0001
,
0100
0010
1000
0001
,
0010
1000
0010
0100
,
1000
0010
0100
0001
,
2000
0000
0000
0000
,
3000
0000
0000
0000
,
0001
0000
0000
0000
,
0010
0100
0000
0000
0000
0000
0000
0000
,
0010
1000
0001
0000
0000
0000
0000
0000
,
1100
0000
0101
0000
,
0110
0000
0000
0000
,
0100
0010
0000
0000
0000
0000
0000
0000
,
0001
1000
0100
0000
0000
0000
0000
0000
,
2000
0000
0020
3030
,
0010
0100
0010
1000
,
0001
0010
1000
0010
,
0001
0100
1000
0100
,
0010
0000
1000
0000
0001
0000
0100
0010
,
0100
0010
1000
0001
,
0010
0100
0010
0001
,
1000
0001
1000
0001
,
1000
0001
1000
0001
,
0100
0100
0000
0000
0000
0000
0000
0000
,
0010
0100
0010
1000
,
0002
0000
0000
0000
,
2000
0000
0000
3003
,
0001
0100
0010
0000
0100
0010
1000
0000
,
1001
0000
0000
0000
;

//---------------dance-single - ----------------
#NOTES:
     dance-single:
     :
     Easy:
     2:
     0.182,0.242,0.065,0.131,0.000:
1000
0000
0000
0000
,
0001
0000
0000
0000
,
0100
0000
0010
0000
,
1000
0001
0100
0001
,
0100
0000
0010
0000
,
1000
0000
0001
1000
,
0001
0000
0100
0000
,
0010
0000
1000
0100
,
0010
0000
0100
0000
,
1000
0000
0001
0000
,
0100
0000
0001
0000
,
2002
0000
0000
3003
,
0001
0000
1000
0000
,
0010
0000
0100
0000
,
0010
0000
1000
0000
,
0001
0000
0000
0000
,
1000
0000
0001
0000
,
1000
0000
0010
0000
,
0100
0000
0010
0000
,
0000
0000
0000
0100
,
0010
0000
1000
0000
,
0001
0000
0010
0000
,
0001
0000
1000
0000
,
0000
0000
0000
0100
,
0001
0000
0010
0000
,
0001
0000
1000
0000
,
0010
0000
0000
0000
,
0100
0000
0000
0000
,
0020
0000
0000
0030
,
0200
0000
0000
0300
,
0002
0000
0000
0003
,
2000
0000
0000
3000
,
0020
0000
0000
0000
,
0030
0000
0100
0000
,
0002
0000
2000
0000
,
3003
0000
0000
0000
,
0001
0000
1000
0000
,
0001
0100
0010
0000
,
0100
0000
0010
0000
,
0100
0010
0010
0000
,
1000
0000
0001
0000
,
0010
0001
0001
0000
,
0100
0000
0010
0000
,
0100
0001
1000
0000
,
0100
0000
1000
0000
,
0100
0010
0001
0000
,
1000
0000
0010
0000
,
0100
0001
0100
0000
,
0010
0000
1000
0000
,
0001
0010
0001
0000
,
0100
0000
0010
0000
,
1000
0000
0000
0000
,
0000
0000
0000
0000
,
1001
0000
0000
0000
,
0110
0000
0000
0000
,
1001
0000
0000
0000
,
0020
0000
0200
0330
,
0110
0000
0000
0000
,
1001
0000
0000
0000
,
0110
0000
0000
0000
,
0002
0000
2000
3003
,
0001
0000
0100
0000
,
1000
0000
0100
0000
,
0010
0000
1000
0000
,
0000
0000
0000
0001
,
1000
0000
0100
0000
,
1000
0000
0010
0000
,
0200
0000
0000
0000
,
0000
0000
0300
0010
,
0100
0000
0001
0000
,
1000
0000
0100
0000
,
2000
0000
0000
0000
,
3200
0000
0000
0000
,
0310
0001
0010
0100
,
1001
0000
0000
0000
;

//---------------dance-single - ----------------
#NOTES:
     dance-single:
     :
     Beginner:
     1:
     0.098,0.242,0.041,0.000,0.000: // measure 1
0000
0000
0000
0000
,  // measure 2
0000
0000
0000
0000
,  // measure 3
0000
0000
0000
0000
,  // measure 4
0000
0000
0000
0000
,  // measure 5
0100
0000
0000
0000
,  // measure 6
0001
0000
0000
0000
,  // measure 7
1000
0000
0000
0000
,  // measure 8
0100
0000
0000
0000
,  // measure 9
1000
0000
0000
0000
,  // measure 10
0001
0000
0000
0000
,  // measure 11
0100
0000
0000
0000
,  // measure 12
0010
0000
0000
0000
,  // measure 13
0100
0000
0000
0000
,  // measure 14
0001
0000
0000
0000
,  // measure 15
1000
0000
0001
0000
,  // measure 16
0000
0000
0000
0000
,  // measure 17
0100
0000
0000
0000
,  // measure 18
0001
0000
0000
0000
,  // measure 19
0010
0000
0000
0000
,  // measure 20
0000
0000
0000
0000
,  // measure 21
0100
0000
0000
0000
,  // measure 22
1000
0000
0001
0000
,  // measure 23
0100
0000
0100
0000
,  // measure 24
0000
0000
0000
0000
,  // measure 25
0010
0000
0000
0000
,  // measure 26
1000
0000
0001
0000
,  // measure 27
1000
0000
0000
0000
,  // measure 28
0000
0000
0000
0000
,  // measure 29
0010
0000
0000
0000
,  // measure 30
0000
0000
0000
0000
,  // measure 31
0100
0000
0000
0000
,  // measure 32
0000
0000
0000
0000
,  // measure 33
0001
0000
0000
0000
,  // measure 34
0000
0000
0000
0000
,  // measure 35
1000
0000
0000
0000
,  // measure 36
1001
1001
1001
0000
,  // measure 37
0100
0000
0000
0000
,  // measure 38
0010
0000
0000
0000
,  // measure 39
1000
0000
0001
0000
,  // measure 40
0100
0100
0100
0000
,  // measure 41
0010
0000
0000
0000
,  // measure 42
1000
0000
0000
0000
,  // measure 43
0001
0000
0000
0000
,  // measure 44
1000
0000
0001
0000
,  // measure 45
0110
0000
0000
0000
,  // measure 46
0010
0000
0000
0000
,  // measure 47
0100
0000
0000
0000
,  // measure 48
0001
0000
0001
0000
,  // measure 49
1000
0000
0000
0000
,  // measure 50
0001
0000
0000
0000
,  // measure 51
0100
0000
0010
0000
,  // measure 52
1000
0000
0000
0000
,  // measure 53
0000
0000
0000
0000
,  // measure 54
0001
0000
0000
0000
,  // measure 55
1000
0000
0000
0000
,  // measure 56
0001
0001
0000
0000
,  // measure 57
0100
0000
0000
0000
,  // measure 58
0010
0000
0000
0000
,  // measure 59
0100
0000
0000
0000
,  // measure 60
0010
0010
0000
0000
,  // measure 61
1000
0000
0001
0000
,  // measure 62
0100
0000
0000
0000
,  // measure 63
0001
0000
0000
0000
,  // measure 64
0100
0000
0000
0000
,  // measure 65
0000
0000
0000
0000
,  // measure 66
0010
0000
0000
0000
,  // measure 67
1000
0000
0000
0000
,  // measure 68
0001
0000
0000
0000
,  // measure 69
0000
0000
0000
1000
,  // measure 70
0100
0000
0000
0000
,  // measure 71
1000
0000
0010
0000
,  // measure 72
0100
0000
0000
0000
,  // measure 73
0010
0000
0000
0000
,  // measure 74
1000
0000
0001
0000
,  // measure 75
1001
0000
0000
0000
;
