#TITLE:Zizibum;
#SUBTITLE:;
#ARTIST:X-Ray;
#TITLETRANSLIT:;
#SUBTITLETRANSLIT:;
#ARTISTTRANSLIT:;
#GENRE:;
#CREDIT:;
#BANNER:bn.png;
#BACKGROUND:bg.png;
#LYRICSPATH:;
#CDTITLE:;
#MUSIC:Zizibum.mp3;
#OFFSET:0.031;
#SAMPLESTART:37.820;
#SAMPLELENGTH:12.000;
#SELECTABLE:YES;
#BPMS:0.000=93.400
,25.000=46.700
,26.000=186.810
,88.000=187.500
,136.000=187.160
,152.000=186.600
,210.000=185.660
,210.500=161.427
,211.000=150.000
,211.500=140.000
,212.000=135.000
,212.500=130.000
,213.000=125.000
,213.500=120.000
,214.000=115.000
,215.500=90.001
,216.000=75.001
,216.500=8.001
,217.000=149.640
;
#STOPS:86.000=0.321,
86.500=0.321,
217.000=0.100,
229.500=0.201,
233.000=0.201,
236.500=0.201,
240.000=0.201,
243.500=0.201,
247.000=0.201
;
#BGCHANGES:;
#KEYSOUNDS:;
#ATTACKS:;

//---------------dance-single - ----------------
#NOTES:
     dance-single:
     :
     Challenge:
     9:
     0.612,0.624,0.353,0.123,0.142,496.000,46.000,16.000,0.000,0.000,0.000,0.612,0.624,0.353,0.123,0.142,496.000,46.000,16.000,0.000,0.000,0.000:
0000
0000
0000
0000
,
0000
0000
0000
0000
,
0000
0000
0000
0000
1000
0000
0001
0000
0000
0010
0000
0100
0010
0000
0011
0000
,
0001
0100
0010
0000
0010
1000
0100
0000
0000
1000
0000
0100
1000
0000
0200
0000
,
0000
1000
0000
0000
0310
0000
0100
1000
0010
0100
0000
0100
0010
0000
1000
0000
,
0001
0010
0001
0000
0001
0100
0010
0000
0010
1000
0000
0100
1000
0000
0001
0000
,
0100
0010
0000
2000
0002
0000
0000
3003
1001
0000
0000
0000
0001
0000
0100
0000
,
0000
0100
0010
0000
0110
0000
0010
1000
,
0100
1000
0010
0100
0001
0000
0001
0010
,
0000
0010
0001
0100
0110
0000
0000
1001
,
0000
0000
0101
0000
1010
0000
1000
0100
,
0000
1000
0100
0000
0110
0000
1000
0001
,
0100
0000
0001
0010
0001
0000
0001
0100
,
0000
0100
0100
0000
0020
0000
0230
0010
,
0000
0001
0302
0000
1003
0000
0100
0010
,
0000
0010
0001
0000
1100
0000
0100
1000
,
0010
0000
0010
1000
0001
0000
0001
0010
,
0000
1000
0001
0000
0101
0000
0100
0010
,
0000
1000
1001
0000
0101
0000
0001
0100
,
0000
0010
0100
0000
0101
0000
0001
1000
,
0010
0000
0010
1000
0100
0000
1000
0010
,
0000
0100
0001
0000
1001
1001
1001
0000
,
0000
0000
0101
0000
0011
0000
0000
0011
,
1100
1010
0101
1010
,
0100
0000
1010
0000
0011
0000
0000
1001
,
1001
0101
1010
1100
,
1000
0100
0010
0100
1000
0001
0010
0000
,
0010
0001
0100
0010
1000
0001
0010
0000
,
0001
0010
0100
0010
0001
1000
0100
0000
,
0100
1000
0010
0100
0000
0100
0010
1000
,
0100
0000
0000
0000
0000
0000
0000
0000
0010
0100
0000
0000
0000
0000
0000
0000
0010
0001
0000
0000
0000
0000
0000
0000
0000
0000
0000
0000
0001
0100
0000
0000
,
0010
0100
0000
0000
0000
0000
0000
0000
1000
0010
0000
0000
0000
0000
0000
0000
0100
1000
0000
0000
0000
0000
0000
0000
0010
0100
0000
0000
0000
0000
0000
0000
,
0000
0000
0000
0000
0000
0000
0000
0000
0100
0001
0000
0000
0000
0000
0000
0000
0010
0100
0000
0000
0000
0000
0000
0000
0000
0000
0000
0000
1000
0100
0000
0000
,
0100
0010
0000
0000
0000
0000
0000
0000
0001
0010
0000
0000
0000
0000
0000
0000
0100
1000
0000
0000
0000
0000
0000
0000
0100
0001
0000
0000
0000
0000
0000
0000
,
0010
0010
1000
0001
0010
0100
0010
0000
,
0100
1000
0100
0010
0100
1000
0001
0000
,
0100
0001
0010
0001
1000
0100
0010
0000
,
1000
0000
0010
2000
0000
3100
2000
0000
,
3001
1000
0100
1000
0001
0010
0001
0100
,
0010
1000
0100
0010
0001
0100
1000
0000
,
1000
0100
0001
0010
0001
0100
0010
1000
,
0001
0010
0001
1000
0100
1000
0010
0000
,
0001
1000
0100
0010
0100
1000
0001
0010
,
0001
0100
0010
1000
0100
0010
0001
0000
,
0001
0010
0001
0100
0010
1000
0001
0010
,
0001
0100
0010
1000
0100
0001
0100
0000
,
0100
0010
0001
0100
0010
1000
0100
0010
,
0100
1000
0001
0010
0001
0100
0010
0000
,
0010
1000
0001
0010
0001
1000
0100
1000
,
0001
0100
0001
0010
0001
1000
0100
0000
,
0100
1000
0010
0100
0001
0001
0010
0000
,
0100
1000
0010
0100
0100
0010
1000
0000
,
0001
0000
0010
0000
0001
0000
0100
0000
0010
0000
1000
0000
0001
1000
0001
0000
,
0100
0000
0000
0000
0000
0000
0010
0000
0000
1000
0000
0000
0100
0000
0000
0000
0000
0000
0100
0000
0000
1000
0000
0000
0010
0000
0000
0000
0000
0000
0010
0000
0000
0000
0000
0000
0010
0000
0000
0000
0100
0000
0000
0000
0010
0000
0000
0000
,
1000
2002
3003
0000
0000
0000
0000
0000
,
0000
0000
0000
0000
,
0000
0001
0001
0100
0010
1000
0100
0010
,
0100
1000
0001
0100
0010
1000
0100
0010
,
0100
1000
0001
0001
0010
0100
0010
0001
,
1000
0100
0100
1000
0010
0100
0100
0001
,
0010
0010
0001
0100
0010
0010
1000
0001
,
0001
0010
0001
1000
0010
0100
0001
1000
,
0001
0010
0001
1000
0100
0110
0011
0101
,
1001
0000
0101
0000
0110
0000
0010
1000
,
0100
0000
1100
0000
0011
0000
0001
0100
,
0010
0000
0000
0000
1001
0000
0000
0000
0101
0000
0000
0000
0010
1000
0200
0000
,
0000
0000
0000
0000
0000
0010
0000
0310
,
0100
0010
0001
0000
0001
1000
0000
1000
,
0010
0100
0001
0000
1001
0000
0100
0010
,
1000
0010
0010
0100
0100
0010
0000
0001
,
0010
0100
0010
0000
1100
0000
1001
0001
,
0100
0000
1000
0100
0000
0010
0200
0000
,
1000
0000
1000
0000
1000
0000
0000
1000
,
1300
0000
0000
0000
0010
0000
0100
0000
0001
0000
0010
0000
0100
0010
0100
0000
,
0010
1000
0001
0010
0100
0100
0000
1000
,
0001
0000
0001
1000
0000
0002
0020
0000
,
0000
0000
0000
0000
0033
0001
1000
0001
,
0010
0001
0100
0010
0100
1000
0000
1000
,
0100
0010
0001
0011
0100
1000
1100
1000
,
0001
0000
0001
0010
0000
0002
0200
0000
,
0000
0000
0000
0000
,
0000
0303
0000
0000
;

//---------------dance-single - Blank----------------
#NOTES:
     dance-single:
     :
     Hard:
     9:
     0.490,0.622,0.276,0.084,0.058,400.000,36.000,11.000,0.000,0.000,0.000,0.490,0.622,0.276,0.084,0.058,400.000,36.000,11.000,0.000,0.000,0.000:
0000
0000
0000
0000
,
0000
0000
0000
0000
,
0000
0000
0000
0000
1000
0000
0001
0000
0100
0010
0000
0100
0010
0000
0010
0000
,
0000
1000
0001
0000
0010
0001
1000
0000
0000
0100
0000
0010
0100
0000
0110
0000
,
0000
1001
0000
0000
0101
0000
0001
0000
1000
0100
0000
1000
0010
0000
0100
0000
,
0000
0010
1000
0000
1000
0001
0010
0000
0001
0100
0000
0100
0010
0000
0100
0000
,
0000
0010
0000
0000
1001
0000
0000
0000
0001
0000
0000
0000
1000
0000
0100
0000
,
0000
1000
0010
0000
0100
0000
0000
0010
,
0100
0000
0010
1000
0001
0000
0010
0001
,
0000
0001
1000
0000
1001
0000
0001
0100
,
0000
0100
1000
0000
0100
0000
0010
1000
,
0000
1000
0001
0000
0011
0000
0000
0001
,
0010
0000
0010
0100
1000
0000
1000
0010
,
0000
0100
0001
0000
1001
0000
0001
0001
,
0000
0100
0100
0000
0010
0000
0100
0001
,
0000
0001
0010
0000
1000
0000
0000
0010
,
0001
0000
0001
0100
1000
0000
1000
0100
,
0000
0100
1000
0000
1010
0000
0010
0100
,
0000
1000
0010
0000
0100
0010
1000
0001
,
0000
0010
0001
0000
0001
0100
0000
0100
,
0010
0000
0010
1000
0001
0000
0001
0010
,
0000
0100
1000
0000
0001
0100
0010
0000
,
0000
0000
0100
0000
0010
0000
0000
1000
,
0001
0010
0001
0100
,
0000
0000
0010
0000
0010
0000
0000
0010
,
0100
0000
0001
0000
1000
0100
1000
0000
,
2100
0010
0100
3010
,
0102
0010
0100
0013
,
0210
1000
0001
1000
,
0310
0000
0000
0010
0000
0000
0100
0000
,
0000
0000
0110
0000
1001
0000
0000
0001
,
0101
1010
1001
1100
,
0000
0000
1100
0000
0011
0000
0000
0001
,
1001
0110
1001
0110
,
0102
0010
1000
0013
,
2001
0001
0100
3001
,
1002
0010
0100
0013
,
0001
0000
0001
0010
0000
0100
1000
0000
,
0001
0100
0000
0010
1000
0001
0010
0000
,
0100
1000
0000
1000
0001
1000
0000
0000
,
0001
0010
0000
0010
1000
0010
0001
0000
,
0001
0100
0000
0100
0010
1000
0001
0010
,
0100
0010
0000
0010
0001
0100
1000
0000
,
1000
0100
0000
0100
0010
1000
0000
1000
,
0001
0010
0000
0001
1000
0100
1000
0001
,
0100
0001
0000
0001
0010
0100
1000
0000
,
1000
0010
0000
0100
0010
0100
0001
0000
,
0001
1000
0000
1000
0100
0001
0000
0001
,
0100
0010
0000
0010
0001
1000
0001
0000
,
1000
0001
0000
0001
0010
0001
0010
0001
,
1000
0001
0100
1000
0100
0010
1000
0000
,
1000
0001
0010
0100
0010
0001
0000
0000
,
0001
0100
0010
1000
0001
0010
0100
1000
,
0100
0000
0010
0000
0001
0000
1000
0000
0001
0000
0000
0100
0000
0000
0010
0000
,
0000
0100
0000
0000
0000
0000
0000
0000
,
0000
0000
0000
0000
,
0000
1000
0001
0100
0001
0010
0100
0010
,
0001
1000
0001
0100
0001
0100
0010
0100
,
0001
1000
0100
1000
0100
1000
0010
0100
,
0001
0010
0001
0100
1000
0100
0010
1000
,
0010
0100
0001
1000
1000
0001
0010
0100
,
1000
0100
0010
0001
1000
0001
0100
0001
,
0100
1000
0100
0010
1000
0001
0010
0100
,
1100
0000
0110
0000
0011
0000
0000
0001
,
0100
0000
0010
0000
1001
0000
0000
0001
,
0100
0000
0010
0000
0110
0000
0000
0100
,
0010
0000
1000
0000
1010
0000
0000
1000
,
0100
0000
1000
0000
1010
0000
0000
0010
,
0100
0000
0001
0000
0011
0000
0000
0001
,
0010
0000
0100
0000
0011
0000
0000
0001
,
0100
0000
1000
0000
1100
0000
0000
1000
,
0200
0000
0310
2000
0000
3001
0020
0000
,
0000
0000
0000
0000
,
0030
0000
0000
0000
0000
0000
0001
0001
,
0100
0010
1000
0100
0010
0001
0000
0001
,
0010
0000
0010
1000
0000
1000
0020
0000
,
0000
0000
0000
0000
0000
0000
0030
0010
,
0001
0000
0100
0000
1000
0000
0000
1000
,
0100
0000
0010
0100
0000
0000
0000
0100
,
0001
0000
0100
0010
0000
1000
0200
0000
,
0000
0000
0000
0000
,
0300
0000
0000
0000
;

//---------------dance-single - Blank----------------
#NOTES:
     dance-single:
     :
     Medium:
     7:
     0.371,0.466,0.077,0.069,0.008,319.000,10.000,9.000,0.000,0.000,0.000,0.371,0.466,0.077,0.069,0.008,319.000,10.000,9.000,0.000,0.000,0.000:
0000
0000
0000
0000
,
0000
0000
0000
0000
,
0000
0000
1000
0001
0100
0010
0100
1000
,
0100
0010
1000
0001
0010
0001
0100
0010
,
0000
0010
0000
0000
0010
0000
0100
0000
0010
0000
1000
0000
0001
0000
0010
0000
,
0100
0010
0001
1000
0100
1000
0010
0100
,
0000
0100
0000
0000
0020
0000
0000
0000
1030
0000
0000
0000
1000
0000
0100
0000
,
0000
1000
0100
0000
0010
0000
0000
0010
,
0001
0000
0001
0010
0001
0000
0000
0010
,
0000
0000
0100
0000
1100
0000
0000
0110
,
0000
0000
0011
0000
0001
0000
0000
0100
,
0000
1000
0100
0000
0010
0000
0000
0100
,
0010
0000
0010
1000
0010
0000
0000
0100
,
0000
0000
0010
0000
1001
0000
0000
0001
,
0000
0000
0101
0000
0001
0000
0001
0100
,
0000
0100
0010
0000
0100
0000
0000
0010
,
1000
0000
1000
0100
0010
0000
0000
0010
,
0000
0100
1000
0000
1100
0000
0000
0110
,
0000
0000
0011
0000
0001
0000
0001
0010
,
0000
0100
1000
0000
0010
0000
0000
0100
,
0100
0000
0010
1000
0001
0000
0000
1000
,
0000
0001
0200
0300
,
0000
0000
0010
0000
0100
0000
0000
0010
,
1000
0010
0100
0001
,
0000
0000
0001
0000
0010
0000
0000
0010
,
0100
1000
0100
1000
,
0002
0000
0000
0000
,
2000
0000
0000
0003
,
0200
0000
0000
3000
,
0000
0000
0000
0300
,
1000
0100
0010
0000
,
0010
0000
0001
0000
0100
0001
0100
0000
,
0000
0000
0010
0000
1000
0000
0000
0010
,
0100
0000
0010
0000
1000
0010
1000
0000
,
0001
1000
0100
1000
,
0001
0100
0001
1000
,
0010
1000
0001
0010
,
0001
0000
0000
0001
0000
0000
0001
0000
,
0100
0001
0100
0010
1000
0000
0001
0000
,
1000
0001
0100
0010
,
0100
0010
1000
0001
0100
0000
0010
0000
,
1000
0100
0010
0001
,
0001
0010
0100
1000
0100
0010
0001
0000
,
1000
0001
0100
0010
,
0100
0001
0100
0001
0100
0010
0100
0000
,
0010
1000
0001
0010
,
0100
1000
0100
0010
0001
0010
0100
0000
,
0010
0001
0100
0010
,
0100
0010
1000
0001
1000
0100
1000
0000
,
0010
0100
0001
1000
,
0001
0100
0010
0000
1000
0000
1100
0000
,
1000
0100
0010
0000
0001
0000
0011
0000
,
0001
0100
0010
0000
0100
0010
1000
0000
,
0001
1000
0200
0000
,
0000
0300
0000
0000
0000
0000
0000
0000
,
0000
0000
0000
0000
,
0000
1000
0001
0100
,
0001
0000
0100
0001
0000
0100
0000
0010
,
0000
0100
0010
0000
1000
0000
0010
0000
,
0100
0001
0000
1000
0000
0001
0000
0010
,
0010
0000
0100
0000
1000
0000
0100
0010
,
0000
0001
0000
0010
0000
0001
0010
0001
,
0010
0000
0100
0000
1000
0100
0010
0001
,
1000
0000
0001
0000
0100
0000
0000
0001
,
0100
0000
0010
0000
0100
0000
0000
0010
,
1000
0000
0001
0000
0010
0000
0000
0100
,
0010
0000
0001
0000
1000
0000
0000
1000
,
0010
0000
0100
0000
0010
0000
0000
0100
,
0001
0000
0010
0000
0010
0000
0000
0001
,
0010
0000
0100
0000
1000
0000
0000
0100
,
0010
0000
0001
0000
1000
0000
0000
0001
,
0100
0000
0100
0010
0000
0010
2000
0000
,
0000
0000
0000
3000
,
0000
0000
0000
0000
0000
0000
1000
0001
,
0100
0001
0010
0100
1000
0100
0000
1000
,
0100
0000
0010
0001
0000
0001
0200
0000
,
0000
0000
0000
0000
0000
0000
0300
0010
,
0100
0000
0100
0000
0100
0000
0000
1000
,
0001
0001
0001
0000
,
1000
0000
0000
0001
0000
0000
0200
0000
,
0000
0000
0000
0000
,
0300
0000
0000
0000
;

//---------------dance-single - Blank----------------
#NOTES:
     dance-single:
     :
     Easy:
     5:
     0.280,0.342,0.015,0.069,0.000,244.000,2.000,9.000,0.000,0.000,0.000,0.280,0.342,0.015,0.069,0.000,244.000,2.000,9.000,0.000,0.000,0.000:
0000
0000
0000
0000
,
0000
0000
0000
0000
,
0000
0000
0001
0100
0000
0010
0100
0010
,
0000
0100
0001
1000
0000
0100
0000
1000
,
0000
0001
0000
0100
0001
0010
0000
0010
,
0100
1000
0000
0100
1000
0010
0000
0100
,
0000
0110
0010
1000
,
0010
0001
0010
1000
,
0100
1000
0010
0100
,
0001
0000
0010
0000
0100
0000
0000
0100
,
0000
0100
0010
0001
,
0010
0001
1000
0001
,
1000
0100
1000
0010
,
0100
0000
0001
0000
0010
0000
0000
0010
,
0000
0010
0001
0010
,
1000
0010
0001
0100
,
0010
1000
0100
1000
,
0010
0000
0100
0000
0001
0000
0000
0001
,
0000
1000
0100
1000
,
0010
0100
0010
1000
,
0001
0010
0001
0100
,
0010
1000
0001
0000
,
0000
0000
0001
0000
0001
0000
0000
0001
,
1000
1000
0001
0100
,
0000
0000
0010
0000
0010
0000
0000
0010
,
0100
0010
1000
0010
,
0200
0000
0000
0300
,
0020
0000
0000
0030
,
2000
0000
0000
0000
,
0000
0000
0000
3000
,
0000
0000
0001
0000
1000
0000
0000
1000
,
0100
0010
0001
0010
,
0000
0000
0010
0000
0100
0000
0000
0100
,
1000
0010
0100
0001
,
2000
0000
0000
3000
,
0002
0000
0000
0003
,
0020
0000
0000
0000
,
0000
0000
0000
0030
,
0001
0010
0001
0100
,
1000
0100
0010
0100
,
0010
1000
0001
0010
,
0001
0100
1000
0100
,
0010
0010
0100
0100
,
0001
1000
0100
1000
,
0001
0010
0001
0100
,
0010
0100
0001
0100
,
0010
1000
0100
0010
,
0100
0010
0001
0010
,
0100
1000
0100
1000
,
0010
0100
0001
0100
,
0010
1000
0001
0010
,
0100
1000
0100
1000
,
0010
0100
0001
1000
,
0001
1000
0001
1000
,
0000
1001
0000
0000
0000
0000
0000
0000
,
0000
0000
0000
0000
,
0000
0000
0000
0001
,
0001
0000
0001
0000
0000
1000
0000
1000
,
0000
1000
0000
0000
0010
0000
0010
0000
,
0010
0000
0000
0100
0000
0100
0000
0100
,
0000
0010
0010
0010
,
0000
0100
0000
0100
0000
0100
0000
0000
,
0001
0001
1000
0001
,
0100
0100
0100
0000
,
0010
0010
0010
0000
,
1000
0001
0010
0000
,
0001
0100
0010
0000
,
0100
0010
1000
0000
,
0001
1000
0100
0000
,
1000
0010
0100
0000
,
0010
0010
0100
0000
,
0001
0000
0000
1000
0000
0000
0020
0000
,
0000
0000
0000
0000
,
0030
0000
0000
0100
,
0010
1000
0001
0000
,
0001
0000
0000
0010
0000
0000
0200
0000
,
0000
0000
0000
0000
,
0310
0001
0010
0000
,
0001
0100
1000
0000
,
1000
0000
0000
0100
0000
0000
0020
0000
,
0000
0000
0000
0000
,
0030
0000
0000
0000
;

//---------------dance-single - Blank----------------
#NOTES:
     dance-single:
     :
     Beginner:
     2:
     0.106,0.152,0.000,0.000,0.000,97.000,0.000,0.000,0.000,0.000,0.000,0.106,0.152,0.000,0.000,0.000,97.000,0.000,0.000,0.000,0.000,0.000: // measure 0
0000
0000
0000
0000
,  // measure 1
0000
0000
0000
0000
,  // measure 2
0000
1000
0000
0000
,  // measure 3
0000
0000
0000
0000
0000
0000
0000
0001
,  // measure 4
0000
0000
0000
0001
0000
0000
0000
0000
,  // measure 5
0000
0000
0000
0000
0000
0000
0000
0100
,  // measure 6
0000
0100
0010
0000
,  // measure 7
0000
0000
1000
0000
,  // measure 8
0001
0000
1000
0000
,  // measure 9
0000
0000
0010
0000
,  // measure 10
0010
0000
0010
0000
,  // measure 11
0000
0000
0100
0000
,  // measure 12
0001
0000
1000
0000
,  // measure 13
0000
0000
1000
0000
,  // measure 14
1000
0000
0010
0000
,  // measure 15
0000
0000
0100
0000
,  // measure 16
0000
0000
0010
0000
,  // measure 17
0000
0000
1000
0000
,  // measure 18
1000
0000
0001
0000
,  // measure 19
0000
0000
0010
0000
,  // measure 20
0000
0000
0001
0000
,  // measure 21
0000
0000
1000
0000
,  // measure 22
0000
1000
1000
0000
,  // measure 23
1000
1000
0000
1000
,  // measure 24
0000
0001
0001
0000
,  // measure 25
0001
0001
0000
0001
,  // measure 26
0100
0000
0000
0000
,  // measure 27
0010
0000
0000
0000
,  // measure 28
0100
0000
0000
0000
,  // measure 29
0000
0000
0000
0000
,  // measure 30
0000
0010
0010
0000
,  // measure 31
0010
0010
0000
0010
,  // measure 32
0000
0100
0100
0000
,  // measure 33
0100
0100
0000
0100
,  // measure 34
0010
0000
0000
0000
,  // measure 35
1000
0000
0000
0000
,  // measure 36
0001
0000
0000
0000
,  // measure 37
0000
0000
0000
0000
,  // measure 38
1000
0000
0000
0000
,  // measure 39
0001
0000
0000
0000
,  // measure 40
0100
0000
0000
0000
,  // measure 41
0010
0000
0000
0000
,  // measure 42
1000
0000
0000
0000
,  // measure 43
0010
0000
0000
0000
,  // measure 44
0100
0000
0000
0000
,  // measure 45
0001
0000
0000
0000
,  // measure 46
0001
0000
0000
0000
,  // measure 47
1000
0000
0000
0000
,  // measure 48
1000
0000
0000
0000
,  // measure 49
0010
0000
0000
0000
,  // measure 50
0100
0000
0000
0000
,  // measure 51
0100
0000
0000
0000
,  // measure 52
0010
0000
0000
0000
,  // measure 53
1000
0000
0000
0000
,  // measure 54
0000
0000
0000
0000
,  // measure 55
0000
0000
0000
0000
,  // measure 56
0000
0000
0000
0000
,  // measure 57
0001
0000
0000
0000
0000
0000
0000
1000
,  // measure 58
0000
0000
0000
0001
,  // measure 59
0000
0000
0000
0000
0000
0100
0000
0000
,  // measure 60
0000
0000
0010
0000
,  // measure 61
0000
0000
0000
1000
0000
0000
0000
0000
,  // measure 62
0001
0000
1000
1000
,  // measure 63
1000
0000
0000
0000
,  // measure 64
0001
0000
0000
0000
,  // measure 65
0100
0000
0000
0010
,  // measure 66
0010
0000
0100
0000
,  // measure 67
0010
0000
0000
0000
,  // measure 68
1000
0000
0000
0000
,  // measure 69
0001
0000
0000
0000
,  // measure 70
0100
0000
0000
0000
,  // measure 71
0010
0000
0000
0000
,  // measure 72
0100
0000
0000
0000
,  // measure 73
0001
0000
0000
0000
,  // measure 74
1000
0000
0001
0000
,  // measure 75
0010
0000
0000
0000
,  // measure 76
0100
0000
0000
0000
,  // measure 77
0100
0000
0000
0000
,  // measure 78
1000
0000
0000
0000
,  // measure 79
0001
0000
0000
0000
;
