#TITLE:You're My Angel;
#SUBTITLE:;
#ARTIST:Darren Styles;
#TITLETRANSLIT:;
#SUBTITLETRANSLIT:;
#ARTISTTRANSLIT:;
#GENRE:SOFTCORE;
#CREDIT:;
#BANNER:angelbn.png;
#BACKGROUND:angel.png;
#LYRICSPATH:;
#CDTITLE:;
#MUSIC:You're My Angel.mp3;
#OFFSET:-0.022;
#SAMPLESTART:53.260;
#SAMPLELENGTH:12.000;
#SELECTABLE:YES;
#BPMS:0.000=72.000
,49.000=144.000
;
#STOPS:;
#BGCHANGES:;
#KEYSOUNDS:;
#ATTACKS:;

//---------------dance-single - ----------------
#NOTES:
     dance-single:
     :
     Hard:
     7:
     0.320,0.389,0.108,0.099,0.287,227.000,12.000,11.000,0.000,0.000,0.000,0.320,0.389,0.108,0.099,0.287,227.000,12.000,11.000,0.000,0.000,0.000:
0000
0000
0000
0000
,
0000
0000
0000
0000
,
0000
0000
0000
0000
,
0000
0000
0000
0000
,
0000
0001
0001
0010
,
0100
1100
1000
1000
,
1000
1001
0001
0001
,
0001
0100
0100
0100
,
0100
0000
0000
0000
0000
0010
0000
1000
0000
0010
0000
0100
0000
0001
0000
0010
,
0000
0100
0000
0010
0000
0010
0000
0100
0000
0100
0000
1000
0000
0010
0000
0100
,
0000
0001
0000
1000
0000
0100
0000
1000
0000
0010
0000
0100
0000
0001
0000
0010
,
0000
0100
0000
1000
0000
0100
0000
0010
0000
0001
0000
0010
0000
0001
0000
0100
,
0000
0010
0000
1000
0000
0000
0001
0000
0000
0000
0100
0000
0000
0000
0010
0000
,
0000
1000
0000
0100
0000
0010
0000
0100
,
0000
1000
0000
1000
0000
0001
0000
0001
,
0000
0100
0000
0010
0000
1000
0000
0001
,
0000
0010
0000
0001
0000
0100
0000
0010
,
0000
1000
0000
0100
0000
0010
0000
0001
,
0000
0010
0000
1000
0000
0010
0000
0001
,
0000
0000
0200
0000
0000
0000
0000
0300
0000
0000
0000
0000
0010
0000
0000
0000
,
0100
0010
0000
1000
0000
0000
0000
0000
,
0000
0000
0001
0000
1000
0100
0000
0001
,
0000
0100
0000
1000
0000
0010
0000
0100
,
0000
0001
0000
0000
0000
0000
0101
0000
,
0001
0100
0000
0110
0000
0010
0000
1001
,
0000
0100
0000
0101
0000
1000
0000
1100
,
0000
0011
0000
0000
0000
0002
0000
0203
,
0000
0320
0000
0030
0000
0000
1010
0000
,
0010
0200
0000
0002
0000
0303
0000
0000
,
0000
0000
0001
0000
1000
0001
0000
0010
,
0000
1000
0000
0010
0000
0001
0000
0100
,
0000
0020
0000
0000
0030
0000
1010
0000
,
0010
1000
0000
1100
0000
0010
0000
0011
,
0000
0001
0000
0100
0000
1000
0000
0100
,
0000
0002
0000
0000
0000
0010
0000
0010
,
0000
0020
0000
0000
0000
0000
0000
0000
,
0033
0000
0000
0000
0000
0000
0001
0000
0010
0000
0000
0100
0000
0000
0010
0000
,
0001
0000
0000
0100
0000
0000
0010
0000
1000
0000
0000
0010
0000
0000
0100
0000
,
0010
0000
0000
1000
0000
0000
0010
0000
1000
0000
0000
0001
0000
0000
1000
0000
,
0001
0000
0000
0100
0000
0000
0001
0000
1000
0000
0000
0100
0000
0000
1000
0000
,
0001
0000
0000
0100
0000
0000
0001
0000
0010
0000
0000
0100
0000
0000
0100
0000
,
0010
0000
0000
0001
0000
0000
0010
0000
0100
0000
0000
1000
0000
0000
0100
0000
,
1000
0000
0000
0010
0000
0000
0100
0000
0010
0000
0000
1000
0000
0000
0001
0000
,
0100
0000
0000
0010
0000
0000
1000
0000
0001
0000
0000
1000
0000
0000
0001
0000
,
0100
0000
0000
0010
0000
0000
1000
0000
0100
0000
0000
1000
0000
0000
0100
0000
,
1000
0000
0000
0010
0000
0000
0100
0000
0001
0000
0000
1000
0000
0000
0001
0000
,
0100
0000
0000
0010
0000
0000
0100
0000
0010
0000
0000
1000
0000
0000
0100
0000
,
1000
0000
0000
0010
0000
0000
0100
0000
0001
0000
0000
1000
0000
0000
0001
0000
,
0100
0000
0000
0010
0000
0000
0100
0000
0010
0000
0000
1000
0000
0000
0010
0000
,
0100
0000
0000
0001
0000
0000
0100
0000
0010
0000
0000
1000
0000
0000
0010
0000
,
0100
0000
0000
0001
0000
0000
1000
0000
0100
0000
0000
1000
0000
0000
0010
0000
,
0100
0000
0000
0001
0000
0000
0100
0000
0010
0000
0000
1000
0000
0000
0001
0000
,
0100
0000
0000
0020
2000
0000
0000
0000
0000
0000
0000
0000
0000
0000
0000
0000
,
0000
0000
0000
0000
,
0000
3030
0000
0000
;

//---------------dance-single - ----------------
#NOTES:
     dance-single:
     :
     Medium:
     4:
     0.232,0.243,0.036,0.090,0.000,167.000,4.000,10.000,0.000,0.000,0.000,0.232,0.243,0.036,0.090,0.000,167.000,4.000,10.000,0.000,0.000,0.000:
0000
0000
0000
0000
,
0000
0000
0000
0000
,
0000
0000
0000
0000
,
0000
0000
0000
0000
,
0000
0010
0010
1000
,
1000
0001
0001
0010
,
0010
0100
1000
0100
,
1000
0010
0100
0001
,
1000
0001
0000
1000
,
0000
0010
0000
0100
,
0000
0010
0000
1000
,
0000
0001
1000
0100
,
0000
0100
0000
0010
,
0000
0001
0000
1000
,
0100
1000
0000
0010
,
0000
0100
0000
0010
,
1000
0001
1000
0001
,
1000
0001
0100
0001
,
0100
0010
1000
0100
,
0010
0022
0000
0000
,
0033
0101
0000
0000
,
0000
0000
0001
0000
1000
0001
0000
0100
,
0000
0010
0000
0010
0000
0100
0000
0001
,
0000
1000
0000
0000
0000
0000
0100
0000
,
1000
0100
0000
0010
0000
0100
0000
1000
,
0000
0001
0000
0100
0000
1000
0000
0100
,
0000
0020
0000
0000
0000
0100
0000
0100
,
0000
0200
0000
0000
0330
0000
0010
0000
,
1000
0020
0000
0200
0000
0000
0330
0000
,
0000
0000
0110
0000
0010
1000
0000
0001
,
0000
0010
0000
0010
0000
0001
0000
0100
,
0000
1000
0000
0000
0000
0000
1000
0000
,
0100
0010
0000
1000
0000
0001
0000
0010
,
0000
0100
0000
1000
0000
0100
0000
0010
,
0000
0002
0000
0000
0000
1000
0000
1000
,
0000
2000
0000
0000
0000
0000
0000
0000
,
0003
3000
0000
0000
0001
0000
0000
0000
0100
0000
0000
0000
0001
0000
0000
0000
,
0100
0001
0010
0001
,
0100
0010
0010
0100
,
0100
0010
1000
0001
,
0010
0100
0010
0001
,
1000
0100
1000
0010
,
0100
0010
0010
0100
,
0100
0010
1000
0001
,
0010
0000
0100
1000
0100
0000
1000
0000
,
0010
0100
0001
0010
,
0100
1000
0010
0000
0100
0000
0010
0000
,
1000
0001
0010
0001
,
0100
0010
1000
0000
1000
0000
0001
0000
,
0001
0100
0010
1000
,
0100
0010
0010
0001
,
0001
0100
0010
1000
,
0001
2200
0000
0000
,
0000
0000
0000
0000
,
0000
3300
0000
0000
;

//---------------dance-single - ----------------
#NOTES:
     dance-single:
     :
     Easy:
     3:
     0.206,0.214,0.036,0.027,0.000,154.000,4.000,3.000,0.000,0.000,0.000,0.206,0.214,0.036,0.027,0.000,154.000,4.000,3.000,0.000,0.000,0.000:
0000
0000
0000
0000
,
0000
0000
0000
0000
,
0000
0000
0000
0000
,
0000
0000
0000
0000
,
0000
1000
1000
1000
,
1000
0001
0001
0100
,
0100
0001
0001
0001
,
0001
1000
1000
0100
,
0100
0010
0000
0000
,
0000
0100
0000
0000
,
0000
1000
0000
0001
,
0000
0100
0010
1000
,
0000
0001
0000
1000
,
0000
0010
0000
0100
,
0000
0010
0000
1000
,
0000
1000
0000
0001
,
0000
0010
0001
0100
,
0010
1000
0100
0010
,
0001
1000
0001
0100
,
0010
1001
0000
0010
,
0010
1001
0001
1000
,
0100
1000
0001
0100
,
0001
1000
0100
1000
,
0001
0100
0100
0100
,
0110
0010
1000
0010
,
1000
0001
0010
0001
,
1000
0010
1000
0001
,
0010
0001
1000
0010
,
0100
0101
0000
0000
,
0000
0001
1000
0100
,
1000
0010
0100
0010
,
1000
0100
1000
0010
,
0010
0100
0001
0010
,
0001
0100
0010
0100
,
0001
1000
0100
0010
,
0001
2000
0000
0000
,
3000
0001
0000
1000
,
0000
0010
0000
0100
,
0000
0001
1000
0100
,
1000
0010
0000
0100
,
0000
0001
0000
1000
,
0000
0010
0000
0100
,
0000
0010
1000
0100
,
0010
0001
0000
0001
,
0000
1000
0001
0010
,
0010
0001
1000
0100
,
0100
1000
0010
1000
,
1000
0001
0001
0010
,
0001
1000
0100
1000
,
0010
0100
0001
0010
,
0001
0100
1000
0100
,
0001
0020
0000
0000
,
0000
0200
0000
0000
,
0330
0000
0000
0000
;

//---------------dance-single - ----------------
#NOTES:
     dance-single:
     :
     Beginner:
     1:
     0.069,0.070,0.018,0.000,0.000,52.000,2.000,0.000,0.000,0.000,0.000,0.069,0.070,0.018,0.000,0.000,52.000,2.000,0.000,0.000,0.000,0.000: // measure 0
0000
0000
0000
0000
,  // measure 1
0000
0000
0000
0000
,  // measure 2
0000
0000
0000
0000
,  // measure 3
0000
0000
0000
0000
,  // measure 4
0000
0100
0000
0000
,  // measure 5
0000
0010
0000
0000
,  // measure 6
0000
1000
0000
0000
,  // measure 7
0000
0001
0000
0001
,  // measure 8
0000
1000
0000
0000
,  // measure 9
0000
0010
0000
0000
,  // measure 10
0000
0100
0000
0000
,  // measure 11
0000
0001
0000
0000
,  // measure 12
0000
1000
0000
0000
,  // measure 13
0000
0000
0000
0000
,  // measure 14
0000
0001
0000
0000
,  // measure 15
0000
0000
0000
0000
,  // measure 16
0000
0100
0000
0000
,  // measure 17
0000
0100
0000
0000
,  // measure 18
0000
0010
0000
0010
,  // measure 19
0000
0010
0000
0000
,  // measure 20
0000
0100
0000
0000
,  // measure 21
0000
0010
0000
0000
,  // measure 22
0000
1000
0000
0000
,  // measure 23
0000
0100
0000
0000
,  // measure 24
0000
1000
0000
0000
,  // measure 25
0000
0001
0000
0000
,  // measure 26
0000
0010
0000
0000
,  // measure 27
0000
0001
0000
0000
,  // measure 28
0000
0100
0000
0000
,  // measure 29
0000
0010
0000
0000
,  // measure 30
0000
1000
0000
0000
,  // measure 31
0000
0001
0000
0000
,  // measure 32
0000
1000
0000
0000
,  // measure 33
0000
0100
0000
0000
,  // measure 34
0000
1000
0000
0000
,  // measure 35
0000
1001
0000
0000
,  // measure 36
0000
0001
0000
0000
,  // measure 37
0000
1000
0000
0000
,  // measure 38
0010
0010
0000
0000
,  // measure 39
0000
0100
0000
0000
,  // measure 40
0000
0010
0000
0000
,  // measure 41
0000
1000
0000
0000
,  // measure 42
0001
0001
0000
0000
,  // measure 43
0000
0100
0000
0000
,  // measure 44
0000
0010
0000
0000
,  // measure 45
0000
0100
0000
0000
,  // measure 46
0000
0001
0000
0000
,  // measure 47
0000
1000
0000
0000
,  // measure 48
0000
0100
0000
0000
,  // measure 49
0000
0010
0000
0000
,  // measure 50
0000
0001
0000
0001
,  // measure 51
0000
0001
0000
0000
,  // measure 52
0000
0110
0000
0000
;
