#TITLE:Wizzy;
#SUBTITLE:(Darwin Remix);
#ARTIST:Nu Foundation;
#TITLETRANSLIT:;
#SUBTITLETRANSLIT:;
#ARTISTTRANSLIT:;
#GENRE:HAPPY HARDCORE;
#CREDIT:;
#BANNER:bn.png;
#BACKGROUND:bg.png;
#LYRICSPATH:;
#CDTITLE:;
#MUSIC:Wizzy (Darwin Remix).mp3;
#OFFSET:-0.040;
#SAMPLESTART:37.140;
#SAMPLELENGTH:12.000;
#SELECTABLE:YES;
#BPMS:0.000=181.040
;
#STOPS:44.000=0.994
;
#BGCHANGES:;
#KEYSOUNDS:;
#ATTACKS:;

//---------------dance-single - ----------------
#NOTES:
     dance-single:
     :
     Hard:
     9:
     0.543,0.807,0.328,0.116,0.039,348.000,34.000,12.000,0.000,0.000,0.000,0.543,0.807,0.328,0.116,0.039,348.000,34.000,12.000,0.000,0.000,0.000:
0000
0000
0000
0000
,
0000
0000
0000
0000
,
0000
0000
0000
0000
,
0000
0000
0000
0000
,
0000
0000
0000
0000
,
0000
0000
0000
0000
,
0000
0000
0000
0000
,
0000
0000
0000
0000
,
2002
0000
0000
0000
,
0000
0000
0000
0000
,
0000
0000
0000
0000
,
3003
1000
0001
0100
,
0100
0001
0100
0010
,
1000
0100
0010
0100
,
0100
0010
0001
0010
,
1000
0010
0001
0100
,
0100
0010
1000
0001
,
0010
0001
1000
0100
,
0100
1000
0010
0100
,
0001
0000
1000
0001
0100
0000
0010
0000
,
1000
0100
0001
0100
,
1000
0000
0010
0100
0010
0000
0100
0000
,
0001
1000
1000
0001
,
0001
0000
1000
0010
0100
0000
0010
0000
,
1000
0100
0001
0100
,
1000
0000
0010
0100
0001
0000
1000
0000
,
0001
0000
0020
0000
0001
0000
0130
1000
,
0010
0000
0100
0001
1000
0000
1100
0000
,
1001
0000
0001
0100
1000
0200
0000
0010
,
0310
0000
0010
1000
0001
0000
0011
0000
,
1100
0000
1000
0001
0010
0200
0000
0010
,
0310
0000
0100
1000
0010
0000
0110
0000
,
0101
0000
0001
1000
0100
0020
0000
0100
,
0130
0000
0100
0010
0001
0000
1001
0000
,
0101
0000
0001
0000
0001
0100
0000
0010
,
1000
0000
1000
0100
0010
0000
1100
0000
,
1100
0000
1000
0001
0010
2000
0000
0010
,
3010
0000
0010
0001
0100
0000
0110
0000
,
1001
0000
0001
0100
1000
0200
0000
0010
,
0310
0000
0100
0010
1000
0000
1001
0000
,
0101
0000
0100
0010
1000
0200
0000
1000
,
1300
0000
1000
0100
0001
0000
0011
0000
,
1001
0000
0001
0000
0001
0010
0000
0100
,
1000
0000
1000
0001
0000
0100
0000
1000
,
0000
0100
0000
0001
0000
0010
0000
0010
,
0100
1000
0001
0100
0000
0010
0000
0100
,
0000
1000
0000
0100
0000
0010
0000
0100
,
1000
0100
1000
0010
0000
0100
0000
0001
,
0000
0010
0000
0100
0000
1000
0000
0100
,
1000
0010
1000
0100
0000
0010
0000
0001
,
0000
0100
0000
0010
0000
1000
0000
0001
,
1000
0100
0010
0100
1000
0000
1000
0010
,
0100
0000
0100
0010
1000
0001
1000
0001
,
0010
0000
0001
0010
0001
0000
0001
0100
,
0010
0000
0100
0010
1000
0001
0010
0001
,
0010
0000
0100
1000
0010
0000
0100
0010
,
1000
0000
1000
0001
0010
0001
1000
0100
,
1000
0000
1000
0001
0100
1000
0100
0001
,
0010
0001
0000
1000
0000
1000
0000
1000
,
0000
1000
1100
0000
0011
0000
0001
0000
,
0100
0110
1001
0001
,
1000
1100
1001
0001
,
0100
0110
0101
0001
,
1000
1100
0011
0001
,
0100
1100
0110
0010
,
1000
1100
1001
0001
,
0010
0110
1100
0100
,
0010
0000
0010
0001
0100
0010
0100
0010
,
0100
0010
1000
0001
0010
0100
1000
0100
,
1000
0100
1000
0010
1000
0001
0100
0010
,
0100
0010
0100
0001
1000
0100
0010
0001
,
0010
0001
1000
0001
0100
0001
1000
0010
,
1000
0100
0010
0100
1000
0001
0010
0001
,
1000
0000
0001
0000
1000
0100
1000
0100
1000
0100
1000
0100
1000
0100
1000
0100
,
1000
0100
1000
0100
2000
0000
0000
0000
0010
0000
0000
0000
0100
0000
0000
0000
,
3001
0220
0000
0000
,
0330
0000
0000
0000
;

//---------------dance-single - ----------------
#NOTES:
     dance-single:
     :
     Medium:
     7:
     0.419,0.477,0.125,0.039,0.000,287.000,13.000,4.000,0.000,0.000,0.000,0.419,0.477,0.125,0.039,0.000,287.000,13.000,4.000,0.000,0.000,0.000:
0000
0000
0000
0000
,
0000
0000
0000
0000
,
0000
0000
0000
0000
,
0000
0000
0000
0000
,
0000
0000
0000
0000
,
0000
0000
0000
0000
,
0000
0000
0000
0000
,
0000
0000
0000
0000
,
2002
0000
0000
0000
,
0000
0000
0000
0000
,
0000
0000
0000
0000
,
3003
0001
1000
0010
,
0010
1000
0010
0100
,
0001
0010
0100
0010
,
0010
0001
0100
0010
,
1000
0100
1000
0010
,
0010
0100
0001
0010
,
0100
1000
0100
1000
,
1000
0100
1000
0010
,
0100
0000
0001
0100
0001
0000
0100
0000
,
0010
1000
0010
0100
,
0001
0000
0010
0100
0010
0000
0100
0000
,
1000
0010
0100
0001
,
1000
0000
0100
1000
0100
0000
1000
0000
,
0010
0100
0001
0010
,
0100
0000
1000
0100
1000
0000
0100
0000
,
0010
0001
0011
0011
,
0011
0000
0001
0100
0010
0000
0100
0000
,
0100
0000
0010
0100
0010
0100
0000
0010
,
0100
0000
0010
1000
0010
0000
1000
0000
,
0010
0000
0100
0000
0010
0000
1000
0010
,
1000
0000
0010
1000
0010
0000
0100
0000
,
0001
0010
0100
1000
,
0100
0000
1000
0010
0100
0000
0001
0000
,
1000
0000
0001
0000
0001
0100
0000
0010
,
1000
0000
0110
0010
0100
0000
0010
0000
,
1000
0010
0001
0010
,
0100
0000
0010
1000
0001
0000
0010
0000
,
0100
0000
1000
0100
0010
0001
0000
0001
,
0001
0000
0001
0100
0010
0000
0100
0000
,
0100
0010
1000
0001
,
0010
0000
0100
1000
0010
0000
0100
0000
,
0001
0000
0100
0000
0010
1000
0000
0001
,
0100
0000
0001
0100
0000
1000
0000
0100
,
0000
0001
0000
0100
0000
1000
0000
0100
,
0001
0010
1000
0010
0000
0001
0000
0010
,
0000
1000
0000
0010
0000
0001
0000
0010
,
1000
0010
0001
0100
0000
0001
0000
0100
,
0000
0010
0000
0100
0000
0001
0000
0100
,
0001
0100
0010
1000
0000
0100
0000
1000
,
0000
0010
0000
0100
0000
1000
0000
0010
,
0100
0010
0100
0010
0100
0000
0010
1000
,
0001
0100
0100
0010
,
0010
0000
0100
0001
1000
0000
1000
0100
,
1000
0100
1000
0010
,
0100
0000
0010
1000
0001
0000
0001
0010
,
0100
0000
0100
1000
0010
0000
0010
0100
,
0001
0000
0001
0100
0010
1000
0001
0100
,
0010
1000
0001
0000
0000
0000
0000
0000
,
0000
1100
0000
0101
,
0000
0001
0100
0010
,
0010
0110
0000
1001
,
0000
0001
0100
0010
,
0010
0101
0000
1100
,
0000
1000
0010
0100
,
0001
0011
0000
1010
,
0000
0001
1000
0010
,
0100
0010
0010
0100
,
0100
0001
0001
1000
,
1000
0001
0100
0010
,
1000
0100
0010
0100
,
1000
0001
1000
0010
,
0100
0001
0010
0100
,
1000
0000
0010
0100
0010
0100
0010
0100
,
0010
0100
0020
0000
0000
0000
0000
0000
,
0000
0200
0000
0000
,
0330
0000
0000
0000
;

//---------------dance-single - ----------------
#NOTES:
     dance-single:
     :
     Easy:
     5:
     0.365,0.367,0.135,0.077,0.000,243.000,14.000,8.000,0.000,0.000,0.000,0.365,0.367,0.135,0.077,0.000,243.000,14.000,8.000,0.000,0.000,0.000:
0000
0000
0000
0000
,
0000
0000
0000
0000
,
0000
0000
0000
0000
,
0000
0000
0000
0000
,
0000
0000
0000
0000
,
0000
0000
0000
0000
,
0000
0000
0000
0000
,
0000
0000
0000
0000
,
2002
0000
0000
0000
,
0000
0000
0000
0000
,
0000
0000
0000
0000
,
3003
0001
0001
0100
,
0001
0100
0100
0100
,
0100
0010
1000
0010
,
0010
0100
0010
1000
,
0001
0010
0010
0001
,
0010
0001
0100
0010
,
1000
0001
0001
1000
,
1000
0001
0100
1000
,
0100
0010
0010
0100
,
0100
0010
0100
0010
,
0100
0001
0001
1000
,
1000
0001
1000
0001
,
1000
0001
0001
0100
,
0100
0010
0010
1000
,
1000
1000
0100
0010
,
0001
0022
0000
0000
,
0033
0001
0100
0010
,
0110
0010
1000
0010
,
0100
0010
1000
0001
,
1001
0001
0010
0100
,
0100
0010
0001
0100
,
1010
0010
0100
0001
,
1000
0100
0010
0011
,
0011
0000
0001
0000
0001
0100
0000
0001
,
0100
0001
0100
0010
,
0010
0100
0010
1000
,
0001
0010
0100
1100
,
1100
0100
1000
0010
,
0100
0001
0001
1100
,
1100
0010
0100
0001
,
0100
0010
0010
0100
,
0100
0202
0000
0000
,
0303
0001
0001
0001
,
0001
0000
0001
0000
0001
0000
0001
1000
,
0001
1000
1000
1000
,
1000
0000
1000
0000
1000
0000
1000
0001
,
1000
0010
0010
0010
,
0010
0000
0010
0000
0010
0000
0010
0100
,
0010
0100
0100
0100
,
0100
0000
0100
0000
0100
0000
0100
0010
,
0100
0100
0010
1000
,
0001
0000
0010
0000
0100
0000
1000
0100
,
1000
0100
1000
0010
,
0100
0000
0001
0000
0010
0000
0100
1000
,
0100
1000
0010
0100
,
0001
0010
0001
0100
,
0010
1000
0001
0000
0010
0100
0001
0000
,
0001
0100
0010
0000
0000
0000
0000
0000
,
0000
0110
0000
0010
,
0000
1000
0000
0001
,
0010
0001
0000
0100
,
0000
0010
0000
1000
,
0100
1000
0000
0100
,
0000
1000
0000
0010
,
0100
0001
0000
1000
,
0000
0010
0000
0100
,
0000
0010
1000
0010
,
0001
0010
1000
0100
,
0001
0100
1000
0010
,
0010
0100
0001
1000
,
1000
0001
0100
0010
,
1000
0001
0100
0010
,
1000
0001
0001
0001
,
0001
0001
0000
0000
,
0000
0220
0000
0000
,
0330
0000
0000
0000
;

//---------------dance-single - ----------------
#NOTES:
     dance-single:
     :
     Beginner:
     2:
     0.141,0.254,0.048,0.000,0.000,97.000,5.000,0.000,0.000,0.000,0.000,0.141,0.254,0.048,0.000,0.000,97.000,5.000,0.000,0.000,0.000,0.000: // measure 0
0000
0000
0000
0000
,  // measure 1
0000
0000
0000
0000
,  // measure 2
0000
0000
0000
0000
,  // measure 3
0000
0000
0000
0000
,  // measure 4
0000
0000
0000
0000
,  // measure 5
0000
0000
0000
0000
,  // measure 6
0000
0000
0000
0000
,  // measure 7
0000
0000
0000
0000
,  // measure 8
1001
0000
0000
0000
,  // measure 9
0000
0000
0000
0000
,  // measure 10
0000
0000
0000
0000
,  // measure 11
0000
0100
0000
0000
,  // measure 12
0000
0010
0000
0000
,  // measure 13
0000
1000
0000
0000
,  // measure 14
0000
0001
0000
0000
,  // measure 15
0000
0010
0000
0000
,  // measure 16
0000
0100
0000
0000
,  // measure 17
0000
1000
0000
0000
,  // measure 18
0000
1000
0000
1000
,  // measure 19
0000
0001
0000
0000
,  // measure 20
0000
0000
0000
0000
,  // measure 21
0000
0100
0000
0000
,  // measure 22
0000
0010
0000
0000
,  // measure 23
0000
1000
0000
0000
,  // measure 24
0000
1000
0000
0000
,  // measure 25
0000
1000
0000
0001
,  // measure 26
0000
1000
1000
0100
,  // measure 27
1000
0010
0000
0010
,  // measure 28
0000
0010
0010
0010
,  // measure 29
0000
0100
0000
0100
,  // measure 30
0000
0100
0100
0100
,  // measure 31
0100
0010
0000
0010
,  // measure 32
0000
0010
0010
0010
,  // measure 33
0000
1000
0000
1000
,  // measure 34
0000
1001
0000
0110
,  // measure 35
0000
1001
0000
0001
,  // measure 36
0000
0001
0001
0001
,  // measure 37
0000
1000
0000
1000
,  // measure 38
0000
1000
1000
1000
,  // measure 39
0000
0010
0000
0010
,  // measure 40
0000
0010
0010
0010
,  // measure 41
0000
0100
0000
0010
,  // measure 42
0000
0100
0000
0000
,  // measure 43
0000
0010
0000
0000
,  // measure 44
0000
0000
0000
0000
,  // measure 45
1000
1000
0000
0000
,  // measure 46
0000
0000
0000
0001
,  // measure 47
0001
0001
0000
0000
,  // measure 48
0000
0000
0000
0100
,  // measure 49
0100
0100
0000
0000
,  // measure 50
0000
0000
0000
0010
,  // measure 51
0010
0010
0000
0000
,  // measure 52
0000
1000
0000
0000
,  // measure 53
0000
0001
0000
0000
,  // measure 54
0000
0010
0000
0000
,  // measure 55
0000
0100
0000
0000
,  // measure 56
0000
1000
0000
0000
,  // measure 57
0000
0001
0000
0001
,  // measure 58
0000
0001
0000
0000
,  // measure 59
0000
1000
0000
0000
,  // measure 60
0000
0010
0000
0000
,  // measure 61
0000
0100
0000
0000
,  // measure 62
0000
0001
0000
0000
,  // measure 63
0000
0010
0000
0000
,  // measure 64
0000
0100
0000
0000
,  // measure 65
0000
1000
0000
0000
,  // measure 66
0000
1000
0000
0000
,  // measure 67
0000
1000
0000
0000
,  // measure 68
0000
0001
0000
0000
,  // measure 69
0000
0100
0000
0000
,  // measure 70
0000
0010
0000
0000
,  // measure 71
0000
1000
0000
0000
,  // measure 72
0000
1000
0000
0000
,  // measure 73
0000
0001
0000
0001
,  // measure 74
0000
0001
0000
0000
,  // measure 75
0000
0110
0000
0000
;
